<?xml version="1.0" standalone="no"?>
<!DOCTYPE svg PUBLIC "-//W3C//DTD SVG 1.1//EN" "http://www.w3.org/Graphics/SVG/1.1/DTD/svg11.dtd" >
<svg xmlns="http://www.w3.org/2000/svg" xmlns:xlink="http://www.w3.org/1999/xlink" version="1.1">
<metadata>
Created by FontForge 20141024 at Fri Mar 27 11:02:56 2015
 By System Administrator
Circe is a geometric sans-serif with some humanist features in 6 weights from Thin to Extra Bold. Name of the font derives from both its geometric shapes and artificial, kinky nature. While being clean and simple in its basic form, Circe can become more intricate with its numerous decorative variations of characters, tempting and challenging the designer to use more and more of them and finally -- probably -- making him look foolish like the sailors who got to Circe's island. Its oversized character set not only allows using Circe for almost all European languages (based on Latin and Cyrillic scripts) but also contains a lot of alternates and swash variants organized in stylistic sets which make the font look in several completely different ways. Circe is good for both text setting in small point sizes and display purposes, such as magazine headlines, posters and so on. Designed by Alexandra Korolkova and released by ParaType in 2011.
</metadata>
<defs>
<font id="Circe-ExtraLight" horiz-adv-x="586" >
  <font-face 
    font-family="Circe Extra Light"
    font-weight="300"
    font-stretch="normal"
    units-per-em="1000"
    panose-1="2 11 3 2 2 2 3 2 2 3"
    ascent="773"
    descent="-227"
    x-height="450"
    cap-height="700"
    bbox="-500 -346 1689 994"
    underline-thickness="50"
    underline-position="-50"
    stemh="28"
    stemv="29"
    unicode-range="U+0020-FB02"
  />
<missing-glyph horiz-adv-x="243" 
 />
    <glyph glyph-name="uniF350.var.accented" unicode="&#xf350;`" horiz-adv-x="560" 
d="M21 0l248 530h22l248 -530h-32l-88 189h-280l-88 -189h-30zM279 491l-128 -275h255zM378 731l-116 -137l-16 15l114 142z" />
    <glyph glyph-name="uniF355.var.accented" unicode="&#xf355;`" horiz-adv-x="474" 
d="M93 0v525h311v-28h-282v-216h258v-28h-258v-225h290v-28h-319zM353 731l-116 -137l-16 15l114 142z" />
    <glyph glyph-name="uniF358.var.accented" unicode="&#xf358;`" horiz-adv-x="645" 
d="M120 0h-27v525h29v-479l403 479h27v-525h-29v479zM410 731l-116 -137l-16 15l114 142z" />
    <glyph glyph-name="uniF35E.var.accented" unicode="&#xf35e;`" horiz-adv-x="647" 
d="M46 263c0 152 119 268 277 268s278 -114 278 -268s-120 -270 -278 -270c-157 0 -277 114 -277 270zM77 263c0 -138 107 -242 246 -242c143 0 247 104 247 242s-107 240 -247 240c-139 0 -246 -102 -246 -240zM425 731l-116 -137l-16 15l114 142z" />
    <glyph glyph-name="uniF363.var.accented" unicode="&#xf363;`" horiz-adv-x="517" 
d="M502 525l-198 -407c-39 -80 -73 -118 -124 -118c-21 0 -42 5 -58 16l11 25c15 -9 31 -14 47 -14c40 0 65 36 85 75l12 22l-262 401h36l241 -372l179 372h31zM360 731l-116 -137l-16 15l114 142z" />
    <glyph glyph-name="uniF36B.var.accented" unicode="&#xf36b;`" horiz-adv-x="662" 
d="M539 0v525h30v-525h-30zM214 287c-25 0 -55 -1 -92 -3v-256c27 0 53 -2 88 -2c119 0 184 47 184 137c0 78 -61 124 -180 124zM122 525v-213c37 3 69 3 92 3c143 0 211 -58 211 -153c0 -108 -85 -164 -218 -164c-43 0 -81 2 -114 2v525h29zM400 731l-116 -137l-16 15
l114 142z" />
    <glyph glyph-name="uniF36D.var.accented" unicode="&#xf36d;`" horiz-adv-x="551" 
d="M163 254v28h311c-7 137 -104 221 -253 221c-60 0 -116 -12 -160 -44l-13 21c43 35 110 52 174 52c171 0 283 -104 283 -268c0 -154 -111 -271 -282 -271c-71 0 -134 19 -187 55l14 24c51 -33 108 -50 175 -50c149 0 245 99 250 232h-312zM340 731l-116 -137l-16 15
l114 142z" />
    <glyph glyph-name="uniF36E.var.accented" unicode="&#xf36e;`" horiz-adv-x="862" 
d="M93 0v525h29v-243h157c9 142 115 250 267 250c159 0 270 -114 270 -269c0 -154 -111 -270 -270 -270c-152 0 -263 109 -267 261h-157v-254h-29zM310 263c0 -138 98 -241 237 -241c141 0 238 103 238 241s-98 240 -238 240c-139 0 -237 -102 -237 -240zM451 731l-116 -137
l-16 15l114 142z" />
    <glyph glyph-name="uniF36F.var.accented" unicode="&#xf36f;`" horiz-adv-x="497" 
d="M375 0v210h-142l-169 -210h-36l173 214c-65 17 -127 73 -127 148c0 93 67 165 204 165c44 0 93 -2 126 -2v-525h-29zM228 238h147v259c-26 0 -62 2 -100 2c-118 0 -170 -63 -170 -136c0 -65 61 -116 123 -125zM370 731l-116 -137l-16 15l114 142z" />
    <glyph glyph-name="uniF371.var.accented" unicode="&#xf371;`" horiz-adv-x="474" 
d="M93 0v525h311v-28h-282v-216h258v-28h-258v-225h290v-28h-319zM137 667c0 11 10 20 22 20c10 0 20 -9 20 -20c0 -13 -10 -22 -20 -22c-12 0 -22 9 -22 22zM312 667c0 11 10 20 22 20c10 0 20 -9 20 -20c0 -13 -10 -22 -20 -22c-12 0 -22 9 -22 22zM310 731l-116 -137
l-16 15l114 142z" />
    <glyph glyph-name="afii10017.var.accented" unicode="&#x410;`" horiz-adv-x="690" 
d="M26 0l308 707h22l308 -707h-32l-113 260h-350l-112 -260h-31zM344 663l-163 -375h326zM488 829l-167 -89l-9 18l165 94z" />
    <glyph glyph-name="afii10022.var.accented" unicode="&#x415;`" horiz-adv-x="575" 
d="M116 0v700h380v-28h-350v-302h320v-28h-320v-314h360v-28h-390zM423 829l-167 -89l-9 18l165 94z" />
    <glyph glyph-name="afii10026.var.accented" unicode="&#x418;`" horiz-adv-x="799" 
d="M143 0h-27v700h30v-653l510 653h27v-700h-30v652zM513 829l-167 -89l-9 18l165 94z" />
    <glyph glyph-name="afii10032.var.accented" unicode="&#x41e;`" horiz-adv-x="807" 
d="M57 350c0 203 149 359 346 359c196 0 346 -153 346 -359c0 -204 -150 -359 -346 -359c-195 0 -346 153 -346 359zM88 350c0 -188 137 -330 315 -330c181 0 315 142 315 330c0 189 -136 330 -315 330c-178 0 -315 -141 -315 -330zM523 829l-167 -89l-9 18l165 94z" />
    <glyph glyph-name="afii10037.var.accented" unicode="&#x423;`" horiz-adv-x="640" 
d="M621 700l-246 -544c-48 -107 -89 -156 -151 -156c-24 0 -51 6 -70 21l10 25c19 -13 39 -19 59 -19c50 0 84 48 110 103l15 30l-329 540h33l310 -511l229 511h30zM465 829l-167 -89l-9 18l165 94z" />
    <glyph glyph-name="afii10045.var.accented" unicode="&#x42b;`" horiz-adv-x="815" 
d="M670 0v700h29v-700h-29zM262 387c-31 0 -69 -1 -116 -6v-353c33 0 66 -2 112 -2c152 0 235 65 235 189c0 108 -78 172 -231 172zM146 700v-290c47 4 87 5 116 5c178 0 261 -77 261 -201c0 -144 -104 -216 -268 -216c-52 0 -98 2 -139 2v700h30zM516 829l-167 -89l-9 18
l165 94z" />
    <glyph glyph-name="afii10047.var.accented" unicode="&#x42d;`" horiz-adv-x="683" 
d="M203 343v28h392c-8 190 -133 309 -325 309c-71 0 -140 -17 -195 -60l-13 21c53 47 136 68 213 68c213 0 350 -138 350 -356c0 -204 -137 -362 -347 -362c-88 0 -166 25 -232 73l15 24c64 -45 136 -68 215 -68c190 0 314 140 319 323h-392zM418 829l-167 -89l-9 18l165 94
z" />
    <glyph glyph-name="afii10048.var.accented" unicode="&#x42e;`" horiz-adv-x="1074" 
d="M116 0v700h30v-329h200c10 192 146 338 334 338c196 0 336 -153 336 -359c0 -204 -140 -359 -336 -359c-191 0 -331 149 -334 352h-200v-343h-30zM376 350c0 -188 128 -330 305 -330c181 0 304 142 304 330c0 189 -126 330 -304 330c-177 0 -305 -141 -305 -330zM673 829
l-167 -89l-9 18l165 94z" />
    <glyph glyph-name="afii10049.var.accented" unicode="&#x42f;`" horiz-adv-x="608" 
d="M463 0v286h-177l-214 -286h-36l220 290c-83 20 -164 94 -164 196c0 122 84 216 253 216c49 0 106 -2 147 -2v-700h-29zM280 314h183v358c-33 0 -78 2 -123 2c-150 0 -217 -86 -217 -188c0 -89 78 -160 157 -172zM489 829l-167 -89l-9 18l165 94z" />
    <glyph glyph-name="afii10023.var.accented" unicode="&#x401;`" horiz-adv-x="575" 
d="M164 796c0 12 9 21 21 21c10 0 19 -9 19 -21c0 -13 -9 -22 -19 -22c-12 0 -21 9 -21 22zM410 796c0 12 10 21 21 21c10 0 19 -9 19 -21c0 -13 -9 -22 -19 -22c-11 0 -21 9 -21 22zM408 841l-151 -99l-11 9l141 101zM116 0v700h380v-28h-350v-302h320v-28h-320v-314h360
v-28h-390z" />
    <glyph glyph-name="afii10065.var.accented" unicode="&#x430;`" horiz-adv-x="457" 
d="M91 394l-9 24c43 27 87 41 138 41c121 0 162 -66 162 -178v-281h-28v78c-30 -41 -78 -83 -167 -83c-84 0 -140 51 -140 129c0 90 74 137 171 137c37 0 94 -7 136 -37c0 125 -5 208 -137 208c-51 0 -83 -13 -126 -38zM193 22c90 0 132 47 161 85v90c-38 27 -83 40 -134 40
c-70 0 -143 -33 -143 -111c0 -66 51 -104 116 -104zM334 693l-112 -141l-18 12l109 146z" />
    <glyph glyph-name="afii10070.var.accented" unicode="&#x435;`" horiz-adv-x="527" 
d="M441 80l11 -21c-39 -45 -104 -68 -164 -68c-138 0 -236 92 -236 234c0 131 75 234 223 234c116 0 201 -80 201 -202c0 -12 -1 -22 -2 -31h-391c1 -128 82 -208 206 -208c63 0 119 26 152 62zM271 432c-116 0 -182 -78 -190 -182h366c1 112 -69 182 -176 182zM368 693
l-112 -141l-18 12l109 146z" />
    <glyph glyph-name="afii10074.var.accented" unicode="&#x438;`" horiz-adv-x="561" 
d="M114 0h-29v450h29v-409l334 409h28v-450h-28v409zM374 693l-112 -141l-18 12l109 146z" />
    <glyph glyph-name="afii10080.var.accented" unicode="&#x43e;`" horiz-adv-x="569" 
d="M52 225c0 135 96 234 232 234c137 0 233 -99 233 -234s-96 -234 -233 -234c-136 0 -232 99 -232 234zM81 225c0 -121 84 -207 203 -207s203 86 203 207s-84 207 -203 207c-118 0 -203 -86 -203 -207zM379 693l-112 -141l-18 12l109 146z" />
    <glyph glyph-name="afii10085.var.accented" unicode="&#x443;`" horiz-adv-x="472" 
d="M455 450l-184 -450c-66 -161 -108 -200 -167 -200c-24 0 -46 7 -70 19l10 22c20 -9 38 -15 56 -15c51 0 90 42 134 150l10 24l-227 450h33l173 -345c13 -25 24 -48 35 -73c9 25 19 50 29 75l136 343h32zM353 693l-112 -141l-18 12l109 146z" />
    <glyph glyph-name="afii10093.var.accented" unicode="&#x44b;`" horiz-adv-x="603" 
d="M85 0v450h29v-165h81c138 0 178 -62 178 -142c0 -79 -44 -143 -183 -143h-105zM191 258h-77v-231h76c115 0 154 44 154 116s-42 115 -153 115zM490 0v450h28v-450h-28zM388 693l-112 -141l-18 12l109 146z" />
    <glyph glyph-name="afii10095.var.accented" unicode="&#x44d;`" horiz-adv-x="491" 
d="M160 217v25h250c-7 119 -92 190 -206 190c-62 0 -118 -26 -152 -63l-13 20c39 46 105 70 165 70c137 0 235 -92 235 -234c0 -131 -96 -234 -220 -234c-68 0 -130 14 -173 55l14 22c40 -36 98 -50 156 -50c106 0 191 83 195 199h-251zM316 693l-112 -141l-18 12l109 146z
" />
    <glyph glyph-name="afii10096.var.accented" unicode="&#x44e;`" horiz-adv-x="742" 
d="M85 0v450h30v-206h128c8 125 97 215 223 215c132 0 224 -99 224 -234s-93 -234 -224 -234c-129 0 -219 94 -223 225h-128v-216h-30zM274 225c0 -121 79 -205 192 -205c114 0 193 84 193 205c0 120 -78 205 -193 205c-113 0 -192 -85 -192 -205zM467 693l-112 -141l-18 12
l109 146z" />
    <glyph glyph-name="afii10097.var.accented" unicode="&#x44f;`" horiz-adv-x="473" 
d="M260 450h128v-450h-28v183h-133l-145 -183h-36l152 189c-59 7 -117 53 -117 125c0 73 44 136 179 136zM110 314c0 -66 65 -104 109 -104h141v213h-105c-105 0 -145 -49 -145 -109zM381 693l-112 -141l-18 12l109 146z" />
    <glyph glyph-name="afii10071.var.accented" unicode="&#x451;`" horiz-adv-x="527" 
d="M133 624c0 10 9 19 20 19c9 0 19 -9 19 -19c0 -12 -10 -21 -19 -21c-11 0 -20 9 -20 21zM360 624c0 10 9 19 20 19c10 0 19 -9 19 -19c0 -12 -9 -21 -19 -21c-11 0 -20 9 -20 21zM339 693l-112 -141l-16 10l110 146zM441 80l11 -21c-39 -45 -104 -68 -164 -68
c-138 0 -236 92 -236 234c0 131 75 234 223 234c116 0 201 -80 201 -202c0 -12 -1 -22 -2 -31h-391c1 -128 82 -208 206 -208c63 0 119 26 152 62zM271 432c-116 0 -182 -78 -190 -182h366c1 112 -69 182 -176 182z" />
    <glyph glyph-name="fi" unicode="fi" horiz-adv-x="490" 
d="M365 0v423h-234v-423h-28v520c0 128 64 189 168 189c63 0 101 -23 124 -46l-19 -18c-25 20 -54 37 -102 37c-89 0 -143 -51 -143 -171v-61h262v-450h-28z" />
    <glyph glyph-name="fl" unicode="fl" horiz-adv-x="549" 
d="M358 113v537c-24 17 -53 32 -97 32c-86 0 -130 -51 -130 -168v-64h134v-27h-134v-423h-28v523c0 125 53 186 153 186c53 0 89 -18 112 -35h18v-540c0 -75 19 -111 74 -111c27 0 54 11 69 23l10 -23c-20 -14 -51 -27 -87 -27c-67 0 -94 38 -94 117z" />
    <glyph glyph-name=".notdef" horiz-adv-x="243" 
 />
    <glyph glyph-name="space" unicode=" " horiz-adv-x="243" 
 />
    <glyph glyph-name="exclam" unicode="!" horiz-adv-x="310" 
d="M140 174v526h30v-526h-30zM131 24c0 11 11 22 25 22c12 0 23 -11 23 -22c0 -13 -11 -25 -23 -25c-14 0 -25 12 -25 25z" />
    <glyph glyph-name="quotedbl" unicode="&#x22;" horiz-adv-x="389" 
d="M250 505v195h28v-195h-28zM111 505v195h28v-195h-28z" />
    <glyph glyph-name="numbersign" unicode="#" horiz-adv-x="674" 
d="M323 0l80 217h-232l-83 -226l-24 9l81 217h-105v26h114l80 214h-194v26h203l85 226l22 -9l-80 -217h232l84 226l23 -8l-81 -218h107v-26h-116l-79 -214h195v-26h-205l-83 -226zM260 457l-79 -214h232l79 214h-232z" />
    <glyph glyph-name="dollar" unicode="$" 
d="M477 170c0 220 -379 134 -379 370c0 92 68 164 188 169v81h28v-82c69 -3 133 -30 169 -70l-17 -21c-42 43 -101 63 -168 63c-105 0 -170 -56 -170 -140c0 -216 379 -123 379 -369c0 -103 -83 -171 -193 -179v-92h-28v91c-79 2 -171 40 -206 99l19 20
c42 -57 123 -90 189 -90c97 0 189 50 189 150z" />
    <glyph glyph-name="percent" unicode="%" horiz-adv-x="827" 
d="M144 5l527 704l17 -13l-526 -705zM56 546c0 91 70 156 162 156s162 -65 162 -156c0 -92 -70 -157 -162 -157s-162 65 -162 157zM83 546c0 -80 66 -133 135 -133c72 0 135 53 135 133c0 79 -64 132 -135 132s-135 -53 -135 -132zM446 156c0 91 70 156 162 156
s162 -65 162 -156c0 -92 -70 -157 -162 -157s-162 65 -162 157zM473 156c0 -80 66 -133 135 -133c72 0 135 53 135 133c0 79 -64 132 -135 132s-135 -53 -135 -132z" />
    <glyph glyph-name="ampersand" unicode="&#x26;" horiz-adv-x="731" 
d="M620 0l-94 119c-51 -75 -127 -128 -229 -128c-120 0 -212 83 -212 199c0 117 100 201 181 255c-63 10 -110 62 -110 130c0 76 62 134 137 134c74 0 136 -58 136 -134c0 -71 -55 -128 -123 -131l221 -280c47 80 73 184 73 286h28c0 -111 -29 -225 -83 -310l111 -140h-36z
M297 20c94 0 164 49 211 122l-225 286c-81 -57 -167 -133 -167 -233c0 -107 87 -175 181 -175zM183 575c0 -60 49 -110 110 -110c60 0 109 50 109 110s-49 109 -109 109c-61 0 -110 -49 -110 -109z" />
    <glyph glyph-name="quotesingle" unicode="'" horiz-adv-x="250" 
d="M111 505v195h28v-195h-28z" />
    <glyph glyph-name="parenleft" unicode="(" horiz-adv-x="261" 
d="M261 -190l-19 -16c-152 131 -202 284 -202 431s50 293 203 431l18 -16c-144 -133 -193 -268 -193 -415s56 -297 193 -415z" />
    <glyph glyph-name="parenright" unicode=")" horiz-adv-x="261" 
d="M19 -206l-19 16c137 118 193 268 193 415s-49 282 -193 415l18 16c153 -138 203 -284 203 -431s-50 -300 -202 -431z" />
    <glyph glyph-name="asterisk" unicode="*" horiz-adv-x="449" 
d="M203 684c0 14 11 24 24 24c12 0 24 -10 24 -24c0 -12 -12 -23 -24 -23c-13 0 -24 11 -24 23zM202 446c0 13 11 24 24 24c12 0 24 -11 24 -24c0 -12 -12 -23 -24 -23c-13 0 -24 11 -24 23zM308 619c0 13 11 24 23 24c14 0 24 -11 24 -24s-10 -23 -24 -23
c-12 0 -23 10 -23 23zM308 512c0 12 11 23 23 23c14 0 24 -11 24 -23c0 -14 -10 -24 -24 -24c-12 0 -23 10 -23 24zM94 512c0 12 10 23 24 23c12 0 23 -11 23 -23c0 -14 -11 -24 -23 -24c-14 0 -24 10 -24 24zM94 619c0 13 10 24 24 24c12 0 23 -11 23 -24s-11 -23 -23 -23
c-14 0 -24 10 -24 23z" />
    <glyph glyph-name="plus" unicode="+" 
d="M73 347v26h206v206h26v-206h208v-26h-208v-208h-26v208h-206z" />
    <glyph glyph-name="comma" unicode="," horiz-adv-x="181" 
d="M65 21c0 13 11 23 27 23c24 0 49 -27 49 -75c0 -62 -41 -104 -87 -116l-7 15c30 9 66 40 69 88c1 34 -9 49 -18 54c-1 -7 -8 -10 -14 -10c-10 0 -19 10 -19 21z" />
    <glyph glyph-name="hyphen" unicode="-" horiz-adv-x="407" 
d="M93 257v27h221v-27h-221z" />
    <glyph glyph-name="period" unicode="." horiz-adv-x="162" 
d="M57 24c0 11 11 22 25 22c12 0 23 -11 23 -22c0 -13 -11 -25 -23 -25c-14 0 -25 12 -25 25z" />
    <glyph glyph-name="slash" unicode="/" horiz-adv-x="301" 
d="M-30 -199l338 908l23 -9l-337 -908z" />
    <glyph glyph-name="zero" unicode="0" horiz-adv-x="579" 
d="M73 350c0 205 62 358 216 358c155 0 216 -153 216 -358s-59 -358 -214 -358c-154 0 -218 153 -218 358zM103 350c0 -193 53 -331 188 -331c137 0 185 137 185 331s-50 331 -187 331c-136 0 -186 -138 -186 -331z" />
    <glyph glyph-name="one" unicode="1" horiz-adv-x="366" 
d="M53 584l152 123h19v-707h-29v664l-125 -102z" />
    <glyph glyph-name="two" unicode="2" horiz-adv-x="531" 
d="M56 0v24c114 112 346 342 346 511c0 71 -48 145 -151 145c-65 0 -146 -39 -160 -140l-25 8c13 108 106 160 185 160c127 0 181 -90 181 -167c0 -196 -279 -458 -339 -514h372v-27h-409z" />
    <glyph glyph-name="three" unicode="3" horiz-adv-x="534" 
d="M251 -9c-82 0 -161 34 -198 123l19 18c36 -83 113 -112 182 -112c107 0 175 73 175 169c0 92 -72 155 -160 155h-64v28h57c69 0 140 69 140 160c0 98 -62 148 -151 148s-136 -45 -161 -104l-18 15c25 74 94 118 180 118c112 0 179 -66 179 -176c0 -70 -40 -142 -113 -170
v-3c88 -12 140 -91 140 -171c0 -121 -88 -198 -207 -198z" />
    <glyph glyph-name="four" unicode="4" horiz-adv-x="528" 
d="M354 0v193h-327v17l320 490h33l-313 -478h287v228h28v-228h108v-29h-108v-193h-28z" />
    <glyph glyph-name="five" unicode="5" horiz-adv-x="520" 
d="M126 378l41 322h293v-28h-269l-34 -262c20 6 49 12 79 12c131 0 222 -83 222 -209c0 -137 -98 -222 -207 -222c-76 0 -155 34 -198 115l19 19c39 -73 114 -105 179 -105c100 0 178 81 178 192c0 104 -81 184 -201 184c-37 0 -76 -9 -102 -18z" />
    <glyph glyph-name="six" unicode="6" horiz-adv-x="547" 
d="M57 248c0 257 178 428 334 461l13 -22c-140 -31 -290 -163 -315 -393c27 71 95 133 196 133c126 0 205 -89 205 -216c0 -125 -96 -220 -201 -220c-156 0 -232 121 -232 257zM87 249c0 -117 65 -229 201 -229c94 0 173 85 173 189c0 105 -62 191 -183 191
c-111 0 -176 -84 -191 -151z" />
    <glyph glyph-name="seven" unicode="7" horiz-adv-x="466" 
d="M37 672v28h391v-15l-274 -685h-32l269 672h-354z" />
    <glyph glyph-name="eight" unicode="8" horiz-adv-x="588" 
d="M276 374h36c68 0 144 64 144 152c0 99 -82 154 -164 154c-81 0 -161 -56 -161 -154c0 -88 77 -152 145 -152zM310 346h-29c-95 0 -175 -70 -175 -161c0 -97 88 -165 187 -165c101 0 189 63 189 165c0 101 -80 161 -172 161zM294 -9c-111 0 -218 71 -218 190
c0 82 57 158 151 177v3c-73 19 -125 96 -125 166c0 110 86 182 191 182s193 -72 193 -182c0 -68 -47 -139 -126 -165v-3c89 -10 151 -83 151 -176c0 -121 -106 -192 -217 -192z" />
    <glyph glyph-name="nine" unicode="9" horiz-adv-x="546" 
d="M489 451c0 -259 -145 -431 -337 -460l-11 23c173 30 301 170 316 390c-27 -70 -95 -124 -195 -124c-127 0 -207 98 -207 213c0 125 106 216 210 216c156 0 224 -120 224 -258zM459 450c0 116 -56 230 -192 230c-94 0 -183 -81 -183 -185c0 -96 63 -188 184 -188
c111 0 176 76 191 143z" />
    <glyph glyph-name="colon" unicode=":" horiz-adv-x="324" 
d="M138 436c0 11 11 22 25 22c12 0 23 -11 23 -22c0 -13 -11 -25 -23 -25c-14 0 -25 12 -25 25zM138 24c0 11 11 22 25 22c12 0 23 -11 23 -22c0 -13 -11 -25 -23 -25c-14 0 -25 12 -25 25z" />
    <glyph glyph-name="semicolon" unicode=";" horiz-adv-x="326" 
d="M138 436c0 11 11 22 25 22c12 0 23 -11 23 -22c0 -13 -11 -25 -23 -25c-14 0 -25 12 -25 25zM137 21c0 13 11 23 27 23c24 0 49 -27 49 -75c0 -62 -41 -104 -87 -116l-7 15c30 9 66 40 69 88c1 34 -9 49 -18 54c-1 -7 -8 -10 -14 -10c-10 0 -19 10 -19 21z" />
    <glyph glyph-name="less" unicode="&#x3c;" 
d="M473 97l-403 259v12l403 256v-31l-363 -231l363 -233v-32z" />
    <glyph glyph-name="equal" unicode="=" 
d="M73 430v26h440v-26h-440zM73 264v26h440v-26h-440z" />
    <glyph glyph-name="greater" unicode="&#x3e;" 
d="M516 356l-403 -259v32l363 233l-363 231v31l403 -256v-12z" />
    <glyph glyph-name="question" unicode="?" horiz-adv-x="455" 
d="M388 535c0 83 -67 145 -164 145c-66 0 -125 -32 -166 -88l-18 17c36 58 108 100 187 100c123 0 190 -78 190 -169c0 -186 -209 -172 -209 -319c0 -12 1 -25 4 -39l-26 -2c-4 17 -5 32 -5 46c0 152 207 143 207 309zM171 24c0 11 11 22 25 22c12 0 23 -11 23 -22
c0 -13 -11 -25 -23 -25c-14 0 -25 12 -25 25z" />
    <glyph glyph-name="at" unicode="@" horiz-adv-x="1021" 
d="M674 0v67c-35 -40 -99 -76 -164 -76c-135 0 -224 92 -224 234c0 131 106 234 245 234c65 0 125 -19 171 -48v-384h21c125 0 195 116 195 239c0 212 -169 366 -398 366c-241 0 -417 -178 -417 -407c0 -226 176 -407 417 -407c38 0 74 4 108 12l5 -26
c-36 -8 -74 -13 -113 -13c-259 0 -444 192 -444 434c0 240 185 434 444 434c244 0 425 -162 425 -392c0 -132 -74 -267 -227 -267h-44zM514 18c68 0 135 45 160 81v294c-47 29 -98 39 -144 39c-119 0 -215 -91 -215 -208c0 -127 79 -206 199 -206z" />
    <glyph glyph-name="A" unicode="A" horiz-adv-x="690" 
d="M26 0l308 707h22l308 -707h-32l-113 260h-350l-112 -260h-31zM344 663l-163 -375h326z" />
    <glyph glyph-name="B" unicode="B" horiz-adv-x="617" 
d="M116 0v700c39 0 120 2 177 2c167 0 218 -75 218 -172c0 -98 -72 -153 -150 -166v-2c114 -11 179 -70 179 -170c0 -138 -106 -194 -246 -194c-57 0 -137 2 -178 2zM296 346h-150v-318c32 0 100 -2 148 -2c134 0 216 54 216 168c0 96 -76 152 -214 152zM291 674
c-48 0 -114 -1 -145 -2v-299h156c98 0 179 58 179 153c0 96 -57 148 -190 148z" />
    <glyph glyph-name="C" unicode="C" horiz-adv-x="657" 
d="M606 90l13 -23c-49 -48 -134 -76 -215 -76c-205 0 -347 141 -347 359c0 201 134 359 338 359c87 0 156 -20 211 -65l-15 -21c-52 41 -116 57 -195 57c-185 0 -308 -143 -308 -330c0 -199 131 -330 318 -330c81 0 151 28 200 70z" />
    <glyph glyph-name="D" unicode="D" horiz-adv-x="735" 
d="M116 0v700h11c53 0 93 3 158 3c280 0 393 -161 393 -342c0 -201 -134 -363 -401 -363c-55 0 -100 2 -154 2h-7zM283 675c-61 0 -90 -3 -137 -3v-644c65 0 129 -2 132 -2c246 0 369 150 369 335c0 170 -106 314 -364 314z" />
    <glyph glyph-name="E" unicode="E" horiz-adv-x="575" 
d="M116 0v700h380v-28h-350v-302h320v-28h-320v-314h360v-28h-390z" />
    <glyph glyph-name="F" unicode="F" horiz-adv-x="544" 
d="M116 0v700h388v-28h-358v-322h328v-28h-328v-322h-30z" />
    <glyph glyph-name="G" unicode="G" horiz-adv-x="727" 
d="M413 296v28h247v-237c-62 -62 -175 -96 -262 -96c-201 0 -341 141 -341 359c0 201 135 359 336 359c89 0 157 -20 214 -65l-15 -23c-51 43 -118 59 -195 59c-186 0 -309 -143 -309 -330c0 -199 127 -330 312 -330c83 0 180 31 231 82v194h-218z" />
    <glyph glyph-name="H" unicode="H" horiz-adv-x="772" 
d="M627 0v343h-481v-343h-30v700h30v-329h481v329h29v-700h-29z" />
    <glyph glyph-name="I" unicode="I" horiz-adv-x="316" 
d="M143 0v700h30v-700h-30z" />
    <glyph glyph-name="J" unicode="J" horiz-adv-x="350" 
d="M233 700v-550c0 -95 -28 -159 -129 -159c-36 0 -69 14 -87 29l12 23c16 -12 44 -23 72 -23c87 0 103 60 103 133v547h29z" />
    <glyph glyph-name="K" unicode="K" horiz-adv-x="624" 
d="M577 700l-344 -333l356 -367h-43l-354 365l344 335h41zM116 0v700h30v-700h-30z" />
    <glyph glyph-name="L" unicode="L" horiz-adv-x="554" 
d="M116 0v700h30v-672h389v-28h-419z" />
    <glyph glyph-name="M" unicode="M" horiz-adv-x="877" 
d="M116 0v700h31l297 -405l288 405h29v-700h-29v655l-287 -404h-5l-294 401v-652h-30z" />
    <glyph glyph-name="N" unicode="N" horiz-adv-x="799" 
d="M683 0h-24l-515 646v-646h-28v700h24l514 -648v648h29v-700z" />
    <glyph glyph-name="O" unicode="O" horiz-adv-x="807" 
d="M57 350c0 203 149 359 346 359c196 0 346 -153 346 -359c0 -204 -150 -359 -346 -359c-195 0 -346 153 -346 359zM88 350c0 -188 137 -330 315 -330c181 0 315 142 315 330c0 189 -136 330 -315 330c-178 0 -315 -141 -315 -330z" />
    <glyph glyph-name="P" unicode="P" horiz-adv-x="575" 
d="M146 0h-30v700c39 0 124 2 160 2c191 0 241 -106 241 -206c0 -105 -69 -209 -246 -209c-37 0 -82 2 -125 5v-292zM279 674c-34 0 -100 -1 -133 -2v-352c43 -3 80 -5 123 -5c148 0 218 79 218 182c0 99 -58 177 -208 177z" />
    <glyph glyph-name="Q" unicode="Q" horiz-adv-x="807" 
d="M57 350c0 203 149 359 346 359c196 0 346 -153 346 -359c0 -112 -45 -209 -118 -274l64 -76h-38l-48 58c-57 -42 -128 -67 -206 -67c-195 0 -346 153 -346 359zM88 350c0 -188 137 -330 315 -330c71 0 136 22 187 61l-61 75l19 18l64 -76c66 60 106 149 106 252
c0 189 -136 330 -315 330c-178 0 -315 -141 -315 -330z" />
    <glyph glyph-name="R" unicode="R" horiz-adv-x="621" 
d="M146 0h-30v700c39 0 131 2 151 2c191 0 242 -95 242 -196c0 -94 -71 -174 -177 -194l254 -312h-37l-249 306h-154v-306zM265 674c-20 0 -86 -1 -119 -2v-338h136c96 0 196 71 196 172c0 96 -55 168 -213 168z" />
    <glyph glyph-name="S" unicode="S" horiz-adv-x="543" 
d="M455 170c0 220 -379 134 -379 370c0 95 72 169 200 169c75 0 146 -28 184 -71l-17 -21c-42 43 -101 63 -168 63c-103 0 -168 -56 -168 -140c0 -216 379 -123 379 -369c0 -110 -97 -180 -219 -180c-80 0 -174 39 -210 99l19 20c42 -57 123 -90 189 -90
c97 0 190 50 190 150z" />
    <glyph glyph-name="T" unicode="T" horiz-adv-x="591" 
d="M10 672v28h571v-28h-271v-672h-29v672h-271z" />
    <glyph glyph-name="U" unicode="U" horiz-adv-x="751" 
d="M645 700v-406c0 -214 -121 -301 -260 -301c-158 0 -279 103 -279 308v399h30v-395c0 -185 105 -284 249 -284c129 0 230 85 230 280v399h30z" />
    <glyph glyph-name="V" unicode="V" horiz-adv-x="656" 
d="M640 700l-299 -707h-19l-306 707h32l285 -660l276 660h31z" />
    <glyph glyph-name="W" unicode="W" horiz-adv-x="948" 
d="M930 700l-205 -700h-23l-226 647l-220 -647h-23l-216 700h33l197 -641l218 641h24l224 -642l188 642h29z" />
    <glyph glyph-name="X" unicode="X" horiz-adv-x="657" 
d="M613 700l-265 -344l274 -356h-36l-258 333l-257 -333h-36l275 356l-264 344h36l247 -321l248 321h36z" />
    <glyph glyph-name="Y" unicode="Y" horiz-adv-x="567" 
d="M550 700l-253 -389v-311h-29v311l-251 389h35l231 -361l233 361h34z" />
    <glyph glyph-name="Z" unicode="Z" horiz-adv-x="624" 
d="M60 672v28h514v-16l-491 -656h501v-28h-544v16l490 656h-470z" />
    <glyph glyph-name="bracketleft" unicode="[" horiz-adv-x="276" 
d="M60 -200v850h213v-27h-185v-796h185v-27h-213z" />
    <glyph glyph-name="backslash" unicode="\" horiz-adv-x="301" 
d="M-7 709l338 -908l-24 -9l-337 908z" />
    <glyph glyph-name="bracketright" unicode="]" horiz-adv-x="276" 
d="M216 650v-850h-213v27h184v796h-184v27h213z" />
    <glyph glyph-name="asciicircum" unicode="^" horiz-adv-x="470" 
d="M55 450l172 258h17l171 -258h-32l-147 226l-150 -226h-31z" />
    <glyph glyph-name="underscore" unicode="_" horiz-adv-x="266" 
d="M0 -200v28h266v-28h-266z" />
    <glyph glyph-name="grave" unicode="`" horiz-adv-x="250" 
d="M172 552l-112 141l21 17l109 -146z" />
    <glyph glyph-name="a" unicode="a" horiz-adv-x="457" 
d="M91 394l-9 24c43 27 87 41 138 41c121 0 162 -66 162 -178v-281h-28v78c-30 -41 -78 -83 -167 -83c-84 0 -140 51 -140 129c0 90 74 137 171 137c37 0 94 -7 136 -37c0 125 -5 208 -137 208c-51 0 -83 -13 -126 -38zM193 22c90 0 132 47 161 85v90c-38 27 -83 40 -134 40
c-70 0 -143 -33 -143 -111c0 -66 51 -104 116 -104z" />
    <glyph glyph-name="b" unicode="b" horiz-adv-x="550" 
d="M85 46v654h29v-316c36 42 105 75 170 75c135 0 215 -94 215 -227c0 -148 -100 -241 -241 -241c-69 0 -128 19 -173 55zM279 432c-71 0 -139 -43 -165 -79v-289c50 -36 96 -46 146 -46c118 0 209 80 209 210c0 123 -71 204 -190 204z" />
    <glyph glyph-name="c" unicode="c" horiz-adv-x="491" 
d="M439 83l14 -19c-38 -48 -103 -73 -166 -73c-137 0 -235 92 -235 234c0 131 96 234 220 234c68 0 129 -15 172 -55l-14 -23c-42 37 -96 51 -153 51c-107 0 -196 -89 -196 -207c0 -127 89 -207 208 -207c61 0 117 27 150 65z" />
    <glyph glyph-name="d" unicode="d" horiz-adv-x="553" 
d="M439 0v71c-36 -42 -98 -79 -164 -79c-135 0 -223 91 -223 232c0 138 105 235 243 235c56 0 103 -14 144 -45v286h28v-700h-28zM279 19c66 0 132 44 160 80v287c-52 36 -98 46 -144 46c-120 0 -214 -84 -214 -207c0 -127 80 -206 198 -206z" />
    <glyph glyph-name="e" unicode="e" horiz-adv-x="527" 
d="M441 80l11 -21c-39 -45 -104 -68 -164 -68c-138 0 -236 92 -236 234c0 131 75 234 223 234c116 0 201 -80 201 -202c0 -12 -1 -22 -2 -31h-391c1 -128 82 -208 206 -208c63 0 119 26 152 62zM271 432c-116 0 -182 -78 -190 -182h366c1 112 -69 182 -176 182z" />
    <glyph glyph-name="f" unicode="f" horiz-adv-x="338" 
d="M103 0v523c0 125 53 186 153 186c54 0 90 -18 112 -37l-11 -22c-25 18 -53 32 -98 32c-84 0 -128 -51 -128 -168v-64h191v-27h-191v-423h-28z" />
    <glyph glyph-name="g" unicode="g" horiz-adv-x="487" 
d="M17 -69c0 70 54 116 140 133c-11 12 -17 28 -17 46c0 20 7 37 19 49c-58 25 -94 77 -94 142c0 90 70 158 173 158c45 0 84 -13 113 -36l126 35v-27l-103 -28c24 -27 37 -63 37 -102c0 -90 -70 -157 -173 -157c-21 0 -40 2 -57 7c-10 -11 -14 -26 -14 -41
c0 -16 6 -31 18 -42c17 2 35 4 54 4c131 0 222 -49 222 -141c0 -91 -91 -139 -222 -139s-222 47 -222 139zM47 -69c0 -71 78 -112 192 -112c115 0 192 40 192 112s-77 114 -192 114c-114 0 -192 -42 -192 -114zM95 301c0 -75 58 -130 143 -130s143 55 143 130
s-59 131 -143 131s-143 -56 -143 -131z" />
    <glyph glyph-name="h" unicode="h" horiz-adv-x="553" 
d="M85 0v700h29v-318c37 43 108 76 173 76c127 0 190 -63 190 -204v-254h-28v248c0 124 -53 183 -167 183c-70 0 -139 -39 -168 -77v-354h-29z" />
    <glyph glyph-name="i" unicode="i" horiz-adv-x="255" 
d="M113 0v450h28v-450h-28zM105 629c0 12 11 22 23 22c11 0 21 -10 21 -22c0 -13 -10 -23 -21 -23c-12 0 -23 10 -23 23z" />
    <glyph glyph-name="j" unicode="j" horiz-adv-x="257" 
d="M143 450v-483c0 -110 -41 -175 -141 -175c-35 0 -67 13 -85 26l10 23c16 -11 43 -22 71 -22c84 0 117 54 117 149v482h28zM106 629c0 12 11 22 23 22c11 0 21 -10 21 -22c0 -13 -10 -23 -21 -23c-12 0 -23 10 -23 23z" />
    <glyph glyph-name="k" unicode="k" horiz-adv-x="457" 
d="M414 450l-225 -213l244 -237h-40l-240 235l223 215h38zM85 0v700h29v-700h-29z" />
    <glyph glyph-name="l" unicode="l" horiz-adv-x="276" 
d="M85 113v587h29v-566c0 -75 18 -111 73 -111c28 0 54 11 70 23l9 -23c-19 -14 -50 -27 -87 -27c-66 0 -94 38 -94 117z" />
    <glyph glyph-name="m" unicode="m" horiz-adv-x="807" 
d="M731 296v-296h-28v288c0 100 -45 143 -128 143c-71 0 -125 -36 -155 -84c2 -8 2 -21 2 -31v-316h-28v316c0 67 -45 115 -128 115c-69 0 -126 -40 -152 -79v-352h-29v450h29v-68c33 45 98 76 160 76c71 0 125 -32 142 -87c32 53 101 87 167 87c86 0 148 -39 148 -162z" />
    <glyph glyph-name="n" unicode="n" horiz-adv-x="553" 
d="M85 0v450h29v-68c36 42 107 76 173 76c127 0 190 -63 190 -204v-254h-28v248c0 124 -53 183 -167 183c-70 0 -138 -39 -168 -77v-354h-29z" />
    <glyph glyph-name="o" unicode="o" horiz-adv-x="569" 
d="M52 225c0 135 96 234 232 234c137 0 233 -99 233 -234s-96 -234 -233 -234c-136 0 -232 99 -232 234zM81 225c0 -121 84 -207 203 -207s203 86 203 207s-84 207 -203 207c-118 0 -203 -86 -203 -207z" />
    <glyph glyph-name="p" unicode="p" horiz-adv-x="552" 
d="M85 -200v650h29v-66c36 43 106 75 173 75c134 0 214 -94 214 -227c0 -137 -91 -241 -229 -241c-61 0 -117 14 -158 45v-236h-29zM281 432c-71 0 -138 -38 -167 -76v-290c52 -37 105 -48 157 -48c119 0 200 87 200 211c0 121 -69 203 -190 203z" />
    <glyph glyph-name="q" unicode="q" horiz-adv-x="553" 
d="M440 -200v262c-36 -40 -100 -71 -162 -71c-136 0 -226 92 -226 234c0 131 106 234 245 234c65 0 125 -19 171 -48v-611h-28zM281 18c67 0 134 41 159 76v299c-47 29 -98 39 -144 39c-119 0 -215 -91 -215 -208c0 -125 79 -206 200 -206z" />
    <glyph glyph-name="r" unicode="r" horiz-adv-x="320" 
d="M85 0v450h29v-65c26 40 67 73 127 73c37 0 55 -6 70 -17l-9 -27c-22 13 -34 17 -65 17c-65 0 -100 -42 -123 -79v-352h-29z" />
    <glyph glyph-name="s" unicode="s" horiz-adv-x="409" 
d="M323 114c0 132 -254 67 -254 232c0 66 53 113 137 113c54 0 104 -21 129 -48l-14 -21c-27 28 -70 43 -116 43c-66 0 -107 -40 -107 -86c0 -140 254 -75 254 -231c0 -85 -70 -125 -151 -125c-56 0 -124 30 -145 62l18 18c24 -33 83 -54 128 -54c61 0 121 31 121 97z" />
    <glyph glyph-name="t" unicode="t" horiz-adv-x="344" 
d="M75 171v404h29v-125h194v-27h-194v-243c0 -104 33 -158 117 -158c30 0 57 12 73 24l12 -23c-20 -14 -52 -28 -90 -28c-100 0 -141 61 -141 176z" />
    <glyph glyph-name="u" unicode="u" horiz-adv-x="547" 
d="M462 450v-450h-28v78c-36 -45 -108 -87 -181 -87c-118 0 -178 64 -178 203v256h29v-249c0 -122 48 -183 158 -183c73 0 143 49 172 89v343h28z" />
    <glyph glyph-name="v" unicode="v" horiz-adv-x="469" 
d="M452 450l-206 -457h-17l-213 457h33l147 -318c14 -31 29 -64 43 -97c13 33 28 69 43 101l140 314h30z" />
    <glyph glyph-name="w" unicode="w" horiz-adv-x="684" 
d="M666 450l-147 -457h-21l-135 356c-7 19 -14 38 -20 58c-8 -21 -14 -41 -22 -62l-132 -352h-19l-153 457h31l113 -342c8 -22 14 -45 21 -67c9 22 16 44 25 67l126 342h21l128 -340l26 -70c7 25 15 50 23 75l106 335h29z" />
    <glyph glyph-name="x" unicode="x" horiz-adv-x="485" 
d="M439 450l-177 -218l187 -232h-35l-172 212l-172 -212h-34l187 231l-177 219h35l161 -200l163 200h34z" />
    <glyph glyph-name="y" unicode="y" horiz-adv-x="472" 
d="M455 450l-184 -450c-66 -161 -108 -200 -167 -200c-24 0 -46 7 -70 19l10 22c20 -9 38 -15 56 -15c51 0 90 42 134 150l10 24l-227 450h33l173 -345c13 -25 24 -48 35 -73c9 25 19 50 29 75l136 343h32z" />
    <glyph glyph-name="z" unicode="z" horiz-adv-x="478" 
d="M64 423v27h365v-16l-338 -407h333v-27h-375v16l336 407h-321z" />
    <glyph glyph-name="braceleft" unicode="{" horiz-adv-x="294" 
d="M110 -80v194c0 79 -50 99 -90 98v26c36 0 90 21 90 110v179c0 76 27 123 109 123h55v-27h-50c-62 0 -86 -32 -86 -103v-180c0 -65 -30 -108 -75 -114c42 -5 75 -37 75 -114v-184c0 -71 33 -101 92 -101h44v-27h-52c-74 0 -112 37 -112 120z" />
    <glyph glyph-name="bar" unicode="|" horiz-adv-x="315" 
d="M143 0v700h29v-700h-29z" />
    <glyph glyph-name="braceright" unicode="}" horiz-adv-x="294" 
d="M184 114v-194c0 -83 -38 -120 -112 -120h-52v27h44c59 0 92 30 92 101v184c0 77 33 109 75 114c-45 6 -75 49 -75 114v180c0 71 -24 103 -86 103h-50v27h55c83 0 109 -47 109 -123v-179c0 -89 54 -110 90 -110v-26c-40 1 -90 -19 -90 -98z" />
    <glyph glyph-name="asciitilde" unicode="~" 
d="M79 335l-16 19c42 40 83 57 121 57c82 0 152 -74 230 -74c31 0 62 14 95 46l14 -20c-38 -36 -75 -52 -110 -52c-80 0 -152 75 -230 75c-34 0 -69 -17 -104 -51z" />
    <glyph glyph-name="uni00A0" unicode="&#xa0;" horiz-adv-x="243" 
 />
    <glyph glyph-name="exclamdown" unicode="&#xa1;" horiz-adv-x="310" 
d="M171 284v-526h-30v526h30zM180 434c0 -11 -11 -22 -25 -22c-12 0 -23 11 -23 22c0 13 11 25 23 25c14 0 25 -12 25 -25z" />
    <glyph glyph-name="cent" unicode="&#xa2;" 
d="M481 83l14 -19c-37 -47 -99 -71 -160 -73v-111h-28v112c-126 9 -213 98 -213 233c0 128 92 230 213 234v109h28v-110c59 -3 112 -18 151 -54l-14 -23c-42 37 -96 51 -153 51c-107 0 -196 -89 -196 -207c0 -127 89 -207 208 -207c61 0 117 27 150 65z" />
    <glyph glyph-name="sterling" unicode="&#xa3;" 
d="M85 290v24h78c-20 60 -56 102 -56 200c0 97 73 194 201 194c75 0 145 -28 183 -71l-16 -21c-43 43 -103 64 -169 64c-103 0 -169 -83 -169 -167c0 -96 37 -135 57 -199h181v-24h-175c4 -17 6 -36 6 -57c0 -75 -24 -123 -51 -160c10 2 20 3 30 3c79 0 152 -52 227 -52
c37 0 73 12 112 49l15 -21c-42 -41 -86 -56 -129 -56c-77 0 -151 52 -228 52c-39 0 -78 -16 -118 -55l-15 22c24 23 49 39 72 49c34 40 56 92 56 166c0 23 -3 42 -7 60h-85z" />
    <glyph glyph-name="currency" unicode="&#xa4;" 
d="M72 349c0 56 19 109 53 150l-95 96l18 18l95 -95c37 36 89 58 151 58s113 -22 151 -58l101 101l18 -18l-101 -102c34 -41 53 -94 53 -150s-19 -109 -53 -150l96 -98l-18 -18l-96 97c-37 -36 -89 -58 -151 -58s-114 22 -151 57l-103 -102l-18 18l103 104
c-34 41 -53 94 -53 150zM99 349c0 -107 73 -202 195 -202s195 95 195 202s-73 201 -195 201c-121 0 -195 -94 -195 -201z" />
    <glyph glyph-name="yen" unicode="&#xa5;" 
d="M73 310v25h189l-231 365h35l227 -361l228 361h34l-233 -365h190v-25h-205v-138h205v-24h-205v-148h-30v148h-204v24h204v138h-204z" />
    <glyph glyph-name="brokenbar" unicode="&#xa6;" horiz-adv-x="315" 
d="M172 440h-29v260h29v-260zM143 260h29v-260h-29v260z" />
    <glyph glyph-name="section" unicode="&#xa7;" horiz-adv-x="524" 
d="M76 249c0 94 64 165 155 178c-52 21 -105 66 -105 135c0 80 59 138 146 138c73 0 106 -34 124 -58l-17 -20c-19 21 -43 51 -108 51c-66 0 -117 -50 -117 -114c0 -71 65 -112 120 -131c101 -5 174 -79 174 -179c0 -93 -64 -164 -155 -177c51 -22 103 -66 103 -134
c0 -80 -59 -138 -146 -138c-73 0 -106 34 -124 58l17 20c19 -21 43 -51 108 -51c66 0 117 50 117 114c0 70 -64 111 -120 129c-100 6 -172 80 -172 179zM104 249c0 -90 76 -154 158 -154c85 0 158 64 158 154c0 91 -74 155 -158 155s-158 -64 -158 -155z" />
    <glyph glyph-name="dieresis" unicode="&#xa8;" horiz-adv-x="374" 
d="M60 626c0 11 10 21 22 21c10 0 20 -10 20 -21c0 -14 -10 -23 -20 -23c-12 0 -22 9 -22 23zM271 626c0 11 10 21 22 21c11 0 21 -10 21 -21c0 -14 -10 -23 -21 -23c-12 0 -22 9 -22 23z" />
    <glyph glyph-name="copyright" unicode="&#xa9;" horiz-adv-x="1018" 
d="M79 221c0 238 183 430 430 430s430 -192 430 -430s-183 -430 -430 -430s-430 192 -430 430zM104 221c0 -223 172 -405 405 -405s405 182 405 405s-172 405 -405 405s-405 -182 -405 -405zM669 83l14 -19c-38 -48 -103 -73 -166 -73c-137 0 -235 92 -235 234
c0 131 96 234 220 234c68 0 129 -15 172 -55l-14 -23c-42 37 -96 51 -153 51c-107 0 -196 -89 -196 -207c0 -127 89 -207 208 -207c61 0 117 27 150 65z" />
    <glyph glyph-name="ordfeminine" unicode="&#xaa;" horiz-adv-x="395" 
d="M104 604l-14 17c26 22 67 37 106 37c78 0 122 -42 122 -118v-189h-26v54c-21 -29 -57 -57 -124 -57c-68 0 -111 44 -111 94c0 62 48 97 123 97c45 0 82 -8 112 -28v23c0 67 -36 101 -101 101c-34 0 -58 -10 -87 -31zM176 371c57 0 95 28 116 53v68c-26 16 -73 27 -107 27
c-52 0 -101 -26 -101 -75c0 -43 43 -73 92 -73z" />
    <glyph glyph-name="guillemotleft" unicode="&#xab;" horiz-adv-x="485" 
d="M391 43l-175 205v4l176 203l19 -17l-163 -188l161 -189zM231 43l-175 205v4l176 203l19 -17l-163 -188l161 -189z" />
    <glyph glyph-name="logicalnot" unicode="&#xac;" 
d="M71 347v26h444v-157h-25v131h-419z" />
    <glyph glyph-name="uni00AD" unicode="&#xad;" horiz-adv-x="407" 
d="M93 257v27h221v-27h-221z" />
    <glyph glyph-name="registered" unicode="&#xae;" horiz-adv-x="551" 
d="M57 496c0 121 98 218 219 218s218 -97 218 -218s-97 -218 -218 -218s-219 97 -219 218zM82 496c0 -107 87 -194 194 -194s194 87 194 194s-87 194 -194 194s-194 -87 -194 -194zM218 360h-22v280h71c77 0 98 -38 98 -79c0 -36 -26 -69 -70 -79l97 -122h-28l-94 119h-52
v-119zM265 622h-47v-125h54c33 0 71 24 71 64c0 38 -27 61 -78 61z" />
    <glyph glyph-name="macron" unicode="&#xaf;" horiz-adv-x="362" 
d="M60 624v25h242v-25h-242z" />
    <glyph glyph-name="degree" unicode="&#xb0;" horiz-adv-x="388" 
d="M57 570c0 76 61 136 137 136c75 0 136 -59 136 -135s-61 -138 -136 -138c-76 0 -137 61 -137 137zM83 570c0 -61 50 -111 111 -111s111 50 111 111s-50 111 -111 111s-111 -50 -111 -111z" />
    <glyph glyph-name="plusminus" unicode="&#xb1;" 
d="M73 421v26h206v205h26v-205h208v-26h-208v-153h-26v153h-206zM73 180v26h440v-26h-440z" />
    <glyph glyph-name="twosuperior" unicode="&#xb2;" horiz-adv-x="330" 
d="M42 350v20c66 49 207 141 207 232c0 42 -27 79 -86 79c-38 0 -85 -21 -93 -68l-22 7c8 55 64 84 115 84c79 0 113 -48 113 -102c0 -102 -157 -202 -198 -229h218v-23h-254z" />
    <glyph glyph-name="threesuperior" unicode="&#xb3;" horiz-adv-x="335" 
d="M160 346c-50 0 -101 17 -124 64l17 13c19 -40 65 -55 106 -55c62 0 101 34 101 79c0 42 -40 71 -91 71h-38v21h34c40 0 80 32 80 74c0 46 -36 69 -87 69c-53 0 -82 -23 -96 -52l-15 14c16 37 58 60 114 60c69 0 111 -32 111 -87c0 -36 -25 -72 -70 -85v-1
c54 -6 85 -45 85 -86c0 -61 -55 -99 -127 -99z" />
    <glyph glyph-name="acute" unicode="&#xb4;" horiz-adv-x="250" 
d="M190 693l-112 -141l-18 12l109 146z" />
    <glyph glyph-name="mu" unicode="&#xb5;" horiz-adv-x="549" 
d="M463 450v-450h-28v78c-36 -45 -108 -87 -181 -87c-71 0 -121 22 -149 70v-261h-29v650h29v-249c0 -122 48 -183 158 -183c73 0 143 49 172 89v343h28z" />
    <glyph glyph-name="mu" unicode="&#x3bc;" horiz-adv-x="549" 
d="M463 450v-450h-28v78c-36 -45 -108 -87 -181 -87c-71 0 -121 22 -149 70v-261h-29v650h29v-249c0 -122 48 -183 158 -183c73 0 143 49 172 89v343h28z" />
    <glyph glyph-name="paragraph" unicode="&#xb6;" horiz-adv-x="417" 
d="M56 481c0 136 76 219 203 219h120v-27h-94v-715c0 -100 -30 -166 -132 -166c-37 0 -70 14 -89 29l13 22c16 -12 45 -24 74 -24c90 0 106 63 106 138v306c-114 1 -201 81 -201 218z" />
    <glyph glyph-name="periodcentered" unicode="&#xb7;" horiz-adv-x="243" 
d="M97 295c0 11 11 22 25 22c12 0 23 -11 23 -22c0 -13 -11 -25 -23 -25c-14 0 -25 12 -25 25z" />
    <glyph glyph-name="cedilla" unicode="&#xb8;" horiz-adv-x="312" 
d="M60 -178l10 17c25 -13 51 -20 73 -20c47 0 81 21 81 54s-22 54 -82 54h-6v73h19v-56c69 -1 97 -29 97 -72s-40 -73 -106 -73c-34 0 -59 10 -86 23z" />
    <glyph glyph-name="onesuperior" unicode="&#xb9;" horiz-adv-x="228" 
d="M32 640l93 63h17v-353h-25v320l-74 -49z" />
    <glyph glyph-name="ordmasculine" unicode="&#xba;" horiz-adv-x="442" 
d="M59 502c0 91 70 156 162 156s162 -65 162 -156c0 -92 -70 -157 -162 -157s-162 65 -162 157zM86 502c0 -80 66 -133 135 -133c72 0 135 53 135 133c0 79 -64 132 -135 132s-135 -53 -135 -132z" />
    <glyph glyph-name="guillemotright" unicode="&#xbb;" horiz-adv-x="485" 
d="M428 248l-174 -205l-19 18l161 189l-163 188l19 17l176 -203v-4zM268 248l-174 -205l-19 18l161 189l-163 188l19 17l176 -203v-4z" />
    <glyph glyph-name="onequarter" unicode="&#xbc;" horiz-adv-x="643" 
d="M49 640l93 63h17v-353h-25v320l-74 -49zM57 5l527 704l17 -13l-526 -705zM535 0v93h-196v16l189 241h25l-184 -235h166v110h24v-110h64v-22h-64v-93h-24z" />
    <glyph glyph-name="onehalf" unicode="&#xbd;" horiz-adv-x="659" 
d="M49 640l93 63h17v-353h-25v320l-74 -49zM23 5l527 704l17 -13l-526 -705zM365 0v20c66 49 207 141 207 232c0 42 -27 79 -86 79c-38 0 -85 -21 -93 -68l-22 7c8 55 64 84 115 84c79 0 113 -48 113 -102c0 -102 -157 -202 -198 -229h218v-23h-254z" />
    <glyph glyph-name="threequarters" unicode="&#xbe;" horiz-adv-x="679" 
d="M103 5l527 704l17 -13l-526 -705zM570 0v93h-196v16l189 241h25l-184 -235h166v110h24v-110h64v-22h-64v-93h-24zM161 346c-50 0 -101 17 -124 64l17 13c19 -40 65 -55 106 -55c62 0 101 34 101 79c0 42 -40 71 -91 71h-38v21h34c40 0 80 32 80 74c0 46 -36 69 -87 69
c-53 0 -82 -23 -96 -52l-15 14c16 37 58 60 114 60c69 0 111 -32 111 -87c0 -36 -25 -72 -70 -85v-1c54 -6 85 -45 85 -86c0 -61 -55 -99 -127 -99z" />
    <glyph glyph-name="questiondown" unicode="&#xbf;" horiz-adv-x="455" 
d="M67 -77c0 -83 67 -145 164 -145c66 0 125 32 166 88l18 -17c-36 -58 -108 -100 -187 -100c-123 0 -190 78 -190 169c0 186 209 172 209 319c0 12 -1 25 -4 39l26 2c4 -17 5 -32 5 -46c0 -152 -207 -143 -207 -309zM284 434c0 -11 -11 -22 -25 -22c-12 0 -23 11 -23 22
c0 13 11 25 23 25c14 0 25 -12 25 -25z" />
    <glyph glyph-name="Agrave" unicode="&#xc0;" horiz-adv-x="690" 
d="M26 0l308 707h22l308 -707h-32l-113 260h-350l-112 -260h-31zM344 663l-163 -375h326zM372 740l-166 89l11 23l165 -94z" />
    <glyph glyph-name="Aacute" unicode="&#xc1;" horiz-adv-x="690" 
d="M26 0l308 707h22l308 -707h-32l-113 260h-350l-112 -260h-31zM344 663l-163 -375h326zM488 829l-167 -89l-9 18l165 94z" />
    <glyph glyph-name="Acircumflex" unicode="&#xc2;" horiz-adv-x="690" 
d="M26 0l308 707h22l308 -707h-32l-113 260h-350l-112 -260h-31zM344 663l-163 -375h326zM177 757l166 94h4l167 -93l-15 -18l-154 85l-155 -85z" />
    <glyph glyph-name="Atilde" unicode="&#xc3;" horiz-adv-x="690" 
d="M26 0l308 707h22l308 -707h-32l-113 260h-350l-112 -260h-31zM344 663l-163 -375h326zM193 772l-11 18c27 24 55 35 81 35c60 0 107 -48 161 -48c23 0 48 8 73 35l11 -19c-28 -30 -56 -41 -85 -41c-56 0 -107 47 -164 47c-21 0 -43 -8 -66 -27z" />
    <glyph glyph-name="Adieresis" unicode="&#xc4;" horiz-adv-x="690" 
d="M26 0l308 707h22l308 -707h-32l-113 260h-350l-112 -260h-31zM344 663l-163 -375h326zM205 796c0 13 11 21 24 21c12 0 23 -8 23 -21c0 -14 -11 -22 -23 -22c-13 0 -24 8 -24 22zM439 796c0 13 11 21 24 21c11 0 22 -8 22 -21c0 -14 -11 -22 -22 -22c-13 0 -24 8 -24 22z
" />
    <glyph glyph-name="Aring" unicode="&#xc5;" horiz-adv-x="690" 
d="M244 779c0 56 45 81 100 81c56 0 102 -25 102 -81c0 -49 -37 -77 -86 -82l304 -697h-32l-113 260h-350l-112 -260h-31l303 697c-48 5 -85 33 -85 82zM344 663l-163 -375h326zM267 779c0 -43 34 -64 77 -64c44 0 79 21 79 64c0 44 -35 62 -79 62c-43 0 -77 -18 -77 -62z
" />
    <glyph glyph-name="AE" unicode="&#xc6;" horiz-adv-x="964" 
d="M895 0h-391v267h-276l-189 -267h-36l501 700h381v-28h-351v-302h321v-28h-321v-314h361v-28zM504 656l-256 -361h256v361z" />
    <glyph glyph-name="Ccedilla" unicode="&#xc7;" horiz-adv-x="657" 
d="M308 -177l10 17c25 -13 52 -21 74 -21c47 0 81 21 81 54s-22 54 -82 54h-6v65c-195 8 -328 146 -328 358c0 201 134 359 338 359c87 0 156 -20 211 -65l-15 -21c-52 41 -116 57 -195 57c-185 0 -308 -143 -308 -330c0 -199 131 -330 318 -330c81 0 151 28 200 70l13 -23
c-49 -48 -134 -76 -215 -76v-47c70 -1 98 -29 98 -72s-40 -73 -105 -73c-36 0 -63 10 -89 24z" />
    <glyph glyph-name="Egrave" unicode="&#xc8;" horiz-adv-x="575" 
d="M116 0v700h380v-28h-350v-302h320v-28h-320v-314h360v-28h-390zM355 740l-166 89l11 23l165 -94z" />
    <glyph glyph-name="Eacute" unicode="&#xc9;" horiz-adv-x="575" 
d="M116 0v700h380v-28h-350v-302h320v-28h-320v-314h360v-28h-390zM421 829l-167 -89l-9 18l165 94z" />
    <glyph glyph-name="Ecircumflex" unicode="&#xca;" horiz-adv-x="575" 
d="M116 0v700h380v-28h-350v-302h320v-28h-320v-314h360v-28h-390zM140 757l166 94h4l167 -93l-15 -18l-154 85l-155 -85z" />
    <glyph glyph-name="Edieresis" unicode="&#xcb;" horiz-adv-x="575" 
d="M116 0v700h380v-28h-350v-302h320v-28h-320v-314h360v-28h-390zM168 796c0 13 11 21 24 21c12 0 23 -8 23 -21c0 -14 -11 -22 -23 -22c-13 0 -24 8 -24 22zM402 796c0 13 11 21 24 21c11 0 22 -8 22 -21c0 -14 -11 -22 -22 -22c-13 0 -24 8 -24 22z" />
    <glyph glyph-name="Igrave" unicode="&#xcc;" horiz-adv-x="316" 
d="M143 0v700h30v-700h-30zM173 740l-166 89l11 23l165 -94z" />
    <glyph glyph-name="Iacute" unicode="&#xcd;" horiz-adv-x="316" 
d="M143 0v700h30v-700h-30zM309 829l-167 -89l-9 18l165 94z" />
    <glyph glyph-name="Icircumflex" unicode="&#xce;" horiz-adv-x="316" 
d="M143 0v700h30v-700h-30zM-10 757l166 94h4l167 -93l-15 -18l-154 85l-155 -85z" />
    <glyph glyph-name="Idieresis" unicode="&#xcf;" horiz-adv-x="316" 
d="M143 0v700h30v-700h-30zM18 796c0 13 11 21 24 21c12 0 23 -8 23 -21c0 -14 -11 -22 -23 -22c-13 0 -24 8 -24 22zM252 796c0 13 11 21 24 21c11 0 22 -8 22 -21c0 -14 -11 -22 -22 -22c-13 0 -24 8 -24 22z" />
    <glyph glyph-name="Eth" unicode="&#xd0;" horiz-adv-x="761" 
d="M10 345v27h132v328h11c53 0 93 3 158 3c280 0 393 -161 393 -342c0 -201 -134 -363 -401 -363c-54 0 -100 2 -154 2h-7v345h-132zM309 675c-61 0 -90 -3 -137 -3v-300h206v-27h-206v-317c65 0 130 -2 133 -2c245 0 368 150 368 335c0 170 -106 314 -364 314z" />
    <glyph glyph-name="Ntilde" unicode="&#xd1;" horiz-adv-x="799" 
d="M683 0h-24l-515 646v-646h-28v700h24l514 -648v648h29v-700zM252 772l-11 18c27 24 55 35 81 35c60 0 107 -48 161 -48c23 0 48 8 73 35l11 -19c-28 -30 -56 -41 -85 -41c-56 0 -107 47 -164 47c-21 0 -43 -8 -66 -27z" />
    <glyph glyph-name="Ograve" unicode="&#xd2;" horiz-adv-x="807" 
d="M57 350c0 203 149 359 346 359c196 0 346 -153 346 -359c0 -204 -150 -359 -346 -359c-195 0 -346 153 -346 359zM88 350c0 -188 137 -330 315 -330c181 0 315 142 315 330c0 189 -136 330 -315 330c-178 0 -315 -141 -315 -330zM475 740l-166 89l11 23l165 -94z" />
    <glyph glyph-name="Oacute" unicode="&#xd3;" horiz-adv-x="807" 
d="M57 350c0 203 149 359 346 359c196 0 346 -153 346 -359c0 -204 -150 -359 -346 -359c-195 0 -346 153 -346 359zM88 350c0 -188 137 -330 315 -330c181 0 315 142 315 330c0 189 -136 330 -315 330c-178 0 -315 -141 -315 -330zM523 829l-167 -89l-9 18l165 94z" />
    <glyph glyph-name="Ocircumflex" unicode="&#xd4;" horiz-adv-x="807" 
d="M57 350c0 203 149 359 346 359c196 0 346 -153 346 -359c0 -204 -150 -359 -346 -359c-195 0 -346 153 -346 359zM88 350c0 -188 137 -330 315 -330c181 0 315 142 315 330c0 189 -136 330 -315 330c-178 0 -315 -141 -315 -330zM239 757l166 94h4l167 -93l-15 -18
l-154 85l-155 -85z" />
    <glyph glyph-name="Otilde" unicode="&#xd5;" horiz-adv-x="807" 
d="M57 350c0 203 149 359 346 359c196 0 346 -153 346 -359c0 -204 -150 -359 -346 -359c-195 0 -346 153 -346 359zM88 350c0 -188 137 -330 315 -330c181 0 315 142 315 330c0 189 -136 330 -315 330c-178 0 -315 -141 -315 -330zM254 772l-11 18c27 24 55 35 81 35
c60 0 107 -48 161 -48c23 0 48 8 73 35l11 -19c-28 -30 -56 -41 -85 -41c-56 0 -107 47 -164 47c-21 0 -43 -8 -66 -27z" />
    <glyph glyph-name="Odieresis" unicode="&#xd6;" horiz-adv-x="807" 
d="M57 350c0 203 149 359 346 359c196 0 346 -153 346 -359c0 -204 -150 -359 -346 -359c-195 0 -346 153 -346 359zM88 350c0 -188 137 -330 315 -330c181 0 315 142 315 330c0 189 -136 330 -315 330c-178 0 -315 -141 -315 -330zM265 796c0 13 11 21 24 21
c12 0 23 -8 23 -21c0 -14 -11 -22 -23 -22c-13 0 -24 8 -24 22zM499 796c0 13 11 21 24 21c11 0 22 -8 22 -21c0 -14 -11 -22 -22 -22c-13 0 -24 8 -24 22z" />
    <glyph glyph-name="multiply" unicode="&#xd7;" 
d="M130 506l18 18l145 -146l145 146l18 -18l-145 -146l147 -146l-18 -18l-147 146l-147 -146l-18 18l147 146z" />
    <glyph glyph-name="Oslash" unicode="&#xd8;" horiz-adv-x="807" 
d="M57 350c0 203 149 359 346 359c97 0 182 -38 244 -100l51 50l18 -17l-52 -51c53 -63 85 -147 85 -241c0 -204 -150 -359 -346 -359c-98 0 -185 39 -247 103l-50 -48l-18 19l50 49c-51 62 -81 144 -81 236zM718 350c0 86 -28 162 -76 220l-464 -454
c56 -60 135 -96 225 -96c181 0 315 142 315 330zM88 350c0 -84 27 -158 72 -215l465 453c-56 57 -134 92 -222 92c-178 0 -315 -141 -315 -330z" />
    <glyph glyph-name="Ugrave" unicode="&#xd9;" horiz-adv-x="751" 
d="M645 700v-406c0 -214 -121 -301 -260 -301c-158 0 -279 103 -279 308v399h30v-395c0 -185 105 -284 249 -284c129 0 230 85 230 280v399h30zM434 740l-166 89l11 23l165 -94z" />
    <glyph glyph-name="Uacute" unicode="&#xda;" horiz-adv-x="751" 
d="M645 700v-406c0 -214 -121 -301 -260 -301c-158 0 -279 103 -279 308v399h30v-395c0 -185 105 -284 249 -284c129 0 230 85 230 280v399h30zM492 829l-167 -89l-9 18l165 94z" />
    <glyph glyph-name="Ucircumflex" unicode="&#xdb;" horiz-adv-x="751" 
d="M645 700v-406c0 -214 -121 -301 -260 -301c-158 0 -279 103 -279 308v399h30v-395c0 -185 105 -284 249 -284c129 0 230 85 230 280v399h30zM207 757l166 94h4l167 -93l-15 -18l-154 85l-155 -85z" />
    <glyph glyph-name="Udieresis" unicode="&#xdc;" horiz-adv-x="751" 
d="M645 700v-406c0 -214 -121 -301 -260 -301c-158 0 -279 103 -279 308v399h30v-395c0 -185 105 -284 249 -284c129 0 230 85 230 280v399h30zM233 796c0 13 11 21 24 21c12 0 23 -8 23 -21c0 -14 -11 -22 -23 -22c-13 0 -24 8 -24 22zM467 796c0 13 11 21 24 21
c11 0 22 -8 22 -21c0 -14 -11 -22 -22 -22c-13 0 -24 8 -24 22z" />
    <glyph glyph-name="Yacute" unicode="&#xdd;" horiz-adv-x="567" 
d="M550 700l-253 -389v-311h-29v311l-251 389h35l231 -361l233 361h34zM407 829l-167 -89l-9 18l165 94z" />
    <glyph glyph-name="Thorn" unicode="&#xde;" horiz-adv-x="575" 
d="M146 0h-30v700h30v-109c37 0 103 2 130 2c191 0 241 -105 241 -206c0 -105 -69 -209 -246 -209c-37 0 -82 2 -125 5v-183zM277 565c-33 0 -101 -1 -131 -2v-351c43 -3 80 -5 123 -5c148 0 218 79 218 181c0 99 -58 177 -210 177z" />
    <glyph glyph-name="germandbls" unicode="&#xdf;" horiz-adv-x="539" 
d="M454 144c0 137 -212 138 -212 262c0 88 112 105 112 189c0 52 -49 87 -103 87c-87 0 -129 -52 -129 -172v-513h-29v522c0 129 56 190 161 190c73 0 130 -46 130 -110c0 -97 -113 -114 -113 -188c0 -119 213 -110 213 -266c0 -91 -66 -154 -147 -154
c-69 0 -117 40 -138 75l13 20c19 -27 60 -68 120 -68c62 0 122 50 122 126z" />
    <glyph glyph-name="agrave" unicode="&#xe0;" horiz-adv-x="457" 
d="M91 394l-9 24c43 27 87 41 138 41c121 0 162 -66 162 -178v-281h-28v78c-30 -41 -78 -83 -167 -83c-84 0 -140 51 -140 129c0 90 74 137 171 137c37 0 94 -7 136 -37c0 125 -5 208 -137 208c-51 0 -83 -13 -126 -38zM193 22c90 0 132 47 161 85v90c-38 27 -83 40 -134 40
c-70 0 -143 -33 -143 -111c0 -66 51 -104 116 -104zM257 552l-112 141l21 17l109 -146z" />
    <glyph glyph-name="aacute" unicode="&#xe1;" horiz-adv-x="457" 
d="M91 394l-9 24c43 27 87 41 138 41c121 0 162 -66 162 -178v-281h-28v78c-30 -41 -78 -83 -167 -83c-84 0 -140 51 -140 129c0 90 74 137 171 137c37 0 94 -7 136 -37c0 125 -5 208 -137 208c-51 0 -83 -13 -126 -38zM193 22c90 0 132 47 161 85v90c-38 27 -83 40 -134 40
c-70 0 -143 -33 -143 -111c0 -66 51 -104 116 -104zM314 693l-112 -141l-18 12l109 146z" />
    <glyph glyph-name="acircumflex" unicode="&#xe2;" horiz-adv-x="457" 
d="M91 394l-9 24c43 27 87 41 138 41c121 0 162 -66 162 -178v-281h-28v78c-30 -41 -78 -83 -167 -83c-84 0 -140 51 -140 129c0 90 74 137 171 137c37 0 94 -7 136 -37c0 125 -5 208 -137 208c-51 0 -83 -13 -126 -38zM193 22c90 0 132 47 161 85v90c-38 27 -83 40 -134 40
c-70 0 -143 -33 -143 -111c0 -66 51 -104 116 -104zM231 708l120 -131l-15 -18l-107 114l-108 -113l-16 17l122 131h4z" />
    <glyph glyph-name="atilde" unicode="&#xe3;" horiz-adv-x="457" 
d="M91 394l-9 24c43 27 87 41 138 41c121 0 162 -66 162 -178v-281h-28v78c-30 -41 -78 -83 -167 -83c-84 0 -140 51 -140 129c0 90 74 137 171 137c37 0 94 -7 136 -37c0 125 -5 208 -137 208c-51 0 -83 -13 -126 -38zM193 22c90 0 132 47 161 85v90c-38 27 -83 40 -134 40
c-70 0 -143 -33 -143 -111c0 -66 51 -104 116 -104zM96 586l-13 15c38 34 68 46 93 46c47 0 68 -48 109 -48c21 0 43 11 76 41l12 -16c-37 -36 -67 -49 -91 -49c-44 0 -65 47 -110 47c-20 0 -44 -10 -76 -36z" />
    <glyph glyph-name="adieresis" unicode="&#xe4;" horiz-adv-x="457" 
d="M91 394l-9 24c43 27 87 41 138 41c121 0 162 -66 162 -178v-281h-28v78c-30 -41 -78 -83 -167 -83c-84 0 -140 51 -140 129c0 90 74 137 171 137c37 0 94 -7 136 -37c0 125 -5 208 -137 208c-51 0 -83 -13 -126 -38zM193 22c90 0 132 47 161 85v90c-38 27 -83 40 -134 40
c-70 0 -143 -33 -143 -111c0 -66 51 -104 116 -104zM95 626c0 11 10 21 22 21c10 0 20 -10 20 -21c0 -14 -10 -23 -20 -23c-12 0 -22 9 -22 23zM306 626c0 11 10 21 22 21c11 0 21 -10 21 -21c0 -14 -10 -23 -21 -23c-12 0 -22 9 -22 23z" />
    <glyph glyph-name="aring" unicode="&#xe5;" horiz-adv-x="457" 
d="M91 394l-9 24c43 27 87 41 138 41c121 0 162 -66 162 -178v-281h-28v78c-30 -41 -78 -83 -167 -83c-84 0 -140 51 -140 129c0 90 74 137 171 137c37 0 94 -7 136 -37c0 125 -5 208 -137 208c-51 0 -83 -13 -126 -38zM193 22c90 0 132 47 161 85v90c-38 27 -83 40 -134 40
c-70 0 -143 -33 -143 -111c0 -66 51 -104 116 -104zM124 614c0 54 43 98 98 98s99 -44 99 -98c0 -53 -44 -96 -99 -96s-98 43 -98 96zM145 615c0 -44 33 -78 77 -78c43 0 78 34 78 78c0 43 -35 78 -78 78c-44 0 -77 -35 -77 -78z" />
    <glyph glyph-name="ae" unicode="&#xe6;" horiz-adv-x="801" 
d="M220 459c82 0 128 -31 148 -86c37 52 97 86 180 86c116 0 202 -80 202 -202c0 -12 -1 -22 -2 -31h-366v-113c34 -60 97 -95 181 -95c62 0 119 26 152 62l10 -21c-39 -45 -104 -68 -164 -68c-83 0 -151 33 -193 90c-45 -53 -97 -86 -177 -86c-88 0 -144 51 -144 129
c0 90 74 137 171 137c37 0 108 -6 136 -11c6 119 -24 182 -137 182c-51 0 -83 -13 -126 -38l-9 24c43 27 87 41 138 41zM382 281v-31h339c0 112 -70 182 -177 182c-79 0 -136 -37 -167 -94c3 -18 5 -37 5 -57zM193 22c90 0 132 47 161 85v118c-48 7 -83 12 -134 12
c-70 0 -143 -33 -143 -111c0 -66 51 -104 116 -104z" />
    <glyph glyph-name="ccedilla" unicode="&#xe7;" horiz-adv-x="491" 
d="M189 -178l10 17c25 -13 51 -20 73 -20c47 0 81 21 81 54s-22 54 -82 54h-6v65c-126 9 -213 98 -213 233c0 131 96 234 220 234c68 0 129 -15 172 -55l-14 -23c-42 37 -96 51 -153 51c-107 0 -196 -89 -196 -207c0 -127 89 -207 208 -207c61 0 117 27 150 65l14 -19
c-38 -48 -103 -73 -166 -73h-3v-47c69 -1 97 -29 97 -72s-40 -73 -106 -73c-34 0 -59 10 -86 23z" />
    <glyph glyph-name="egrave" unicode="&#xe8;" horiz-adv-x="527" 
d="M441 80l11 -21c-39 -45 -104 -68 -164 -68c-138 0 -236 92 -236 234c0 131 75 234 223 234c116 0 201 -80 201 -202c0 -12 -1 -22 -2 -31h-391c1 -128 82 -208 206 -208c63 0 119 26 152 62zM271 432c-116 0 -182 -78 -190 -182h366c1 112 -69 182 -176 182zM286 552
l-112 141l21 17l109 -146z" />
    <glyph glyph-name="eacute" unicode="&#xe9;" horiz-adv-x="527" 
d="M441 80l11 -21c-39 -45 -104 -68 -164 -68c-138 0 -236 92 -236 234c0 131 75 234 223 234c116 0 201 -80 201 -202c0 -12 -1 -22 -2 -31h-391c1 -128 82 -208 206 -208c63 0 119 26 152 62zM271 432c-116 0 -182 -78 -190 -182h366c1 112 -69 182 -176 182zM377 693
l-112 -141l-18 12l109 146z" />
    <glyph glyph-name="ecircumflex" unicode="&#xea;" horiz-adv-x="527" 
d="M441 80l11 -21c-39 -45 -104 -68 -164 -68c-138 0 -236 92 -236 234c0 131 75 234 223 234c116 0 201 -80 201 -202c0 -12 -1 -22 -2 -31h-391c1 -128 82 -208 206 -208c63 0 119 26 152 62zM271 432c-116 0 -182 -78 -190 -182h366c1 112 -69 182 -176 182zM276 708
l120 -131l-15 -18l-107 114l-108 -113l-16 17l122 131h4z" />
    <glyph glyph-name="edieresis" unicode="&#xeb;" horiz-adv-x="527" 
d="M441 80l11 -21c-39 -45 -104 -68 -164 -68c-138 0 -236 92 -236 234c0 131 75 234 223 234c116 0 201 -80 201 -202c0 -12 -1 -22 -2 -31h-391c1 -128 82 -208 206 -208c63 0 119 26 152 62zM271 432c-116 0 -182 -78 -190 -182h366c1 112 -69 182 -176 182zM138 626
c0 11 10 21 22 21c10 0 20 -10 20 -21c0 -14 -10 -23 -20 -23c-12 0 -22 9 -22 23zM349 626c0 11 10 21 22 21c11 0 21 -10 21 -21c0 -14 -10 -23 -21 -23c-12 0 -22 9 -22 23z" />
    <glyph glyph-name="igrave" unicode="&#xec;" horiz-adv-x="255" 
d="M113 0v450h28v-450h-28zM134 552l-112 141l21 17l109 -146z" />
    <glyph glyph-name="iacute" unicode="&#xed;" horiz-adv-x="255" 
d="M113 0v450h28v-450h-28zM230 693l-112 -141l-18 12l109 146z" />
    <glyph glyph-name="icircumflex" unicode="&#xee;" horiz-adv-x="255" 
d="M113 0v450h28v-450h-28zM131 708l120 -131l-15 -18l-107 114l-108 -113l-16 17l122 131h4z" />
    <glyph glyph-name="idieresis" unicode="&#xef;" horiz-adv-x="255" 
d="M113 0v450h28v-450h-28zM1 626c0 11 10 21 22 21c10 0 20 -10 20 -21c0 -14 -10 -23 -20 -23c-12 0 -22 9 -22 23zM212 626c0 11 10 21 22 21c11 0 21 -10 21 -21c0 -14 -10 -23 -21 -23c-12 0 -22 9 -22 23z" />
    <glyph glyph-name="eth" unicode="&#xf0;" horiz-adv-x="569" 
d="M208 542l-10 24l113 60c-37 32 -79 56 -121 73l31 10c42 -18 80 -42 114 -70l104 55l10 -24l-93 -50c102 -94 161 -228 161 -364c0 -163 -96 -265 -233 -265c-136 0 -232 99 -232 234s96 234 232 234c88 0 159 -49 195 -128c-16 110 -72 207 -147 277zM81 225
c0 -121 84 -207 203 -207c120 0 205 93 203 241c-11 82 -85 173 -203 173s-203 -86 -203 -207z" />
    <glyph glyph-name="ntilde" unicode="&#xf1;" horiz-adv-x="553" 
d="M85 0v450h29v-68c36 42 107 76 173 76c127 0 190 -63 190 -204v-254h-28v248c0 124 -53 183 -167 183c-70 0 -138 -39 -168 -77v-354h-29zM143 586l-13 15c38 34 68 46 93 46c47 0 68 -48 109 -48c21 0 43 11 76 41l12 -16c-37 -36 -67 -49 -91 -49c-44 0 -65 47 -110 47
c-20 0 -44 -10 -76 -36z" />
    <glyph glyph-name="ograve" unicode="&#xf2;" horiz-adv-x="569" 
d="M52 225c0 135 96 234 232 234c137 0 233 -99 233 -234s-96 -234 -233 -234c-136 0 -232 99 -232 234zM81 225c0 -121 84 -207 203 -207s203 86 203 207s-84 207 -203 207c-118 0 -203 -86 -203 -207zM302 552l-112 141l21 17l109 -146z" />
    <glyph glyph-name="oacute" unicode="&#xf3;" horiz-adv-x="569" 
d="M52 225c0 135 96 234 232 234c137 0 233 -99 233 -234s-96 -234 -233 -234c-136 0 -232 99 -232 234zM81 225c0 -121 84 -207 203 -207s203 86 203 207s-84 207 -203 207c-118 0 -203 -86 -203 -207zM379 693l-112 -141l-18 12l109 146z" />
    <glyph glyph-name="ocircumflex" unicode="&#xf4;" horiz-adv-x="569" 
d="M52 225c0 135 96 234 232 234c137 0 233 -99 233 -234s-96 -234 -233 -234c-136 0 -232 99 -232 234zM81 225c0 -121 84 -207 203 -207s203 86 203 207s-84 207 -203 207c-118 0 -203 -86 -203 -207zM286 708l120 -131l-15 -18l-107 114l-108 -113l-16 17l122 131h4z" />
    <glyph glyph-name="otilde" unicode="&#xf5;" horiz-adv-x="569" 
d="M52 225c0 135 96 234 232 234c137 0 233 -99 233 -234s-96 -234 -233 -234c-136 0 -232 99 -232 234zM81 225c0 -121 84 -207 203 -207s203 86 203 207s-84 207 -203 207c-118 0 -203 -86 -203 -207zM151 586l-13 15c38 34 68 46 93 46c47 0 68 -48 109 -48
c21 0 43 11 76 41l12 -16c-37 -36 -67 -49 -91 -49c-44 0 -65 47 -110 47c-20 0 -44 -10 -76 -36z" />
    <glyph glyph-name="odieresis" unicode="&#xf6;" horiz-adv-x="569" 
d="M52 225c0 135 96 234 232 234c137 0 233 -99 233 -234s-96 -234 -233 -234c-136 0 -232 99 -232 234zM81 225c0 -121 84 -207 203 -207s203 86 203 207s-84 207 -203 207c-118 0 -203 -86 -203 -207zM159 626c0 11 10 21 22 21c10 0 20 -10 20 -21c0 -14 -10 -23 -20 -23
c-12 0 -22 9 -22 23zM370 626c0 11 10 21 22 21c11 0 21 -10 21 -21c0 -14 -10 -23 -21 -23c-12 0 -22 9 -22 23z" />
    <glyph glyph-name="divide" unicode="&#xf7;" 
d="M271 575c0 11 9 21 23 21c12 0 21 -10 21 -21c0 -12 -9 -23 -21 -23c-14 0 -23 11 -23 23zM271 146c0 10 9 21 23 21c12 0 21 -11 21 -21c0 -12 -9 -23 -21 -23c-14 0 -23 11 -23 23zM73 347v26h440v-26h-440z" />
    <glyph glyph-name="oslash" unicode="&#xf8;" horiz-adv-x="569" 
d="M52 225c0 135 96 234 232 234c66 0 123 -24 164 -63l55 55l16 -18l-55 -55c33 -40 53 -93 53 -153c0 -135 -96 -234 -233 -234c-60 0 -113 19 -152 53l-57 -57l-17 19l55 55c-39 41 -61 98 -61 164zM81 225c0 -58 19 -108 52 -144l295 295c-36 35 -86 56 -144 56
c-118 0 -203 -86 -203 -207zM487 225c0 52 -16 97 -43 132l-293 -294c35 -29 80 -45 133 -45c119 0 203 86 203 207z" />
    <glyph glyph-name="ugrave" unicode="&#xf9;" horiz-adv-x="547" 
d="M462 450v-450h-28v78c-36 -45 -108 -87 -181 -87c-118 0 -178 64 -178 203v256h29v-249c0 -122 48 -183 158 -183c73 0 143 49 172 89v343h28zM291 552l-112 141l21 17l109 -146z" />
    <glyph glyph-name="uacute" unicode="&#xfa;" horiz-adv-x="547" 
d="M462 450v-450h-28v78c-36 -45 -108 -87 -181 -87c-118 0 -178 64 -178 203v256h29v-249c0 -122 48 -183 158 -183c73 0 143 49 172 89v343h28zM369 693l-112 -141l-18 12l109 146z" />
    <glyph glyph-name="ucircumflex" unicode="&#xfb;" horiz-adv-x="547" 
d="M462 450v-450h-28v78c-36 -45 -108 -87 -181 -87c-118 0 -178 64 -178 203v256h29v-249c0 -122 48 -183 158 -183c73 0 143 49 172 89v343h28zM271 708l120 -131l-15 -18l-107 114l-108 -113l-16 17l122 131h4z" />
    <glyph glyph-name="udieresis" unicode="&#xfc;" horiz-adv-x="547" 
d="M462 450v-450h-28v78c-36 -45 -108 -87 -181 -87c-118 0 -178 64 -178 203v256h29v-249c0 -122 48 -183 158 -183c73 0 143 49 172 89v343h28zM147 626c0 11 10 21 22 21c10 0 20 -10 20 -21c0 -14 -10 -23 -20 -23c-12 0 -22 9 -22 23zM358 626c0 11 10 21 22 21
c11 0 21 -10 21 -21c0 -14 -10 -23 -21 -23c-12 0 -22 9 -22 23z" />
    <glyph glyph-name="yacute" unicode="&#xfd;" horiz-adv-x="472" 
d="M455 450l-184 -450c-66 -161 -108 -200 -167 -200c-24 0 -46 7 -70 19l10 22c20 -9 38 -15 56 -15c51 0 90 42 134 150l10 24l-227 450h33l173 -345c13 -25 24 -48 35 -73c9 25 19 50 29 75l136 343h32zM330 693l-112 -141l-18 12l109 146z" />
    <glyph glyph-name="thorn" unicode="&#xfe;" horiz-adv-x="552" 
d="M85 -200v900h29v-314c37 43 106 73 173 73c134 0 214 -94 214 -227c0 -137 -91 -241 -229 -241c-61 0 -117 14 -158 45v-236h-29zM281 432c-71 0 -138 -38 -167 -76v-290c52 -37 105 -48 157 -48c119 0 200 87 200 211c0 121 -69 203 -190 203z" />
    <glyph glyph-name="ydieresis" unicode="&#xff;" horiz-adv-x="472" 
d="M455 450l-184 -450c-66 -161 -108 -200 -167 -200c-24 0 -46 7 -70 19l10 22c20 -9 38 -15 56 -15c51 0 90 42 134 150l10 24l-227 450h33l173 -345c13 -25 24 -48 35 -73c9 25 19 50 29 75l136 343h32zM111 626c0 11 10 21 22 21c10 0 20 -10 20 -21
c0 -14 -10 -23 -20 -23c-12 0 -22 9 -22 23zM322 626c0 11 10 21 22 21c11 0 21 -10 21 -21c0 -14 -10 -23 -21 -23c-12 0 -22 9 -22 23z" />
    <glyph glyph-name="Amacron" unicode="&#x100;" horiz-adv-x="690" 
d="M26 0l308 707h22l308 -707h-32l-113 260h-350l-112 -260h-31zM344 663l-163 -375h326zM196 785v24h297v-24h-297z" />
    <glyph glyph-name="amacron" unicode="&#x101;" horiz-adv-x="457" 
d="M91 394l-9 24c43 27 87 41 138 41c121 0 162 -66 162 -178v-281h-28v78c-30 -41 -78 -83 -167 -83c-84 0 -140 51 -140 129c0 90 74 137 171 137c37 0 94 -7 136 -37c0 125 -5 208 -137 208c-51 0 -83 -13 -126 -38zM193 22c90 0 132 47 161 85v90c-38 27 -83 40 -134 40
c-70 0 -143 -33 -143 -111c0 -66 51 -104 116 -104zM108 624v25h242v-25h-242z" />
    <glyph glyph-name="Abreve" unicode="&#x102;" horiz-adv-x="690" 
d="M26 0l308 707h22l308 -707h-32l-113 260h-350l-112 -260h-31zM344 663l-163 -375h326zM190 835l14 15c21 -25 67 -68 143 -68c66 0 113 35 140 68l13 -15c-28 -39 -80 -79 -153 -79c-85 0 -139 51 -157 79z" />
    <glyph glyph-name="abreve" unicode="&#x103;" horiz-adv-x="457" 
d="M91 394l-9 24c43 27 87 41 138 41c121 0 162 -66 162 -178v-281h-28v78c-30 -41 -78 -83 -167 -83c-84 0 -140 51 -140 129c0 90 74 137 171 137c37 0 94 -7 136 -37c0 125 -5 208 -137 208c-51 0 -83 -13 -126 -38zM193 22c90 0 132 47 161 85v90c-38 27 -83 40 -134 40
c-70 0 -143 -33 -143 -111c0 -66 51 -104 116 -104zM95 665l14 15c20 -24 57 -67 121 -67c55 0 93 34 119 67l12 -15c-27 -36 -66 -77 -132 -77c-75 0 -118 52 -134 77z" />
    <glyph glyph-name="Aogonek" unicode="&#x104;" horiz-adv-x="690" 
d="M650 -167l9 -19c-17 -9 -41 -14 -61 -14c-43 0 -106 19 -106 91c0 66 67 109 135 119l-108 250h-350l-112 -260h-31l308 707h22l308 -707h-15c-64 -2 -129 -43 -129 -103c0 -59 56 -73 83 -73c12 0 30 1 47 9zM344 663l-163 -375h326z" />
    <glyph glyph-name="aogonek" unicode="&#x105;" horiz-adv-x="457" 
d="M378 -167l9 -19c-17 -9 -41 -14 -61 -14c-43 0 -106 19 -106 91c0 65 66 109 134 119v68c-30 -41 -78 -83 -167 -83c-84 0 -140 51 -140 129c0 90 74 137 171 137c37 0 94 -7 136 -37c0 125 -5 208 -137 208c-51 0 -83 -13 -126 -38l-9 24c43 27 87 41 138 41
c121 0 162 -66 162 -178v-281c-65 0 -134 -42 -134 -103c0 -59 56 -73 83 -73c12 0 30 1 47 9zM193 22c90 0 132 47 161 85v90c-38 27 -83 40 -134 40c-70 0 -143 -33 -143 -111c0 -66 51 -104 116 -104z" />
    <glyph glyph-name="Cacute" unicode="&#x106;" horiz-adv-x="657" 
d="M606 90l13 -23c-49 -48 -134 -76 -215 -76c-205 0 -347 141 -347 359c0 201 134 359 338 359c87 0 156 -20 211 -65l-15 -21c-52 41 -116 57 -195 57c-185 0 -308 -143 -308 -330c0 -199 131 -330 318 -330c81 0 151 28 200 70zM509 829l-167 -89l-9 18l165 94z" />
    <glyph glyph-name="cacute" unicode="&#x107;" horiz-adv-x="491" 
d="M439 83l14 -19c-38 -48 -103 -73 -166 -73c-137 0 -235 92 -235 234c0 131 96 234 220 234c68 0 129 -15 172 -55l-14 -23c-42 37 -96 51 -153 51c-107 0 -196 -89 -196 -207c0 -127 89 -207 208 -207c61 0 117 27 150 65zM371 693l-112 -141l-18 12l109 146z" />
    <glyph glyph-name="Ccircumflex" unicode="&#x108;" horiz-adv-x="657" 
d="M606 90l13 -23c-49 -48 -134 -76 -215 -76c-205 0 -347 141 -347 359c0 201 134 359 338 359c87 0 156 -20 211 -65l-15 -21c-52 41 -116 57 -195 57c-185 0 -308 -143 -308 -330c0 -199 131 -330 318 -330c81 0 151 28 200 70zM227 757l166 94h4l167 -93l-15 -18
l-154 85l-155 -85z" />
    <glyph glyph-name="ccircumflex" unicode="&#x109;" horiz-adv-x="491" 
d="M439 83l14 -19c-38 -48 -103 -73 -166 -73c-137 0 -235 92 -235 234c0 131 96 234 220 234c68 0 129 -15 172 -55l-14 -23c-42 37 -96 51 -153 51c-107 0 -196 -89 -196 -207c0 -127 89 -207 208 -207c61 0 117 27 150 65zM280 708l120 -131l-15 -18l-107 114l-108 -113
l-16 17l122 131h4z" />
    <glyph glyph-name="Cdotaccent" unicode="&#x10a;" horiz-adv-x="657" 
d="M606 90l13 -23c-49 -48 -134 -76 -215 -76c-205 0 -347 141 -347 359c0 201 134 359 338 359c87 0 156 -20 211 -65l-15 -21c-52 41 -116 57 -195 57c-185 0 -308 -143 -308 -330c0 -199 131 -330 318 -330c81 0 151 28 200 70zM356 797c0 14 11 22 25 22
c11 0 22 -8 22 -22c0 -15 -11 -24 -22 -24c-14 0 -25 9 -25 24z" />
    <glyph glyph-name="cdotaccent" unicode="&#x10b;" horiz-adv-x="491" 
d="M439 83l14 -19c-38 -48 -103 -73 -166 -73c-137 0 -235 92 -235 234c0 131 96 234 220 234c68 0 129 -15 172 -55l-14 -23c-42 37 -96 51 -153 51c-107 0 -196 -89 -196 -207c0 -127 89 -207 208 -207c61 0 117 27 150 65zM262 629c0 12 11 22 23 22c11 0 21 -10 21 -22
c0 -13 -10 -23 -21 -23c-12 0 -23 10 -23 23z" />
    <glyph glyph-name="Ccaron" unicode="&#x10c;" horiz-adv-x="657" 
d="M606 90l13 -23c-49 -48 -134 -76 -215 -76c-205 0 -347 141 -347 359c0 201 134 359 338 359c87 0 156 -20 211 -65l-15 -21c-52 41 -116 57 -195 57c-185 0 -308 -143 -308 -330c0 -199 131 -330 318 -330c81 0 151 28 200 70zM394 742l-167 93l13 17l156 -85l154 85
l14 -17l-166 -93h-4z" />
    <glyph glyph-name="ccaron" unicode="&#x10d;" horiz-adv-x="491" 
d="M439 83l14 -19c-38 -48 -103 -73 -166 -73c-137 0 -235 92 -235 234c0 131 96 234 220 234c68 0 129 -15 172 -55l-14 -23c-42 37 -96 51 -153 51c-107 0 -196 -89 -196 -207c0 -127 89 -207 208 -207c61 0 117 27 150 65zM284 560l-122 131l16 18l108 -119l107 118
l16 -17l-121 -131h-4z" />
    <glyph glyph-name="Dcaron" unicode="&#x10e;" horiz-adv-x="735" 
d="M116 0v700h11c53 0 93 3 158 3c280 0 393 -161 393 -342c0 -201 -134 -363 -401 -363c-55 0 -100 2 -154 2h-7zM283 675c-61 0 -90 -3 -137 -3v-644c65 0 129 -2 132 -2c246 0 369 150 369 335c0 170 -106 314 -364 314zM335 742l-167 93l13 17l156 -85l154 85l14 -17
l-166 -93h-4z" />
    <glyph glyph-name="dcaron" unicode="&#x10f;" horiz-adv-x="553" 
d="M439 0v71c-36 -42 -98 -79 -164 -79c-135 0 -223 91 -223 232c0 138 105 235 243 235c56 0 103 -14 144 -45v286h28v-700h-28zM279 19c66 0 132 44 160 80v287c-52 36 -98 46 -144 46c-120 0 -214 -84 -214 -207c0 -127 80 -206 198 -206zM583 700h28c5 -10 9 -22 9 -42
c0 -63 -30 -106 -65 -123l-12 15c30 19 50 59 50 105c0 19 -4 34 -10 45z" />
    <glyph glyph-name="Dcroat" unicode="&#x110;" horiz-adv-x="761" 
d="M10 345v27h132v328h11c53 0 93 3 158 3c280 0 393 -161 393 -342c0 -201 -134 -363 -401 -363c-54 0 -100 2 -154 2h-7v345h-132zM309 675c-61 0 -90 -3 -137 -3v-300h206v-27h-206v-317c65 0 130 -2 133 -2c245 0 368 150 368 335c0 170 -106 314 -364 314z" />
    <glyph glyph-name="dcroat" unicode="&#x111;" horiz-adv-x="553" 
d="M244 554v24h195v122h28v-122h113v-24h-113v-554h-28v71c-36 -42 -98 -79 -164 -79c-135 0 -223 91 -223 232c0 138 105 235 243 235c56 0 103 -14 144 -45v140h-195zM279 19c66 0 132 44 160 80v287c-52 36 -98 46 -144 46c-120 0 -214 -84 -214 -207
c0 -127 80 -206 198 -206z" />
    <glyph glyph-name="Emacron" unicode="&#x112;" horiz-adv-x="575" 
d="M116 0v700h380v-28h-350v-302h320v-28h-320v-314h360v-28h-390zM157 785v24h297v-24h-297z" />
    <glyph glyph-name="emacron" unicode="&#x113;" horiz-adv-x="527" 
d="M441 80l11 -21c-39 -45 -104 -68 -164 -68c-138 0 -236 92 -236 234c0 131 75 234 223 234c116 0 201 -80 201 -202c0 -12 -1 -22 -2 -31h-391c1 -128 82 -208 206 -208c63 0 119 26 152 62zM271 432c-116 0 -182 -78 -190 -182h366c1 112 -69 182 -176 182zM144 624v25
h242v-25h-242z" />
    <glyph glyph-name="Edotaccent" unicode="&#x116;" horiz-adv-x="575" 
d="M116 0v700h380v-28h-350v-302h320v-28h-320v-314h360v-28h-390zM285 797c0 14 11 22 25 22c11 0 22 -8 22 -22c0 -15 -11 -24 -22 -24c-14 0 -25 9 -25 24z" />
    <glyph glyph-name="edotaccent" unicode="&#x117;" horiz-adv-x="527" 
d="M441 80l11 -21c-39 -45 -104 -68 -164 -68c-138 0 -236 92 -236 234c0 131 75 234 223 234c116 0 201 -80 201 -202c0 -12 -1 -22 -2 -31h-391c1 -128 82 -208 206 -208c63 0 119 26 152 62zM271 432c-116 0 -182 -78 -190 -182h366c1 112 -69 182 -176 182zM242 629
c0 12 11 22 23 22c11 0 21 -10 21 -22c0 -13 -10 -23 -21 -23c-12 0 -23 10 -23 23z" />
    <glyph glyph-name="Eogonek" unicode="&#x118;" horiz-adv-x="575" 
d="M116 0v700h380v-28h-350v-302h320v-28h-320v-314h360v-28h-5c-64 -2 -129 -43 -129 -103c0 -59 56 -73 83 -73c12 0 30 1 47 9l9 -19c-17 -9 -41 -14 -61 -14c-43 0 -106 19 -106 91c0 52 41 91 93 109h-321z" />
    <glyph glyph-name="eogonek" unicode="&#x119;" horiz-adv-x="527" 
d="M441 80l11 -21c-22 -26 -53 -44 -86 -55c-44 -28 -76 -62 -76 -107c0 -59 55 -73 83 -73c12 0 30 1 47 9l8 -19c-17 -9 -41 -14 -61 -14c-43 0 -106 19 -106 91c0 45 26 76 68 104c-14 -3 -28 -4 -41 -4c-138 0 -236 92 -236 234c0 131 75 234 223 234
c116 0 201 -80 201 -202c0 -12 -1 -22 -2 -31h-391c1 -128 82 -208 206 -208c63 0 119 26 152 62zM271 432c-116 0 -182 -78 -190 -182h366c1 112 -69 182 -176 182z" />
    <glyph glyph-name="Ecaron" unicode="&#x11a;" horiz-adv-x="575" 
d="M116 0v700h380v-28h-350v-302h320v-28h-320v-314h360v-28h-390zM314 742l-167 93l13 17l156 -85l154 85l14 -17l-166 -93h-4z" />
    <glyph glyph-name="ecaron" unicode="&#x11b;" horiz-adv-x="527" 
d="M441 80l11 -21c-39 -45 -104 -68 -164 -68c-138 0 -236 92 -236 234c0 131 75 234 223 234c116 0 201 -80 201 -202c0 -12 -1 -22 -2 -31h-391c1 -128 82 -208 206 -208c63 0 119 26 152 62zM271 432c-116 0 -182 -78 -190 -182h366c1 112 -69 182 -176 182zM273 560
l-122 131l16 18l108 -119l107 118l16 -17l-121 -131h-4z" />
    <glyph glyph-name="Gcircumflex" unicode="&#x11c;" horiz-adv-x="727" 
d="M413 296v28h247v-237c-62 -62 -175 -96 -262 -96c-201 0 -341 141 -341 359c0 201 135 359 336 359c89 0 157 -20 214 -65l-15 -23c-51 43 -118 59 -195 59c-186 0 -309 -143 -309 -330c0 -199 127 -330 312 -330c83 0 180 31 231 82v194h-218zM227 757l166 94h4l167 -93
l-15 -18l-154 85l-155 -85z" />
    <glyph glyph-name="gcircumflex" unicode="&#x11d;" horiz-adv-x="487" 
d="M17 -69c0 70 54 116 140 133c-11 12 -17 28 -17 46c0 20 7 37 19 49c-58 25 -94 77 -94 142c0 90 70 158 173 158c45 0 84 -13 113 -36l126 35v-27l-103 -28c24 -27 37 -63 37 -102c0 -90 -70 -157 -173 -157c-21 0 -40 2 -57 7c-10 -11 -14 -26 -14 -41
c0 -16 6 -31 18 -42c17 2 35 4 54 4c131 0 222 -49 222 -141c0 -91 -91 -139 -222 -139s-222 47 -222 139zM47 -69c0 -71 78 -112 192 -112c115 0 192 40 192 112s-77 114 -192 114c-114 0 -192 -42 -192 -114zM95 301c0 -75 58 -130 143 -130s143 55 143 130
s-59 131 -143 131s-143 -56 -143 -131zM244 708l120 -131l-15 -18l-107 114l-108 -113l-16 17l122 131h4z" />
    <glyph glyph-name="Gbreve" unicode="&#x11e;" horiz-adv-x="727" 
d="M413 296v28h247v-237c-62 -62 -175 -96 -262 -96c-201 0 -341 141 -341 359c0 201 135 359 336 359c89 0 157 -20 214 -65l-15 -23c-51 43 -118 59 -195 59c-186 0 -309 -143 -309 -330c0 -199 127 -330 312 -330c83 0 180 31 231 82v194h-218zM244 835l14 15
c21 -25 67 -68 143 -68c66 0 113 35 140 68l13 -15c-28 -39 -80 -79 -153 -79c-85 0 -139 51 -157 79z" />
    <glyph glyph-name="gbreve" unicode="&#x11f;" horiz-adv-x="487" 
d="M17 -69c0 70 54 116 140 133c-11 12 -17 28 -17 46c0 20 7 37 19 49c-58 25 -94 77 -94 142c0 90 70 158 173 158c45 0 84 -13 113 -36l126 35v-27l-103 -28c24 -27 37 -63 37 -102c0 -90 -70 -157 -173 -157c-21 0 -40 2 -57 7c-10 -11 -14 -26 -14 -41
c0 -16 6 -31 18 -42c17 2 35 4 54 4c131 0 222 -49 222 -141c0 -91 -91 -139 -222 -139s-222 47 -222 139zM47 -69c0 -71 78 -112 192 -112c115 0 192 40 192 112s-77 114 -192 114c-114 0 -192 -42 -192 -114zM95 301c0 -75 58 -130 143 -130s143 55 143 130
s-59 131 -143 131s-143 -56 -143 -131zM108 665l14 15c20 -24 57 -67 121 -67c55 0 93 34 119 67l12 -15c-27 -36 -66 -77 -132 -77c-75 0 -118 52 -134 77z" />
    <glyph glyph-name="Gdotaccent" unicode="&#x120;" horiz-adv-x="727" 
d="M413 296v28h247v-237c-62 -62 -175 -96 -262 -96c-201 0 -341 141 -341 359c0 201 135 359 336 359c89 0 157 -20 214 -65l-15 -23c-51 43 -118 59 -195 59c-186 0 -309 -143 -309 -330c0 -199 127 -330 312 -330c83 0 180 31 231 82v194h-218zM363 797c0 14 11 22 25 22
c11 0 22 -8 22 -22c0 -15 -11 -24 -22 -24c-14 0 -25 9 -25 24z" />
    <glyph glyph-name="gdotaccent" unicode="&#x121;" horiz-adv-x="487" 
d="M17 -69c0 70 54 116 140 133c-11 12 -17 28 -17 46c0 20 7 37 19 49c-58 25 -94 77 -94 142c0 90 70 158 173 158c45 0 84 -13 113 -36l126 35v-27l-103 -28c24 -27 37 -63 37 -102c0 -90 -70 -157 -173 -157c-21 0 -40 2 -57 7c-10 -11 -14 -26 -14 -41
c0 -16 6 -31 18 -42c17 2 35 4 54 4c131 0 222 -49 222 -141c0 -91 -91 -139 -222 -139s-222 47 -222 139zM47 -69c0 -71 78 -112 192 -112c115 0 192 40 192 112s-77 114 -192 114c-114 0 -192 -42 -192 -114zM95 301c0 -75 58 -130 143 -130s143 55 143 130
s-59 131 -143 131s-143 -56 -143 -131zM219 629c0 12 11 22 23 22c11 0 21 -10 21 -22c0 -13 -10 -23 -21 -23c-12 0 -23 10 -23 23z" />
    <glyph glyph-name="Gcommaaccent" unicode="&#x122;" horiz-adv-x="727" 
d="M413 296v28h247v-237c-62 -62 -175 -96 -262 -96c-201 0 -341 141 -341 359c0 201 135 359 336 359c89 0 157 -20 214 -65l-15 -23c-51 43 -118 59 -195 59c-186 0 -309 -143 -309 -330c0 -199 127 -330 312 -330c83 0 180 31 231 82v194h-218zM371 -76l20 12
c23 -2 40 -21 40 -50c0 -51 -29 -74 -70 -87l-8 15c33 13 50 33 50 66c0 28 -14 40 -32 44z" />
    <glyph glyph-name="gcommaaccent" unicode="&#x123;" horiz-adv-x="487" 
d="M17 -69c0 70 54 116 140 133c-11 12 -17 28 -17 46c0 20 7 37 19 49c-58 25 -94 77 -94 142c0 90 70 158 173 158c45 0 84 -13 113 -36l126 35v-27l-103 -28c24 -27 37 -63 37 -102c0 -90 -70 -157 -173 -157c-21 0 -40 2 -57 7c-10 -11 -14 -26 -14 -41
c0 -16 6 -31 18 -42c17 2 35 4 54 4c131 0 222 -49 222 -141c0 -91 -91 -139 -222 -139s-222 47 -222 139zM47 -69c0 -71 78 -112 192 -112c115 0 192 40 192 112s-77 114 -192 114c-114 0 -192 -42 -192 -114zM95 301c0 -75 58 -130 143 -130s143 55 143 130
s-59 131 -143 131s-143 -56 -143 -131zM263 573l-20 -12c-23 2 -40 21 -40 50c0 51 29 74 70 87l8 -15c-33 -13 -50 -33 -50 -66c0 -28 14 -40 32 -44z" />
    <glyph glyph-name="Hcircumflex" unicode="&#x124;" horiz-adv-x="772" 
d="M627 0v343h-481v-343h-30v700h30v-329h481v329h29v-700h-29zM218 757l166 94h4l167 -93l-15 -18l-154 85l-155 -85z" />
    <glyph glyph-name="hcircumflex" unicode="&#x125;" horiz-adv-x="553" 
d="M85 0v700h29v-318c37 43 108 76 173 76c127 0 190 -63 190 -204v-254h-28v248c0 124 -53 183 -167 183c-70 0 -139 -39 -168 -77v-354h-29zM-4 757l166 94h4l167 -93l-15 -18l-154 85l-155 -85z" />
    <glyph glyph-name="Hbar" unicode="&#x126;" horiz-adv-x="782" 
d="M29 527v27h92v146h30v-146h481v146h29v-146h93v-27h-93v-527h-29v343h-481v-343h-30v527h-92zM151 371h481v156h-481v-156z" />
    <glyph glyph-name="hbar" unicode="&#x127;" horiz-adv-x="559" 
d="M-42 542v27h133v131h29v-131h182v-27h-182v-160c37 43 108 76 173 76c127 0 190 -63 190 -204v-254h-28v248c0 124 -53 183 -167 183c-70 0 -139 -39 -168 -77v-354h-29v542h-133z" />
    <glyph glyph-name="Imacron" unicode="&#x12a;" horiz-adv-x="316" 
d="M143 0v700h30v-700h-30zM11 785v24h297v-24h-297z" />
    <glyph glyph-name="imacron" unicode="&#x12b;" horiz-adv-x="255" 
d="M113 0v450h28v-450h-28zM6 624v25h242v-25h-242z" />
    <glyph glyph-name="Iogonek" unicode="&#x12e;" horiz-adv-x="316" 
d="M169 -167l9 -19c-17 -9 -41 -14 -61 -14c-43 0 -106 19 -106 91c0 65 64 109 132 119v690h30v-700h-5c-64 -2 -129 -43 -129 -103c0 -59 56 -73 83 -73c12 0 30 1 47 9z" />
    <glyph glyph-name="iogonek" unicode="&#x12f;" horiz-adv-x="255" 
d="M137 -167l9 -19c-17 -9 -41 -14 -61 -14c-43 0 -106 19 -106 91c0 65 66 109 134 119v440h28v-450h-5c-64 -2 -129 -43 -129 -103c0 -59 56 -73 83 -73c12 0 30 1 47 9zM104 629c0 12 11 22 23 22c11 0 21 -10 21 -22c0 -13 -10 -23 -21 -23c-12 0 -23 10 -23 23z" />
    <glyph glyph-name="Idotaccent" unicode="&#x130;" horiz-adv-x="316" 
d="M143 0v700h30v-700h-30zM135 797c0 14 11 22 25 22c11 0 22 -8 22 -22c0 -15 -11 -24 -22 -24c-14 0 -25 9 -25 24z" />
    <glyph glyph-name="dotlessi" unicode="&#x131;" horiz-adv-x="255" 
d="M113 0v450h28v-450h-28z" />
    <glyph glyph-name="Jcircumflex" unicode="&#x134;" horiz-adv-x="350" 
d="M233 700v-550c0 -95 -28 -159 -129 -159c-36 0 -69 14 -87 29l12 23c16 -12 44 -23 72 -23c87 0 103 60 103 133v547h29zM42 757l166 94h4l167 -93l-15 -18l-154 85l-155 -85z" />
    <glyph glyph-name="jcircumflex" unicode="&#x135;" horiz-adv-x="255" 
d="M143 450v-483c0 -110 -41 -175 -141 -175c-35 0 -67 13 -85 26l10 23c16 -11 43 -22 71 -22c84 0 117 54 117 149v482h28zM131 708l120 -131l-15 -18l-107 114l-108 -113l-16 17l122 131h4z" />
    <glyph glyph-name="Kcommaaccent" unicode="&#x136;" horiz-adv-x="624" 
d="M577 700l-344 -333l356 -367h-43l-354 365l344 335h41zM116 0v700h30v-700h-30zM276 -76l20 12c23 -2 40 -21 40 -50c0 -51 -29 -74 -70 -87l-8 15c33 13 50 33 50 66c0 28 -14 40 -32 44z" />
    <glyph glyph-name="kcommaaccent" unicode="&#x137;" horiz-adv-x="457" 
d="M414 450l-225 -213l244 -237h-40l-240 235l223 215h38zM85 0v700h29v-700h-29zM196 -76l20 12c23 -2 40 -21 40 -50c0 -51 -29 -74 -70 -87l-8 15c33 13 50 33 50 66c0 28 -14 40 -32 44z" />
    <glyph glyph-name="Lacute" unicode="&#x139;" horiz-adv-x="554" 
d="M116 0v700h30v-672h389v-28h-419zM417 829l-167 -89l-9 18l165 94z" />
    <glyph glyph-name="lacute" unicode="&#x13a;" horiz-adv-x="276" 
d="M85 113v587h29v-566c0 -75 18 -111 73 -111c28 0 54 11 70 23l9 -23c-19 -14 -50 -27 -87 -27c-66 0 -94 38 -94 117zM247 829l-167 -89l-9 18l165 94z" />
    <glyph glyph-name="Lcommaaccent" unicode="&#x13b;" horiz-adv-x="554" 
d="M116 0v700h30v-672h389v-28h-419zM288 -76l20 12c23 -2 40 -21 40 -50c0 -51 -29 -74 -70 -87l-8 15c33 13 50 33 50 66c0 28 -14 40 -32 44z" />
    <glyph glyph-name="lcommaaccent" unicode="&#x13c;" horiz-adv-x="276" 
d="M85 113v587h29v-566c0 -75 18 -111 73 -111c28 0 54 11 70 23l9 -23c-19 -14 -50 -27 -87 -27c-66 0 -94 38 -94 117zM133 -76l20 12c23 -2 40 -21 40 -50c0 -51 -29 -74 -70 -87l-8 15c33 13 50 33 50 66c0 28 -14 40 -32 44z" />
    <glyph glyph-name="Lcaron" unicode="&#x13d;" horiz-adv-x="554" 
d="M116 0v700h30v-672h389v-28h-419zM357 700h28c5 -10 9 -22 9 -42c0 -63 -30 -106 -65 -123l-12 15c30 19 50 59 50 105c0 19 -4 34 -10 45z" />
    <glyph glyph-name="lcaron" unicode="&#x13e;" horiz-adv-x="276" 
d="M85 113v587h29v-566c0 -75 18 -111 73 -111c28 0 54 11 70 23l9 -23c-19 -14 -50 -27 -87 -27c-66 0 -94 38 -94 117zM232 700h28c5 -10 9 -22 9 -42c0 -63 -30 -106 -65 -123l-12 15c30 19 50 59 50 105c0 19 -4 34 -10 45z" />
    <glyph glyph-name="Ldot" unicode="&#x13f;" horiz-adv-x="554" 
d="M116 0v700h30v-672h389v-28h-419zM385 374c0 11 11 22 25 22c12 0 23 -11 23 -22c0 -13 -11 -25 -23 -25c-14 0 -25 12 -25 25z" />
    <glyph glyph-name="ldot" unicode="&#x140;" horiz-adv-x="285" 
d="M85 113v587h29v-566c0 -75 18 -111 73 -111c28 0 54 11 70 23l9 -23c-19 -14 -50 -27 -87 -27c-66 0 -94 38 -94 117zM223 308c0 12 11 22 23 22c11 0 21 -10 21 -22c0 -13 -10 -23 -21 -23c-12 0 -23 10 -23 23z" />
    <glyph glyph-name="Lslash" unicode="&#x141;" horiz-adv-x="564" 
d="M29 241v31l97 50v378h30v-362l196 102v-29l-196 -103v-280h389v-28h-419v292z" />
    <glyph glyph-name="lslash" unicode="&#x142;" horiz-adv-x="306" 
d="M19 252v30l86 45v373h29v-358l119 62v-29l-119 -63v-178c0 -75 18 -111 73 -111c28 0 54 11 70 23l9 -23c-19 -14 -50 -27 -87 -27c-66 0 -94 38 -94 117v184z" />
    <glyph glyph-name="Nacute" unicode="&#x143;" horiz-adv-x="799" 
d="M683 0h-24l-515 646v-646h-28v700h24l514 -648v648h29v-700zM538 829l-167 -89l-9 18l165 94z" />
    <glyph glyph-name="nacute" unicode="&#x144;" horiz-adv-x="553" 
d="M85 0v450h29v-68c36 42 107 76 173 76c127 0 190 -63 190 -204v-254h-28v248c0 124 -53 183 -167 183c-70 0 -138 -39 -168 -77v-354h-29zM373 693l-112 -141l-18 12l109 146z" />
    <glyph glyph-name="Ncommaaccent" unicode="&#x145;" horiz-adv-x="799" 
d="M683 0h-24l-515 646v-646h-28v700h24l514 -648v648h29v-700zM369 -76l20 12c23 -2 40 -21 40 -50c0 -51 -29 -74 -70 -87l-8 15c33 13 50 33 50 66c0 28 -14 40 -32 44z" />
    <glyph glyph-name="ncommaaccent" unicode="&#x146;" horiz-adv-x="553" 
d="M85 0v450h29v-68c36 42 107 76 173 76c127 0 190 -63 190 -204v-254h-28v248c0 124 -53 183 -167 183c-70 0 -138 -39 -168 -77v-354h-29zM253 -76l20 12c23 -2 40 -21 40 -50c0 -51 -29 -74 -70 -87l-8 15c33 13 50 33 50 66c0 28 -14 40 -32 44z" />
    <glyph glyph-name="Ncaron" unicode="&#x147;" horiz-adv-x="799" 
d="M683 0h-24l-515 646v-646h-28v700h24l514 -648v648h29v-700zM397 742l-167 93l13 17l156 -85l154 85l14 -17l-166 -93h-4z" />
    <glyph glyph-name="ncaron" unicode="&#x148;" horiz-adv-x="553" 
d="M85 0v450h29v-68c36 42 107 76 173 76c127 0 190 -63 190 -204v-254h-28v248c0 124 -53 183 -167 183c-70 0 -138 -39 -168 -77v-354h-29zM274 560l-122 131l16 18l108 -119l107 118l16 -17l-121 -131h-4z" />
    <glyph glyph-name="Omacron" unicode="&#x14c;" horiz-adv-x="807" 
d="M57 350c0 203 149 359 346 359c196 0 346 -153 346 -359c0 -204 -150 -359 -346 -359c-195 0 -346 153 -346 359zM88 350c0 -188 137 -330 315 -330c181 0 315 142 315 330c0 189 -136 330 -315 330c-178 0 -315 -141 -315 -330zM256 785v24h297v-24h-297z" />
    <glyph glyph-name="omacron" unicode="&#x14d;" horiz-adv-x="569" 
d="M52 225c0 135 96 234 232 234c137 0 233 -99 233 -234s-96 -234 -233 -234c-136 0 -232 99 -232 234zM81 225c0 -121 84 -207 203 -207s203 86 203 207s-84 207 -203 207c-118 0 -203 -86 -203 -207zM164 624v25h242v-25h-242z" />
    <glyph glyph-name="Ohungarumlaut" unicode="&#x150;" horiz-adv-x="807" 
d="M57 350c0 203 149 359 346 359c196 0 346 -153 346 -359c0 -204 -150 -359 -346 -359c-195 0 -346 153 -346 359zM88 350c0 -188 137 -330 315 -330c181 0 315 142 315 330c0 189 -136 330 -315 330c-178 0 -315 -141 -315 -330zM637 833l-160 -93l-13 14l156 98z
M461 837l-156 -97l-13 14l148 98z" />
    <glyph glyph-name="ohungarumlaut" unicode="&#x151;" horiz-adv-x="569" 
d="M52 225c0 135 96 234 232 234c137 0 233 -99 233 -234s-96 -234 -233 -234c-136 0 -232 99 -232 234zM81 225c0 -121 84 -207 203 -207s203 86 203 207s-84 207 -203 207c-118 0 -203 -86 -203 -207zM464 692l-113 -140l-18 12l111 145zM317 695l-110 -143l-18 12
l108 146z" />
    <glyph glyph-name="OE" unicode="&#x152;" horiz-adv-x="1048" 
d="M589 0v43c-47 -32 -113 -52 -185 -52c-205 0 -347 141 -347 359c0 201 134 359 338 359c78 0 142 -16 194 -52v43h380v-28h-350v-302h320v-28h-320v-314h360v-28h-390zM406 20c76 0 136 21 183 57v547c-52 40 -115 56 -193 56c-185 0 -308 -143 -308 -330
c0 -199 131 -330 318 -330z" />
    <glyph glyph-name="oe" unicode="&#x153;" horiz-adv-x="847" 
d="M761 80l11 -21c-39 -45 -104 -68 -164 -68c-66 0 -122 21 -164 58c-41 -38 -94 -58 -159 -58c-137 0 -233 99 -233 234s96 234 233 234c61 0 115 -21 154 -56c37 35 89 56 156 56c116 0 201 -80 201 -202c0 -12 -1 -22 -2 -31h-391c1 -128 82 -208 206 -208
c63 0 119 26 152 62zM285 18c56 0 104 19 139 51c-33 40 -52 93 -52 156c0 62 17 117 50 158c-35 31 -81 49 -137 49c-118 0 -203 -86 -203 -207s84 -207 203 -207zM591 432c-116 0 -182 -78 -190 -182h367c0 112 -70 182 -177 182z" />
    <glyph glyph-name="Racute" unicode="&#x154;" horiz-adv-x="621" 
d="M146 0h-30v700c39 0 131 2 151 2c191 0 242 -95 242 -196c0 -94 -71 -174 -177 -194l254 -312h-37l-249 306h-154v-306zM265 674c-20 0 -86 -1 -119 -2v-338h136c96 0 196 71 196 172c0 96 -55 168 -213 168zM386 829l-167 -89l-9 18l165 94z" />
    <glyph glyph-name="racute" unicode="&#x155;" horiz-adv-x="320" 
d="M85 0v450h29v-65c26 40 67 73 127 73c37 0 55 -6 70 -17l-9 -27c-22 13 -34 17 -65 17c-65 0 -100 -42 -123 -79v-352h-29zM290 693l-112 -141l-18 12l109 146z" />
    <glyph glyph-name="Rcommaaccent" unicode="&#x156;" horiz-adv-x="621" 
d="M146 0h-30v700c39 0 131 2 151 2c191 0 242 -95 242 -196c0 -94 -71 -174 -177 -194l254 -312h-37l-249 306h-154v-306zM265 674c-20 0 -86 -1 -119 -2v-338h136c96 0 196 71 196 172c0 96 -55 168 -213 168zM274 -76l20 12c23 -2 40 -21 40 -50c0 -51 -29 -74 -70 -87
l-8 15c33 13 50 33 50 66c0 28 -14 40 -32 44z" />
    <glyph glyph-name="rcommaaccent" unicode="&#x157;" horiz-adv-x="320" 
d="M85 0v450h29v-65c26 40 67 73 127 73c37 0 55 -6 70 -17l-9 -27c-22 13 -34 17 -65 17c-65 0 -100 -42 -123 -79v-352h-29zM120 -76l20 12c23 -2 40 -21 40 -50c0 -51 -29 -74 -70 -87l-8 15c33 13 50 33 50 66c0 28 -14 40 -32 44z" />
    <glyph glyph-name="Rcaron" unicode="&#x158;" horiz-adv-x="621" 
d="M146 0h-30v700c39 0 131 2 151 2c191 0 242 -95 242 -196c0 -94 -71 -174 -177 -194l254 -312h-37l-249 306h-154v-306zM265 674c-20 0 -86 -1 -119 -2v-338h136c96 0 196 71 196 172c0 96 -55 168 -213 168zM272 742l-167 93l13 17l156 -85l154 85l14 -17l-166 -93h-4z
" />
    <glyph glyph-name="rcaron" unicode="&#x159;" horiz-adv-x="320" 
d="M85 0v450h29v-65c26 40 67 73 127 73c37 0 55 -6 70 -17l-9 -27c-22 13 -34 17 -65 17c-65 0 -100 -42 -123 -79v-352h-29zM187 560l-122 131l16 18l108 -119l107 118l16 -17l-121 -131h-4z" />
    <glyph glyph-name="Sacute" unicode="&#x15a;" horiz-adv-x="543" 
d="M455 170c0 220 -379 134 -379 370c0 95 72 169 200 169c75 0 146 -28 184 -71l-17 -21c-42 43 -101 63 -168 63c-103 0 -168 -56 -168 -140c0 -216 379 -123 379 -369c0 -110 -97 -180 -219 -180c-80 0 -174 39 -210 99l19 20c42 -57 123 -90 189 -90
c97 0 190 50 190 150zM403 829l-167 -89l-9 18l165 94z" />
    <glyph glyph-name="sacute" unicode="&#x15b;" horiz-adv-x="409" 
d="M323 114c0 132 -254 67 -254 232c0 66 53 113 137 113c54 0 104 -21 129 -48l-14 -21c-27 28 -70 43 -116 43c-66 0 -107 -40 -107 -86c0 -140 254 -75 254 -231c0 -85 -70 -125 -151 -125c-56 0 -124 30 -145 62l18 18c24 -33 83 -54 128 -54c61 0 121 31 121 97z
M306 693l-112 -141l-18 12l109 146z" />
    <glyph glyph-name="Scircumflex" unicode="&#x15c;" horiz-adv-x="543" 
d="M455 170c0 220 -379 134 -379 370c0 95 72 169 200 169c75 0 146 -28 184 -71l-17 -21c-42 43 -101 63 -168 63c-103 0 -168 -56 -168 -140c0 -216 379 -123 379 -369c0 -110 -97 -180 -219 -180c-80 0 -174 39 -210 99l19 20c42 -57 123 -90 189 -90
c97 0 190 50 190 150zM103 757l166 94h4l167 -93l-15 -18l-154 85l-155 -85z" />
    <glyph glyph-name="scircumflex" unicode="&#x15d;" horiz-adv-x="409" 
d="M323 114c0 132 -254 67 -254 232c0 66 53 113 137 113c54 0 104 -21 129 -48l-14 -21c-27 28 -70 43 -116 43c-66 0 -107 -40 -107 -86c0 -140 254 -75 254 -231c0 -85 -70 -125 -151 -125c-56 0 -124 30 -145 62l18 18c24 -33 83 -54 128 -54c61 0 121 31 121 97z
M210 708l120 -131l-15 -18l-107 114l-108 -113l-16 17l122 131h4z" />
    <glyph glyph-name="Scedilla" unicode="&#x15e;" horiz-adv-x="543" 
d="M176 -177l10 17c25 -13 52 -21 74 -21c47 0 81 21 81 54s-22 54 -82 54h-6v65c-77 4 -162 41 -196 98l19 20c42 -57 123 -90 189 -90c97 0 190 50 190 150c0 220 -379 134 -379 370c0 95 72 169 200 169c75 0 146 -28 184 -71l-17 -21c-42 43 -101 63 -168 63
c-103 0 -168 -56 -168 -140c0 -216 379 -123 379 -369c0 -109 -95 -178 -214 -180v-47c70 -1 98 -29 98 -72s-40 -73 -105 -73c-36 0 -63 10 -89 24z" />
    <glyph glyph-name="scedilla" unicode="&#x15f;" horiz-adv-x="409" 
d="M109 -178l10 17c25 -13 51 -20 73 -20c47 0 81 21 81 54s-22 54 -82 54h-6v65c-53 5 -110 32 -129 61l18 18c24 -33 83 -54 128 -54c61 0 121 31 121 97c0 132 -254 67 -254 232c0 66 53 113 137 113c54 0 104 -21 129 -48l-14 -21c-27 28 -70 43 -116 43
c-66 0 -107 -40 -107 -86c0 -140 254 -75 254 -231c0 -84 -69 -124 -148 -125v-47c69 -1 97 -29 97 -72s-40 -73 -106 -73c-34 0 -59 10 -86 23z" />
    <glyph glyph-name="Scaron" unicode="&#x160;" horiz-adv-x="543" 
d="M455 170c0 220 -379 134 -379 370c0 95 72 169 200 169c75 0 146 -28 184 -71l-17 -21c-42 43 -101 63 -168 63c-103 0 -168 -56 -168 -140c0 -216 379 -123 379 -369c0 -110 -97 -180 -219 -180c-80 0 -174 39 -210 99l19 20c42 -57 123 -90 189 -90
c97 0 190 50 190 150zM276 742l-167 93l13 17l156 -85l154 85l14 -17l-166 -93h-4z" />
    <glyph glyph-name="scaron" unicode="&#x161;" horiz-adv-x="409" 
d="M323 114c0 132 -254 67 -254 232c0 66 53 113 137 113c54 0 104 -21 129 -48l-14 -21c-27 28 -70 43 -116 43c-66 0 -107 -40 -107 -86c0 -140 254 -75 254 -231c0 -85 -70 -125 -151 -125c-56 0 -124 30 -145 62l18 18c24 -33 83 -54 128 -54c61 0 121 31 121 97z
M203 560l-122 131l16 18l108 -119l107 118l16 -17l-121 -131h-4z" />
    <glyph glyph-name="Tcedilla" unicode="&#x162;" horiz-adv-x="591" 
d="M209 -177l10 17c25 -13 52 -21 74 -21c47 0 81 21 81 54s-22 54 -82 54h-6v73h-5v672h-271v28h571v-28h-271v-672h-5v-56c70 -1 98 -29 98 -72s-40 -73 -105 -73c-36 0 -63 10 -89 24z" />
    <glyph glyph-name="tcedilla" unicode="&#x163;" horiz-adv-x="344" 
d="M94 -178l10 17c25 -13 51 -20 73 -20c47 0 81 21 81 54s-22 54 -82 54h-6v73c-67 17 -95 75 -95 171v404h29v-125h194v-27h-194v-243c0 -104 33 -158 117 -158c30 0 57 12 73 24l12 -23c-20 -14 -52 -28 -90 -28c-10 0 -19 1 -27 2v-53c69 -1 97 -29 97 -72
s-40 -73 -106 -73c-34 0 -59 10 -86 23z" />
    <glyph glyph-name="Tcaron" unicode="&#x164;" horiz-adv-x="591" 
d="M10 672v28h571v-28h-271v-672h-29v672h-271zM294 742l-167 93l13 17l156 -85l154 85l14 -17l-166 -93h-4z" />
    <glyph glyph-name="tcaron" unicode="&#x165;" horiz-adv-x="344" 
d="M75 171v404h29v-125h194v-27h-194v-243c0 -104 33 -158 117 -158c30 0 57 12 73 24l12 -23c-20 -14 -52 -28 -90 -28c-100 0 -141 61 -141 176zM239 700h28c5 -10 9 -22 9 -42c0 -63 -30 -106 -65 -123l-12 15c30 19 50 59 50 105c0 19 -4 34 -10 45z" />
    <glyph glyph-name="Umacron" unicode="&#x16a;" horiz-adv-x="751" 
d="M645 700v-406c0 -214 -121 -301 -260 -301c-158 0 -279 103 -279 308v399h30v-395c0 -185 105 -284 249 -284c129 0 230 85 230 280v399h30zM228 785v24h297v-24h-297z" />
    <glyph glyph-name="umacron" unicode="&#x16b;" horiz-adv-x="547" 
d="M462 450v-450h-28v78c-36 -45 -108 -87 -181 -87c-118 0 -178 64 -178 203v256h29v-249c0 -122 48 -183 158 -183c73 0 143 49 172 89v343h28zM152 624v25h242v-25h-242z" />
    <glyph glyph-name="Ubreve" unicode="&#x16c;" horiz-adv-x="751" 
d="M645 700v-406c0 -214 -121 -301 -260 -301c-158 0 -279 103 -279 308v399h30v-395c0 -185 105 -284 249 -284c129 0 230 85 230 280v399h30zM220 835l14 15c21 -25 67 -68 143 -68c66 0 113 35 140 68l13 -15c-28 -39 -80 -79 -153 -79c-85 0 -139 51 -157 79z" />
    <glyph glyph-name="ubreve" unicode="&#x16d;" horiz-adv-x="547" 
d="M462 450v-450h-28v78c-36 -45 -108 -87 -181 -87c-118 0 -178 64 -178 203v256h29v-249c0 -122 48 -183 158 -183c73 0 143 49 172 89v343h28zM139 665l14 15c20 -24 57 -67 121 -67c55 0 93 34 119 67l12 -15c-27 -36 -66 -77 -132 -77c-75 0 -118 52 -134 77z" />
    <glyph glyph-name="Uring" unicode="&#x16e;" horiz-adv-x="751" 
d="M645 700v-406c0 -214 -121 -301 -260 -301c-158 0 -279 103 -279 308v399h30v-395c0 -185 105 -284 249 -284c129 0 230 85 230 280v399h30zM275 779c0 56 45 81 100 81c56 0 102 -25 102 -81c0 -54 -46 -83 -102 -83c-55 0 -100 29 -100 83zM298 779
c0 -43 34 -64 77 -64c44 0 79 21 79 64c0 44 -35 62 -79 62c-43 0 -77 -18 -77 -62z" />
    <glyph glyph-name="uring" unicode="&#x16f;" horiz-adv-x="547" 
d="M462 450v-450h-28v78c-36 -45 -108 -87 -181 -87c-118 0 -178 64 -178 203v256h29v-249c0 -122 48 -183 158 -183c73 0 143 49 172 89v343h28zM174 614c0 54 43 98 98 98s99 -44 99 -98c0 -53 -44 -96 -99 -96s-98 43 -98 96zM195 615c0 -44 33 -78 77 -78
c43 0 78 34 78 78c0 43 -35 78 -78 78c-44 0 -77 -35 -77 -78z" />
    <glyph glyph-name="Uhungarumlaut" unicode="&#x170;" horiz-adv-x="751" 
d="M645 700v-406c0 -214 -121 -301 -260 -301c-158 0 -279 103 -279 308v399h30v-395c0 -185 105 -284 249 -284c129 0 230 85 230 280v399h30zM596 833l-160 -93l-13 14l156 98zM420 837l-156 -97l-13 14l148 98z" />
    <glyph glyph-name="uhungarumlaut" unicode="&#x171;" horiz-adv-x="547" 
d="M462 450v-450h-28v78c-36 -45 -108 -87 -181 -87c-118 0 -178 64 -178 203v256h29v-249c0 -122 48 -183 158 -183c73 0 143 49 172 89v343h28zM453 692l-113 -140l-18 12l111 145zM306 695l-110 -143l-18 12l108 146z" />
    <glyph glyph-name="Uogonek" unicode="&#x172;" horiz-adv-x="751" 
d="M645 700v-406c0 -183 -88 -273 -201 -295c-49 -21 -90 -52 -90 -102c0 -59 56 -73 83 -73c12 0 30 1 47 9l9 -19c-17 -9 -41 -14 -61 -14c-43 0 -106 19 -106 91c0 48 33 80 80 103c-7 -1 -14 -1 -21 -1c-158 0 -279 103 -279 308v399h30v-395c0 -185 105 -284 249 -284
c129 0 230 85 230 280v399h30z" />
    <glyph glyph-name="uogonek" unicode="&#x173;" horiz-adv-x="547" 
d="M458 -167l9 -19c-17 -9 -41 -14 -61 -14c-43 0 -106 19 -106 91c0 65 66 109 134 119v68c-36 -45 -108 -87 -181 -87c-118 0 -178 64 -178 203v256h29v-249c0 -122 48 -183 158 -183c73 0 143 49 172 89v343h28v-450h-5c-64 -2 -129 -43 -129 -103c0 -59 56 -73 83 -73
c12 0 30 1 47 9z" />
    <glyph glyph-name="Ydieresis" unicode="&#x178;" horiz-adv-x="567" 
d="M550 700l-253 -389v-311h-29v311l-251 389h35l231 -361l233 361h34zM144 796c0 13 11 21 24 21c12 0 23 -8 23 -21c0 -14 -11 -22 -23 -22c-13 0 -24 8 -24 22zM378 796c0 13 11 21 24 21c11 0 22 -8 22 -21c0 -14 -11 -22 -22 -22c-13 0 -24 8 -24 22z" />
    <glyph glyph-name="Zacute" unicode="&#x179;" horiz-adv-x="624" 
d="M60 672v28h514v-16l-491 -656h501v-28h-544v16l490 656h-470zM442 829l-167 -89l-9 18l165 94z" />
    <glyph glyph-name="zacute" unicode="&#x17a;" horiz-adv-x="478" 
d="M64 423v27h365v-16l-338 -407h333v-27h-375v16l336 407h-321zM342 693l-112 -141l-18 12l109 146z" />
    <glyph glyph-name="Zdotaccent" unicode="&#x17b;" horiz-adv-x="624" 
d="M60 672v28h514v-16l-491 -656h501v-28h-544v16l490 656h-470zM280 797c0 14 11 22 25 22c11 0 22 -8 22 -22c0 -15 -11 -24 -22 -24c-14 0 -25 9 -25 24z" />
    <glyph glyph-name="zdotaccent" unicode="&#x17c;" horiz-adv-x="478" 
d="M64 423v27h365v-16l-338 -407h333v-27h-375v16l336 407h-321zM215 629c0 12 11 22 23 22c11 0 21 -10 21 -22c0 -13 -10 -23 -21 -23c-12 0 -23 10 -23 23z" />
    <glyph glyph-name="Zcaron" unicode="&#x17d;" horiz-adv-x="624" 
d="M60 672v28h514v-16l-491 -656h501v-28h-544v16l490 656h-470zM309 742l-167 93l13 17l156 -85l154 85l14 -17l-166 -93h-4z" />
    <glyph glyph-name="zcaron" unicode="&#x17e;" horiz-adv-x="478" 
d="M64 423v27h365v-16l-338 -407h333v-27h-375v16l336 407h-321zM239 560l-122 131l16 18l108 -119l107 118l16 -17l-121 -131h-4z" />
    <glyph glyph-name="longs" unicode="&#x17f;" horiz-adv-x="252" 
d="M103 0v523c0 125 53 186 153 186c54 0 90 -18 112 -37l-11 -22c-25 18 -53 32 -98 32c-84 0 -128 -51 -128 -168v-514h-28z" />
    <glyph glyph-name="uni018F" unicode="&#x18f;" horiz-adv-x="778" 
d="M49 371h639c-7 189 -132 309 -323 309c-71 0 -141 -17 -196 -60l-13 21c53 47 137 68 214 68c213 0 350 -138 350 -356c0 -204 -128 -362 -337 -362c-208 0 -337 162 -334 380zM382 20c191 0 303 142 307 323h-609c4 -179 118 -323 302 -323z" />
    <glyph glyph-name="florin" unicode="&#x192;" 
d="M340 514l-12 -64h183v-27h-188l-82 -456c-20 -111 -60 -175 -160 -175c-36 0 -67 13 -85 26l10 23c16 -11 42 -22 70 -22c85 0 119 53 137 152l81 452h-171v27h176l13 73c23 126 70 186 170 186c54 0 91 -18 113 -37l-12 -22c-24 18 -52 32 -97 32
c-84 0 -124 -50 -146 -168z" />
    <glyph glyph-name="uni01DD" unicode="&#x1dd;" horiz-adv-x="527" 
d="M87 370l-11 21c40 45 113 68 173 68c138 0 226 -92 226 -234c0 -131 -75 -234 -217 -234c-122 0 -208 80 -208 202c0 12 2 30 2 40h392c-1 109 -72 199 -196 199c-63 0 -128 -26 -161 -62zM261 18c111 0 183 81 185 190h-367c-3 -123 70 -190 182 -190z" />
    <glyph glyph-name="Scommaaccent" unicode="&#x218;" horiz-adv-x="543" 
d="M455 170c0 220 -379 134 -379 370c0 95 72 169 200 169c75 0 146 -28 184 -71l-17 -21c-42 43 -101 63 -168 63c-103 0 -168 -56 -168 -140c0 -216 379 -123 379 -369c0 -110 -97 -180 -219 -180c-80 0 -174 39 -210 99l19 20c42 -57 123 -90 189 -90
c97 0 190 50 190 150zM243 -76l20 12c23 -2 40 -21 40 -50c0 -51 -29 -74 -70 -87l-8 15c33 13 50 33 50 66c0 28 -14 40 -32 44z" />
    <glyph glyph-name="scommaaccent" unicode="&#x219;" horiz-adv-x="409" 
d="M323 114c0 132 -254 67 -254 232c0 66 53 113 137 113c54 0 104 -21 129 -48l-14 -21c-27 28 -70 43 -116 43c-66 0 -107 -40 -107 -86c0 -140 254 -75 254 -231c0 -85 -70 -125 -151 -125c-56 0 -124 30 -145 62l18 18c24 -33 83 -54 128 -54c61 0 121 31 121 97z
M183 -76l20 12c23 -2 40 -21 40 -50c0 -51 -29 -74 -70 -87l-8 15c33 13 50 33 50 66c0 28 -14 40 -32 44z" />
    <glyph glyph-name="Tcommaaccent" unicode="&#x21a;" horiz-adv-x="591" 
d="M10 672v28h571v-28h-271v-672h-29v672h-271zM273 -76l20 12c23 -2 40 -21 40 -50c0 -51 -29 -74 -70 -87l-8 15c33 13 50 33 50 66c0 28 -14 40 -32 44z" />
    <glyph glyph-name="tcommaaccent" unicode="&#x21b;" horiz-adv-x="344" 
d="M75 171v404h29v-125h194v-27h-194v-243c0 -104 33 -158 117 -158c30 0 57 12 73 24l12 -23c-20 -14 -52 -28 -90 -28c-100 0 -141 61 -141 176zM170 -76l20 12c23 -2 40 -21 40 -50c0 -51 -29 -74 -70 -87l-8 15c33 13 50 33 50 66c0 28 -14 40 -32 44z" />
    <glyph glyph-name="uni0237" unicode="&#x237;" horiz-adv-x="255" 
d="M143 450v-483c0 -110 -41 -175 -141 -175c-35 0 -67 13 -85 26l10 23c16 -11 43 -22 71 -22c84 0 117 54 117 149v482h28z" />
    <glyph glyph-name="uni0259" unicode="&#x259;" horiz-adv-x="527" 
d="M87 370l-11 21c40 45 113 68 173 68c138 0 226 -92 226 -234c0 -131 -75 -234 -217 -234c-122 0 -208 80 -208 202c0 12 2 30 2 40h392c-1 109 -72 199 -196 199c-63 0 -128 -26 -161 -62zM261 18c111 0 183 81 185 190h-367c-3 -123 70 -190 182 -190z" />
    <glyph glyph-name="afii57929" unicode="&#x2bc;" horiz-adv-x="197" 
d="M90 632l24 17c12 -13 23 -36 23 -65c0 -60 -25 -96 -65 -117l-12 15c32 18 50 54 50 96c0 27 -11 45 -20 54z" />
    <glyph glyph-name="circumflex" unicode="&#x2c6;" horiz-adv-x="366" 
d="M186 708l120 -131l-15 -18l-107 114l-108 -113l-16 17l122 131h4z" />
    <glyph glyph-name="caron" unicode="&#x2c7;" horiz-adv-x="367" 
d="M182 560l-122 131l16 18l108 -119l107 118l16 -17l-121 -131h-4z" />
    <glyph glyph-name="breve" unicode="&#x2d8;" horiz-adv-x="386" 
d="M60 665l14 15c20 -24 57 -67 121 -67c55 0 93 34 119 67l12 -15c-27 -36 -66 -77 -132 -77c-75 0 -118 52 -134 77z" />
    <glyph glyph-name="dotaccent" unicode="&#x2d9;" horiz-adv-x="164" 
d="M60 629c0 12 11 22 23 22c11 0 21 -10 21 -22c0 -13 -10 -23 -21 -23c-12 0 -23 10 -23 23z" />
    <glyph glyph-name="ring" unicode="&#x2da;" horiz-adv-x="317" 
d="M60 614c0 54 43 98 98 98s99 -44 99 -98c0 -53 -44 -96 -99 -96s-98 43 -98 96zM81 615c0 -44 33 -78 77 -78c43 0 78 34 78 78c0 43 -35 78 -78 78c-44 0 -77 -35 -77 -78z" />
    <glyph glyph-name="ogonek" unicode="&#x2db;" horiz-adv-x="287" 
d="M218 -167l9 -19c-17 -9 -41 -14 -61 -14c-43 0 -106 19 -106 91c0 74 85 121 162 121v-12c-65 0 -134 -42 -134 -103c0 -59 56 -73 83 -73c12 0 30 1 47 9z" />
    <glyph glyph-name="tilde" unicode="&#x2dc;" horiz-adv-x="410" 
d="M73 586l-13 15c38 34 68 46 93 46c47 0 68 -48 109 -48c21 0 43 11 76 41l12 -16c-37 -36 -67 -49 -91 -49c-44 0 -65 47 -110 47c-20 0 -44 -10 -76 -36z" />
    <glyph glyph-name="hungarumlaut" unicode="&#x2dd;" horiz-adv-x="395" 
d="M335 692l-113 -140l-18 12l111 145zM188 695l-110 -143l-18 12l108 146z" />
    <glyph glyph-name="gravecomb" unicode="&#x300;" horiz-adv-x="0" 
d="M-257 552l-112 141l21 17l109 -146z" />
    <glyph glyph-name="acutecomb" unicode="&#x301;" horiz-adv-x="0" 
d="M-172 693l-112 -141l-18 12l109 146z" />
    <glyph glyph-name="uni0394" unicode="&#x394;" horiz-adv-x="704" 
d="M37 0l303 708h16l310 -708h-629zM348 656l-267 -628h541z" />
    <glyph glyph-name="uni0394" unicode="&#x2206;" horiz-adv-x="704" 
d="M37 0l303 708h16l310 -708h-629zM348 656l-267 -628h541z" />
    <glyph glyph-name="uni03A9" unicode="&#x3a9;" horiz-adv-x="807" 
d="M90 0v28h187c-125 42 -218 169 -218 327c0 203 151 354 345 354c195 0 344 -151 344 -354c0 -159 -93 -285 -219 -327h188v-28h-246v28c145 33 246 163 246 324c0 185 -133 328 -313 328c-181 0 -314 -143 -314 -329c0 -158 100 -291 245 -323v-28h-245z" />
    <glyph glyph-name="uni03A9" unicode="&#x2126;" horiz-adv-x="807" 
d="M90 0v28h187c-125 42 -218 169 -218 327c0 203 151 354 345 354c195 0 344 -151 344 -354c0 -159 -93 -285 -219 -327h188v-28h-246v28c145 33 246 163 246 324c0 185 -133 328 -313 328c-181 0 -314 -143 -314 -329c0 -158 100 -291 245 -323v-28h-245z" />
    <glyph glyph-name="pi" unicode="&#x3c0;" horiz-adv-x="647" 
d="M54 423v27h538v-27h-109v-307c0 -66 10 -93 53 -93c22 0 49 11 64 23l9 -23c-19 -14 -50 -27 -81 -27c-50 0 -73 30 -73 100v327h-264v-84c0 -277 -60 -341 -152 -341l-2 28c76 0 125 64 126 303v94h-109z" />
    <glyph glyph-name="afii10023" unicode="&#x401;" horiz-adv-x="575" 
d="M116 0v700h380v-28h-350v-302h320v-28h-320v-314h360v-28h-390zM168 796c0 13 11 21 24 21c12 0 23 -8 23 -21c0 -14 -11 -22 -23 -22c-13 0 -24 8 -24 22zM402 796c0 13 11 21 24 21c11 0 22 -8 22 -21c0 -14 -11 -22 -22 -22c-13 0 -24 8 -24 22z" />
    <glyph glyph-name="afii10051" unicode="&#x402;" horiz-adv-x="758" 
d="M701 205c0 -156 -71 -214 -165 -214c-38 0 -76 20 -86 29l12 23c16 -12 44 -23 72 -23c81 0 137 53 137 184c0 134 -64 191 -182 191c-90 0 -139 -40 -179 -64v-331h-29v672h-271v28h571v-28h-271v-313c41 28 96 64 185 64c119 0 206 -57 206 -218z" />
    <glyph glyph-name="afii10052" unicode="&#x403;" horiz-adv-x="501" 
d="M116 0v700h383v-28h-353v-672h-30zM443 829l-167 -89l-9 18l165 94z" />
    <glyph glyph-name="afii10053" unicode="&#x404;" horiz-adv-x="682" 
d="M479 371v-28h-392c3 -195 137 -323 329 -323c79 0 143 23 206 68l14 -24c-66 -48 -135 -73 -223 -73c-211 0 -356 143 -356 359c0 206 137 359 350 359c77 0 161 -21 214 -68l-15 -21c-55 43 -124 60 -195 60c-191 0 -315 -129 -324 -309h392z" />
    <glyph glyph-name="afii10054" unicode="&#x405;" horiz-adv-x="543" 
d="M455 170c0 220 -379 134 -379 370c0 95 72 169 200 169c75 0 146 -28 184 -71l-17 -21c-42 43 -101 63 -168 63c-103 0 -168 -56 -168 -140c0 -216 379 -123 379 -369c0 -110 -97 -180 -219 -180c-80 0 -174 39 -210 99l19 20c42 -57 123 -90 189 -90
c97 0 190 50 190 150z" />
    <glyph glyph-name="afii10055" unicode="&#x406;" horiz-adv-x="316" 
d="M143 0v700h30v-700h-30z" />
    <glyph glyph-name="afii10056" unicode="&#x407;" horiz-adv-x="316" 
d="M67 796c0 12 11 21 23 21c10 0 20 -9 20 -21c0 -13 -10 -22 -20 -22c-12 0 -23 9 -23 22zM207 796c0 12 10 21 22 21c11 0 21 -9 21 -21c0 -13 -10 -22 -21 -22c-12 0 -22 9 -22 22zM143 0v700h30v-700h-30z" />
    <glyph glyph-name="afii10057" unicode="&#x408;" horiz-adv-x="350" 
d="M233 700v-550c0 -95 -28 -159 -129 -159c-36 0 -69 14 -87 29l12 23c16 -12 44 -23 72 -23c87 0 103 60 103 133v547h29z" />
    <glyph glyph-name="afii10058" unicode="&#x409;" horiz-adv-x="1041" 
d="M576 0v672h-328l-11 -132c-39 -501 -137 -544 -208 -540v29c44 -1 145 26 181 531l10 140h386v-290c47 4 86 5 116 5c178 0 261 -77 261 -201c0 -144 -104 -216 -269 -216c-52 0 -97 2 -138 2zM722 387c-31 0 -70 -1 -116 -6v-353c33 0 66 -2 112 -2
c152 0 235 65 235 189c0 108 -78 172 -231 172z" />
    <glyph glyph-name="afii10059" unicode="&#x40a;" horiz-adv-x="1082" 
d="M116 0v700h30v-303h471v303h29v-302c48 4 87 6 117 6c178 0 261 -73 261 -195c0 -143 -104 -211 -269 -211c-42 0 -79 2 -113 2h-25v369h-471v-369h-30zM646 370v-342c34 0 67 -2 113 -2c152 0 234 61 234 183c0 107 -77 167 -230 167c-31 0 -70 -1 -117 -6z" />
    <glyph glyph-name="afii10060" unicode="&#x40b;" horiz-adv-x="758" 
d="M10 672v28h571v-28h-271v-314c38 29 105 65 194 65c118 0 197 -66 197 -224v-199h-29v195c0 135 -64 200 -175 200c-90 0 -147 -40 -187 -65v-330h-29v672h-271z" />
    <glyph glyph-name="afii10061" unicode="&#x40c;" horiz-adv-x="624" 
d="M577 700l-344 -333l356 -367h-43l-354 365l344 335h41zM116 0v700h30v-700h-30zM451 829l-167 -89l-9 18l165 94z" />
    <glyph glyph-name="afii10062" unicode="&#x40e;" horiz-adv-x="640" 
d="M621 700l-246 -544c-48 -107 -89 -156 -151 -156c-24 0 -51 6 -70 21l10 25c19 -13 39 -19 59 -19c50 0 84 48 110 103l15 30l-329 540h33l310 -511l229 511h30zM163 845h28c26 -42 75 -76 140 -76c63 0 120 32 137 76h28c-16 -58 -90 -99 -165 -99
c-81 0 -146 43 -168 99z" />
    <glyph glyph-name="afii10145" unicode="&#x40f;" horiz-adv-x="761" 
d="M116 0v700h30v-672h469v672h30v-700h-251v-159h-28v159h-250z" />
    <glyph glyph-name="afii10017" unicode="&#x410;" horiz-adv-x="690" 
d="M26 0l308 707h22l308 -707h-32l-113 260h-350l-112 -260h-31zM344 663l-163 -375h326z" />
    <glyph glyph-name="afii10018" unicode="&#x411;" horiz-adv-x="608" 
d="M116 0v700h377v-28h-347v-268c46 4 97 6 127 6c174 0 258 -76 258 -198c0 -144 -103 -214 -267 -214c-54 0 -107 2 -148 2zM273 382c-32 0 -80 -1 -127 -6v-348c34 0 76 -2 122 -2c152 0 233 65 233 185c0 105 -75 171 -228 171z" />
    <glyph glyph-name="afii10019" unicode="&#x412;" horiz-adv-x="617" 
d="M116 0v700c39 0 120 2 177 2c167 0 218 -75 218 -172c0 -98 -72 -153 -150 -166v-2c114 -11 179 -70 179 -170c0 -138 -106 -194 -246 -194c-57 0 -137 2 -178 2zM296 346h-150v-318c32 0 100 -2 148 -2c134 0 216 54 216 168c0 96 -76 152 -214 152zM291 674
c-48 0 -114 -1 -145 -2v-299h156c98 0 179 58 179 153c0 96 -57 148 -190 148z" />
    <glyph glyph-name="afii10020" unicode="&#x413;" horiz-adv-x="501" 
d="M116 0v700h383v-28h-353v-672h-30z" />
    <glyph glyph-name="afii10021" unicode="&#x414;" horiz-adv-x="738" 
d="M19 -137v165h75c30 37 106 193 125 532l8 140h378v-672h95v-165h-28v137h-625v-137h-28zM247 542c-20 -330 -93 -482 -120 -514h449v644h-320z" />
    <glyph glyph-name="afii10022" unicode="&#x415;" horiz-adv-x="575" 
d="M116 0v700h380v-28h-350v-302h320v-28h-320v-314h360v-28h-390z" />
    <glyph glyph-name="afii10024" unicode="&#x416;" horiz-adv-x="904" 
d="M859 700l-310 -334l321 -366h-40l-318 365l307 335h40zM437 0v700h30v-700h-30zM355 365l-309 335h39l307 -335l-318 -365h-39z" />
    <glyph glyph-name="afii10025" unicode="&#x417;" horiz-adv-x="569" 
d="M261 -9c-81 0 -177 43 -214 99l18 18c49 -57 135 -88 192 -88c126 0 205 70 205 178c0 90 -63 146 -159 146h-93v28h86c68 0 139 69 139 159c0 100 -72 149 -164 149c-86 0 -140 -32 -186 -81l-18 17c47 59 122 93 203 93c118 0 194 -66 194 -178
c0 -66 -39 -139 -111 -168v-3c87 -9 138 -84 138 -164c0 -129 -100 -205 -230 -205z" />
    <glyph glyph-name="afii10026" unicode="&#x418;" horiz-adv-x="799" 
d="M143 0h-27v700h30v-653l510 653h27v-700h-30v652z" />
    <glyph glyph-name="afii10027" unicode="&#x419;" horiz-adv-x="799" 
d="M143 0h-27v700h30v-653l510 653h27v-700h-30v652zM230 845h28c26 -42 75 -76 140 -76c63 0 120 32 137 76h28c-16 -58 -90 -99 -165 -99c-81 0 -146 43 -168 99z" />
    <glyph glyph-name="afii10028" unicode="&#x41a;" horiz-adv-x="624" 
d="M577 700l-344 -333l356 -367h-43l-354 365l344 335h41zM116 0v700h30v-700h-30z" />
    <glyph glyph-name="afii10029" unicode="&#x41b;" horiz-adv-x="722" 
d="M576 0v672h-328l-11 -132c-39 -501 -137 -544 -208 -540v29c44 -1 145 26 181 531l10 140h386v-700h-30z" />
    <glyph glyph-name="afii10030" unicode="&#x41c;" horiz-adv-x="877" 
d="M116 0v700h31l297 -405l288 405h29v-700h-29v655l-287 -404h-5l-294 401v-652h-30z" />
    <glyph glyph-name="afii10031" unicode="&#x41d;" horiz-adv-x="772" 
d="M627 0v343h-481v-343h-30v700h30v-329h481v329h29v-700h-29z" />
    <glyph glyph-name="afii10032" unicode="&#x41e;" horiz-adv-x="807" 
d="M57 350c0 203 149 359 346 359c196 0 346 -153 346 -359c0 -204 -150 -359 -346 -359c-195 0 -346 153 -346 359zM88 350c0 -188 137 -330 315 -330c181 0 315 142 315 330c0 189 -136 330 -315 330c-178 0 -315 -141 -315 -330z" />
    <glyph glyph-name="afii10033" unicode="&#x41f;" horiz-adv-x="771" 
d="M625 0v672h-479v-672h-30v700h539v-700h-30z" />
    <glyph glyph-name="afii10034" unicode="&#x420;" horiz-adv-x="575" 
d="M146 0h-30v700c39 0 124 2 160 2c191 0 241 -106 241 -206c0 -105 -69 -209 -246 -209c-37 0 -82 2 -125 5v-292zM279 674c-34 0 -100 -1 -133 -2v-352c43 -3 80 -5 123 -5c148 0 218 79 218 182c0 99 -58 177 -208 177z" />
    <glyph glyph-name="afii10035" unicode="&#x421;" horiz-adv-x="657" 
d="M606 90l13 -23c-49 -48 -134 -76 -215 -76c-205 0 -347 141 -347 359c0 201 134 359 338 359c87 0 156 -20 211 -65l-15 -21c-52 41 -116 57 -195 57c-185 0 -308 -143 -308 -330c0 -199 131 -330 318 -330c81 0 151 28 200 70z" />
    <glyph glyph-name="afii10036" unicode="&#x422;" horiz-adv-x="591" 
d="M10 672v28h571v-28h-271v-672h-29v672h-271z" />
    <glyph glyph-name="afii10037" unicode="&#x423;" horiz-adv-x="640" 
d="M621 700l-246 -544c-48 -107 -89 -156 -151 -156c-24 0 -51 6 -70 21l10 25c19 -13 39 -19 59 -19c50 0 84 48 110 103l15 30l-329 540h33l310 -511l229 511h30z" />
    <glyph glyph-name="afii10038" unicode="&#x424;" horiz-adv-x="827" 
d="M398 -8v91h-9c-201 0 -342 100 -342 277s137 277 346 277h5v71h29v-71h5c214 0 347 -102 347 -277c0 -176 -141 -277 -342 -277h-10v-91h-29zM433 610h-6v-500h10c178 0 311 84 311 250c0 164 -127 250 -315 250zM78 360c0 -164 132 -250 312 -250h8v500h-6
c-185 0 -314 -88 -314 -250z" />
    <glyph glyph-name="afii10039" unicode="&#x425;" horiz-adv-x="657" 
d="M613 700l-265 -344l274 -356h-36l-258 333l-257 -333h-36l275 356l-264 344h36l247 -321l248 321h36z" />
    <glyph glyph-name="afii10040" unicode="&#x426;" horiz-adv-x="783" 
d="M116 0v700h30v-672h474v672h30v-672h95v-165h-28v137h-601z" />
    <glyph glyph-name="afii10041" unicode="&#x427;" horiz-adv-x="624" 
d="M508 700v-700h-30v334c-41 -28 -122 -64 -210 -64c-118 0 -207 67 -207 224v206h30v-202c0 -134 73 -199 184 -199c88 0 163 38 203 64v337h30z" />
    <glyph glyph-name="afii10042" unicode="&#x428;" horiz-adv-x="991" 
d="M116 0v700h29v-672h336v672h29v-672h336v672h29v-700h-759z" />
    <glyph glyph-name="afii10043" unicode="&#x429;" horiz-adv-x="1008" 
d="M116 0v700h29v-672h336v672h29v-672h336v672h29v-672h95v-165h-28v137h-826z" />
    <glyph glyph-name="afii10044" unicode="&#x42a;" horiz-adv-x="664" 
d="M1 672v28h217v-290c47 4 95 5 125 5c180 0 263 -77 263 -201c0 -144 -104 -216 -271 -216c-52 0 -106 2 -147 2v672h-187zM343 387c-31 0 -78 -1 -125 -6v-353c33 0 75 -2 121 -2c152 0 236 64 236 189c0 108 -79 172 -232 172z" />
    <glyph glyph-name="afii10045" unicode="&#x42b;" horiz-adv-x="815" 
d="M670 0v700h29v-700h-29zM262 387c-31 0 -69 -1 -116 -6v-353c33 0 66 -2 112 -2c152 0 235 65 235 189c0 108 -78 172 -231 172zM146 700v-290c47 4 87 5 116 5c178 0 261 -77 261 -201c0 -144 -104 -216 -268 -216c-52 0 -98 2 -139 2v700h30z" />
    <glyph glyph-name="afii10046" unicode="&#x42c;" horiz-adv-x="591" 
d="M271 387c-31 0 -78 -1 -125 -6v-353c33 0 75 -2 121 -2c152 0 236 64 236 189c0 108 -79 172 -232 172zM146 700v-290c47 4 95 5 125 5c179 0 262 -77 262 -201c0 -144 -104 -216 -270 -216c-52 0 -106 2 -147 2v700h30z" />
    <glyph glyph-name="afii10047" unicode="&#x42d;" horiz-adv-x="683" 
d="M203 343v28h392c-8 190 -133 309 -325 309c-71 0 -140 -17 -195 -60l-13 21c53 47 136 68 213 68c213 0 350 -138 350 -356c0 -204 -137 -362 -347 -362c-88 0 -166 25 -232 73l15 24c64 -45 136 -68 215 -68c190 0 314 140 319 323h-392z" />
    <glyph glyph-name="afii10048" unicode="&#x42e;" horiz-adv-x="1074" 
d="M116 0v700h30v-329h200c10 192 146 338 334 338c196 0 336 -153 336 -359c0 -204 -140 -359 -336 -359c-191 0 -331 149 -334 352h-200v-343h-30zM376 350c0 -188 128 -330 305 -330c181 0 304 142 304 330c0 189 -126 330 -304 330c-177 0 -305 -141 -305 -330z" />
    <glyph glyph-name="afii10049" unicode="&#x42f;" horiz-adv-x="608" 
d="M463 0v286h-177l-214 -286h-36l220 290c-83 20 -164 94 -164 196c0 122 84 216 253 216c49 0 106 -2 147 -2v-700h-29zM280 314h183v358c-33 0 -78 2 -123 2c-150 0 -217 -86 -217 -188c0 -89 78 -160 157 -172z" />
    <glyph glyph-name="afii10065" unicode="&#x430;" horiz-adv-x="457" 
d="M91 394l-9 24c43 27 87 41 138 41c121 0 162 -66 162 -178v-281h-28v78c-30 -41 -78 -83 -167 -83c-84 0 -140 51 -140 129c0 90 74 137 171 137c37 0 94 -7 136 -37c0 125 -5 208 -137 208c-51 0 -83 -13 -126 -38zM193 22c90 0 132 47 161 85v90c-38 27 -83 40 -134 40
c-70 0 -143 -33 -143 -111c0 -66 51 -104 116 -104z" />
    <glyph glyph-name="afii10066" unicode="&#x431;" horiz-adv-x="558" 
d="M448 709l16 -18c-47 -78 -127 -39 -243 -89c-113 -47 -136 -184 -142 -289h2c32 85 119 136 208 136c137 0 217 -93 217 -228c0 -126 -96 -230 -224 -230c-138 0 -231 103 -231 275c0 110 12 301 163 363c116 48 188 12 234 80zM81 262c0 -158 87 -244 199 -244
s197 90 197 202c0 119 -71 202 -193 202c-118 0 -190 -85 -203 -160z" />
    <glyph glyph-name="afii10067" unicode="&#x432;" horiz-adv-x="479" 
d="M85 0v450c39 0 81 3 138 3c119 0 180 -34 180 -114c0 -49 -30 -96 -96 -105v-2c83 -11 115 -49 115 -111c0 -79 -65 -124 -196 -124c-56 0 -100 3 -141 3zM242 217h-128v-191c32 0 66 -2 112 -2c108 0 166 32 166 100c0 64 -52 93 -150 93zM224 426c-48 0 -81 -2 -110 -3
v-182h137c75 0 122 38 122 95c0 72 -68 90 -149 90z" />
    <glyph glyph-name="afii10068" unicode="&#x433;" horiz-adv-x="346" 
d="M85 0v450h260v-27h-231v-423h-29z" />
    <glyph glyph-name="afii10069" unicode="&#x434;" horiz-adv-x="513" 
d="M10 -117v144h55c27 33 67 132 77 289l7 134h270v-423h75v-144h-27v117h-430v-117h-27zM169 306c-10 -144 -50 -250 -74 -279h296v396h-215z" />
    <glyph glyph-name="afii10070" unicode="&#x435;" horiz-adv-x="527" 
d="M441 80l11 -21c-39 -45 -104 -68 -164 -68c-138 0 -236 92 -236 234c0 131 75 234 223 234c116 0 201 -80 201 -202c0 -12 -1 -22 -2 -31h-391c1 -128 82 -208 206 -208c63 0 119 26 152 62zM271 432c-116 0 -182 -78 -190 -182h366c1 112 -69 182 -176 182z" />
    <glyph glyph-name="afii10072" unicode="&#x436;" horiz-adv-x="635" 
d="M596 450l-191 -216l203 -234h-35l-201 234l189 216h35zM302 0v450h28v-450h-28zM227 234l-192 216h36l188 -216l-198 -234h-35z" />
    <glyph glyph-name="afii10073" unicode="&#x437;" horiz-adv-x="455" 
d="M215 -9c-54 0 -139 24 -169 60l15 22c38 -37 106 -55 149 -55c94 0 158 42 158 110c0 56 -46 89 -118 89h-76v24h71c55 0 104 43 104 99c0 59 -51 92 -130 92c-66 0 -111 -23 -145 -53l-13 21c37 38 98 59 162 59c101 0 155 -44 155 -116c0 -44 -23 -88 -83 -110v-2
c67 -5 102 -54 102 -106c0 -84 -76 -134 -182 -134z" />
    <glyph glyph-name="afii10074" unicode="&#x438;" horiz-adv-x="561" 
d="M114 0h-29v450h29v-409l334 409h28v-450h-28v409z" />
    <glyph glyph-name="afii10075" unicode="&#x439;" horiz-adv-x="561" 
d="M114 0h-29v450h29v-409l334 409h28v-450h-28v409zM157 687h25c0 -53 41 -93 105 -93c60 0 101 40 101 93h25c0 -67 -53 -117 -126 -117c-81 0 -130 49 -130 117z" />
    <glyph glyph-name="afii10076" unicode="&#x43a;" horiz-adv-x="472" 
d="M430 450l-241 -215l258 -235h-42l-254 234l239 216h40zM85 0v450h29v-450h-29z" />
    <glyph glyph-name="afii10077" unicode="&#x43b;" horiz-adv-x="523" 
d="M410 0v422h-217l-7 -118c-18 -271 -96 -306 -147 -306l-2 28c27 -1 107 25 121 284l8 140h272v-450h-28z" />
    <glyph glyph-name="afii10078" unicode="&#x43c;" horiz-adv-x="618" 
d="M85 0v450h28l200 -275l194 275h26v-450h-28v408l-192 -272h-3l-196 272v-408h-29z" />
    <glyph glyph-name="afii10079" unicode="&#x43d;" horiz-adv-x="555" 
d="M441 0v216h-327v-216h-29v450h29v-207h327v207h29v-450h-29z" />
    <glyph glyph-name="afii10080" unicode="&#x43e;" horiz-adv-x="569" 
d="M52 225c0 135 96 234 232 234c137 0 233 -99 233 -234s-96 -234 -233 -234c-136 0 -232 99 -232 234zM81 225c0 -121 84 -207 203 -207s203 86 203 207s-84 207 -203 207c-118 0 -203 -86 -203 -207z" />
    <glyph glyph-name="afii10081" unicode="&#x43f;" horiz-adv-x="550" 
d="M436 0v423h-322v-423h-29v450h380v-450h-29z" />
    <glyph glyph-name="afii10082" unicode="&#x440;" horiz-adv-x="552" 
d="M85 -200v650h29v-66c36 43 106 75 173 75c134 0 214 -94 214 -227c0 -137 -91 -241 -229 -241c-61 0 -117 14 -158 45v-236h-29zM281 432c-71 0 -138 -38 -167 -76v-290c52 -37 105 -48 157 -48c119 0 200 87 200 211c0 121 -69 203 -190 203z" />
    <glyph glyph-name="afii10083" unicode="&#x441;" horiz-adv-x="491" 
d="M439 83l14 -19c-38 -48 -103 -73 -166 -73c-137 0 -235 92 -235 234c0 131 96 234 220 234c68 0 129 -15 172 -55l-14 -23c-42 37 -96 51 -153 51c-107 0 -196 -89 -196 -207c0 -127 89 -207 208 -207c61 0 117 27 150 65z" />
    <glyph glyph-name="afii10084" unicode="&#x442;" horiz-adv-x="433" 
d="M11 422v28h410v-28h-191v-422h-28v422h-191z" />
    <glyph glyph-name="afii10085" unicode="&#x443;" horiz-adv-x="472" 
d="M455 450l-184 -450c-66 -161 -108 -200 -167 -200c-24 0 -46 7 -70 19l10 22c20 -9 38 -15 56 -15c51 0 90 42 134 150l10 24l-227 450h33l173 -345c13 -25 24 -48 35 -73c9 25 19 50 29 75l136 343h32z" />
    <glyph glyph-name="afii10086" unicode="&#x444;" horiz-adv-x="656" 
d="M314 -200v191h-18c-152 0 -244 100 -244 234c0 122 91 234 243 234h19v241h28v-241h21c142 0 242 -102 242 -234c0 -134 -92 -234 -242 -234h-21v-191h-28zM81 225c0 -120 81 -207 218 -207h15v414h-20c-131 0 -213 -92 -213 -207zM363 432h-21v-414h17
c136 0 216 87 216 207c0 108 -79 207 -212 207z" />
    <glyph glyph-name="afii10087" unicode="&#x445;" horiz-adv-x="485" 
d="M439 450l-177 -218l187 -232h-35l-172 212l-172 -212h-34l187 231l-177 219h35l161 -200l163 200h34z" />
    <glyph glyph-name="afii10088" unicode="&#x446;" horiz-adv-x="557" 
d="M85 0v450h29v-423h321v423h28v-423h75v-144h-27v117h-426z" />
    <glyph glyph-name="afii10089" unicode="&#x447;" horiz-adv-x="469" 
d="M384 450v-450h-28v203c-32 -24 -84 -43 -144 -43c-97 0 -156 48 -156 167v123h30v-123c0 -95 48 -140 134 -140c65 0 112 24 136 43v220h28z" />
    <glyph glyph-name="afii10090" unicode="&#x448;" horiz-adv-x="696" 
d="M85 0v450h28v-423h221v423h28v-423h221v423h28v-450h-526z" />
    <glyph glyph-name="afii10091" unicode="&#x449;" horiz-adv-x="705" 
d="M85 0v450h28v-423h221v423h28v-423h221v423h28v-423h75v-144h-27v117h-574z" />
    <glyph glyph-name="afii10092" unicode="&#x44a;" horiz-adv-x="492" 
d="M1 423v27h176v-165h91c138 0 178 -62 178 -142c0 -79 -44 -143 -183 -143h-114v423h-148zM264 258h-87v-231h86c115 0 153 44 153 116s-41 115 -152 115z" />
    <glyph glyph-name="afii10093" unicode="&#x44b;" horiz-adv-x="603" 
d="M85 0v450h29v-165h81c138 0 178 -62 178 -142c0 -79 -44 -143 -183 -143h-105zM191 258h-77v-231h76c115 0 154 44 154 116s-42 115 -153 115zM490 0v450h28v-450h-28z" />
    <glyph glyph-name="afii10094" unicode="&#x44c;" horiz-adv-x="428" 
d="M85 0v450h29v-165h90c138 0 178 -62 178 -142c0 -79 -43 -143 -182 -143h-115zM200 258h-86v-231h85c115 0 154 44 154 116s-41 115 -153 115z" />
    <glyph glyph-name="afii10095" unicode="&#x44d;" horiz-adv-x="491" 
d="M160 217v25h250c-7 119 -92 190 -206 190c-62 0 -118 -26 -152 -63l-13 20c39 46 105 70 165 70c137 0 235 -92 235 -234c0 -131 -96 -234 -220 -234c-68 0 -130 14 -173 55l14 22c40 -36 98 -50 156 -50c106 0 191 83 195 199h-251z" />
    <glyph glyph-name="afii10096" unicode="&#x44e;" horiz-adv-x="742" 
d="M85 0v450h30v-206h128c8 125 97 215 223 215c132 0 224 -99 224 -234s-93 -234 -224 -234c-129 0 -219 94 -223 225h-128v-216h-30zM274 225c0 -121 79 -205 192 -205c114 0 193 84 193 205c0 120 -78 205 -193 205c-113 0 -192 -85 -192 -205z" />
    <glyph glyph-name="afii10097" unicode="&#x44f;" horiz-adv-x="473" 
d="M260 450h128v-450h-28v183h-133l-145 -183h-36l152 189c-59 7 -117 53 -117 125c0 73 44 136 179 136zM110 314c0 -66 65 -104 109 -104h141v213h-105c-105 0 -145 -49 -145 -109z" />
    <glyph glyph-name="afii10071" unicode="&#x451;" horiz-adv-x="527" 
d="M441 80l11 -21c-39 -45 -104 -68 -164 -68c-138 0 -236 92 -236 234c0 131 75 234 223 234c116 0 201 -80 201 -202c0 -12 -1 -22 -2 -31h-391c1 -128 82 -208 206 -208c63 0 119 26 152 62zM271 432c-116 0 -182 -78 -190 -182h366c1 112 -69 182 -176 182zM140 626
c0 11 10 21 22 21c10 0 20 -10 20 -21c0 -14 -10 -23 -20 -23c-12 0 -22 9 -22 23zM351 626c0 11 10 21 22 21c11 0 21 -10 21 -21c0 -14 -10 -23 -21 -23c-12 0 -22 9 -22 23z" />
    <glyph glyph-name="afii10099" unicode="&#x452;" horiz-adv-x="606" 
d="M1 501v24h149v175h28v-175h213v-24h-213v-201c37 42 108 75 174 75c126 0 190 -63 190 -203c0 -138 -53 -299 -184 -372h-34c146 86 189 239 189 364s-53 184 -166 184c-71 0 -140 -40 -169 -78v-270h-28v501h-149z" />
    <glyph glyph-name="afii10100" unicode="&#x453;" horiz-adv-x="346" 
d="M85 0v450h260v-27h-231v-423h-29zM322 693l-112 -141l-18 12l109 146z" />
    <glyph glyph-name="afii10101" unicode="&#x454;" horiz-adv-x="491" 
d="M331 242v-25h-251c3 -126 92 -199 208 -199c47 0 104 14 144 50l13 -22c-43 -41 -105 -55 -163 -55c-134 0 -230 96 -230 234c0 142 98 234 235 234c60 0 126 -24 165 -70l-13 -20c-34 37 -90 63 -152 63c-114 0 -199 -71 -207 -190h251z" />
    <glyph glyph-name="afii10102" unicode="&#x455;" horiz-adv-x="409" 
d="M323 114c0 132 -254 67 -254 232c0 66 53 113 137 113c54 0 104 -21 129 -48l-14 -21c-27 28 -70 43 -116 43c-66 0 -107 -40 -107 -86c0 -140 254 -75 254 -231c0 -85 -70 -125 -151 -125c-56 0 -124 30 -145 62l18 18c24 -33 83 -54 128 -54c61 0 121 31 121 97z" />
    <glyph glyph-name="afii10103" unicode="&#x456;" horiz-adv-x="255" 
d="M113 0v450h28v-450h-28zM105 629c0 12 11 22 23 22c11 0 21 -10 21 -22c0 -13 -10 -23 -21 -23c-12 0 -23 10 -23 23z" />
    <glyph glyph-name="afii10104" unicode="&#x457;" horiz-adv-x="261" 
d="M51 625c0 11 9 20 21 20c9 0 19 -9 19 -20c0 -12 -10 -21 -19 -21c-12 0 -21 9 -21 21zM171 625c0 11 10 20 21 20c10 0 20 -9 20 -20c0 -12 -10 -21 -20 -21c-11 0 -21 9 -21 21zM116 0v450h28v-450h-28z" />
    <glyph glyph-name="afii10105" unicode="&#x458;" horiz-adv-x="255" 
d="M143 450v-483c0 -110 -41 -175 -141 -175c-35 0 -67 13 -85 26l10 23c16 -11 43 -22 71 -22c84 0 117 54 117 149v482h28zM106 629c0 12 11 22 23 22c11 0 21 -10 21 -22c0 -13 -10 -23 -21 -23c-12 0 -23 10 -23 23z" />
    <glyph glyph-name="afii10106" unicode="&#x459;" horiz-adv-x="741" 
d="M410 0v422h-217l-7 -118c-18 -271 -96 -306 -147 -306l-2 28c27 -1 107 25 121 284l8 140h272v-165h79c138 0 178 -62 178 -142c0 -79 -44 -143 -183 -143h-102zM513 258h-75v-231h74c115 0 154 44 154 116s-42 115 -153 115z" />
    <glyph glyph-name="afii10107" unicode="&#x45a;" horiz-adv-x="773" 
d="M85 0v450h29v-190h327v190h29v-182h79c138 0 178 -54 178 -134c0 -79 -44 -134 -183 -134h-103v233h-327v-233h-29zM545 241h-75v-214h74c115 0 153 36 153 107c0 72 -41 107 -152 107z" />
    <glyph glyph-name="afii10108" unicode="&#x45b;" horiz-adv-x="606" 
d="M1 501v24h149v175h28v-175h213v-24h-213v-201c37 42 108 75 174 75c126 0 190 -63 190 -204v-171h-29v166c0 123 -53 182 -166 182c-71 0 -140 -40 -169 -78v-270h-28v501h-149z" />
    <glyph glyph-name="afii10109" unicode="&#x45c;" horiz-adv-x="472" 
d="M430 450l-241 -215l258 -235h-42l-254 234l239 216h40zM85 0v450h29v-450h-29zM339 693l-112 -141l-18 12l109 146z" />
    <glyph glyph-name="afii10110" unicode="&#x45e;" horiz-adv-x="472" 
d="M455 450l-184 -450c-66 -161 -108 -200 -167 -200c-24 0 -46 7 -70 19l10 22c20 -9 38 -15 56 -15c51 0 90 42 134 150l10 24l-227 450h33l173 -345c13 -25 24 -48 35 -73c9 25 19 50 29 75l136 343h32zM114 687h25c0 -53 41 -93 105 -93c60 0 101 40 101 93h25
c0 -67 -53 -117 -126 -117c-81 0 -130 49 -130 117z" />
    <glyph glyph-name="afii10193" unicode="&#x45f;" horiz-adv-x="540" 
d="M85 0v450h29v-423h312v423h29v-450h-172v-136h-26v136h-172z" />
    <glyph glyph-name="afii10146" unicode="&#x462;" horiz-adv-x="626" 
d="M180 700v-130h173v-28h-173v-138c48 4 96 6 126 6c179 0 262 -75 262 -198c0 -144 -104 -214 -270 -214c-52 0 -106 2 -147 2v542h-148v28h148v130h29zM306 382c-31 0 -79 -1 -126 -6v-348c34 0 76 -2 121 -2c152 0 236 62 236 186c0 109 -78 170 -231 170z" />
    <glyph glyph-name="afii10194" unicode="&#x463;" horiz-adv-x="491" 
d="M1 423v27h148v250h28v-250h168v-27h-168v-145h90c138 0 178 -60 178 -140c0 -79 -44 -138 -182 -138h-114v423h-148zM267 251h-90v-224h89c113 0 150 44 150 112c0 69 -40 112 -149 112z" />
    <glyph glyph-name="afii10147" unicode="&#x472;" horiz-adv-x="807" 
d="M57 350c0 203 149 359 346 359c196 0 346 -153 346 -359c0 -204 -150 -359 -346 -359c-195 0 -346 153 -346 359zM263 385c-65 0 -137 -42 -173 -76c18 -167 148 -289 313 -289c181 0 315 142 315 330c0 2 -1 4 -1 7c-41 -32 -105 -64 -165 -64c-123 0 -169 92 -289 92z
M88 350v-8c44 36 110 70 177 70c123 0 173 -92 289 -92c61 0 127 36 162 67c-17 170 -146 293 -313 293c-178 0 -315 -141 -315 -330z" />
    <glyph glyph-name="afii10195" unicode="&#x473;" horiz-adv-x="569" 
d="M52 225c0 135 96 234 232 234c137 0 233 -99 233 -234s-96 -234 -233 -234c-136 0 -232 99 -232 234zM179 250c-31 0 -65 -12 -98 -41c7 -113 89 -191 203 -191c112 0 194 77 202 187c-30 -23 -61 -31 -88 -31c-79 0 -145 76 -219 76zM401 201c26 0 57 9 86 34
c-5 116 -88 197 -203 197c-113 0 -196 -79 -203 -192c35 26 70 37 100 37c81 0 145 -76 220 -76z" />
    <glyph glyph-name="afii10148" unicode="&#x474;" horiz-adv-x="655" 
d="M525 511l-184 -518h-19l-306 707h32l284 -658l174 499c57 163 98 178 169 156l-6 -27c-70 27 -96 -24 -144 -159z" />
    <glyph glyph-name="afii10196" unicode="&#x475;" horiz-adv-x="475" 
d="M381 318l-126 -325h-18l-221 457h33l154 -318c16 -31 29 -61 43 -93c13 33 24 64 36 97l78 200c46 122 78 133 135 111l-7 -26c-47 28 -72 -20 -107 -103z" />
    <glyph glyph-name="afii10050" unicode="&#x490;" horiz-adv-x="501" 
d="M116 0v700h354v136h29v-164h-353v-672h-30z" />
    <glyph glyph-name="afii10098" unicode="&#x491;" horiz-adv-x="346" 
d="M85 0v450h233v116h27v-143h-231v-423h-29z" />
    <glyph glyph-name="uni1E9E" unicode="&#x1e9e;" horiz-adv-x="600" 
d="M510 157c0 106 -108 193 -223 280l137 205c-24 19 -65 38 -118 38c-89 0 -160 -51 -160 -173v-510h-30v516c0 134 84 196 190 196c63 0 111 -20 157 -59l-140 -205c109 -79 218 -173 218 -291c0 -98 -79 -163 -159 -163c-72 0 -109 29 -143 60l17 21
c31 -26 61 -52 121 -52c63 0 133 51 133 137z" />
    <glyph glyph-name="uni2010" unicode="&#x2010;" horiz-adv-x="407" 
d="M93 257v27h221v-27h-221z" />
    <glyph glyph-name="uni2011" unicode="&#x2011;" horiz-adv-x="407" 
d="M93 257v27h221v-27h-221z" />
    <glyph glyph-name="figuredash" unicode="&#x2012;" horiz-adv-x="587" 
d="M97 341v26h392v-26h-392z" />
    <glyph glyph-name="endash" unicode="&#x2013;" horiz-adv-x="587" 
d="M97 257v26h392v-26h-392z" />
    <glyph glyph-name="emdash" unicode="&#x2014;" horiz-adv-x="789" 
d="M97 257v26h595v-26h-595z" />
    <glyph glyph-name="afii00208" unicode="&#x2015;" horiz-adv-x="789" 
d="M97 257v26h595v-26h-595z" />
    <glyph glyph-name="quoteleft" unicode="&#x2018;" horiz-adv-x="237" 
d="M137 554l-23 -16c-12 13 -23 35 -23 65c0 60 25 96 65 116l12 -15c-33 -18 -50 -53 -50 -95c0 -28 10 -46 19 -55z" />
    <glyph glyph-name="quoteright" unicode="&#x2019;" horiz-adv-x="237" 
d="M99 702l24 17c12 -13 23 -36 23 -65c0 -60 -25 -96 -65 -117l-12 15c32 18 50 54 50 96c0 27 -11 45 -20 54z" />
    <glyph glyph-name="quotesinglbase" unicode="&#x201a;" horiz-adv-x="237" 
d="M99 37l24 17c12 -13 23 -36 23 -65c0 -60 -25 -96 -65 -117l-12 15c32 18 50 54 50 96c0 27 -11 45 -20 54z" />
    <glyph glyph-name="quotedblleft" unicode="&#x201c;" horiz-adv-x="356" 
d="M256 554l-23 -16c-12 13 -23 35 -23 65c0 60 25 96 65 116l12 -15c-33 -18 -50 -53 -50 -95c0 -28 10 -46 19 -55zM137 554l-23 -16c-12 13 -23 35 -23 65c0 60 25 96 65 116l12 -15c-33 -18 -50 -53 -50 -95c0 -28 10 -46 19 -55z" />
    <glyph glyph-name="quotedblright" unicode="&#x201d;" horiz-adv-x="356" 
d="M218 702l24 17c12 -13 23 -36 23 -65c0 -60 -25 -96 -65 -117l-12 15c32 18 50 54 50 96c0 27 -11 45 -20 54zM99 702l24 17c12 -13 23 -36 23 -65c0 -60 -25 -96 -65 -117l-12 15c32 18 50 54 50 96c0 27 -11 45 -20 54z" />
    <glyph glyph-name="quotedblbase" unicode="&#x201e;" horiz-adv-x="356" 
d="M218 37l24 17c12 -13 23 -36 23 -65c0 -60 -25 -96 -65 -117l-12 15c32 18 50 54 50 96c0 27 -11 45 -20 54zM99 37l24 17c12 -13 23 -36 23 -65c0 -60 -25 -96 -65 -117l-12 15c32 18 50 54 50 96c0 27 -11 45 -20 54z" />
    <glyph glyph-name="dagger" unicode="&#x2020;" horiz-adv-x="411" 
d="M40 432v26h152v242h27v-242h152v-26h-152v-532h-27v532h-152z" />
    <glyph glyph-name="daggerdbl" unicode="&#x2021;" horiz-adv-x="411" 
d="M40 432v26h152v242h27v-242h152v-26h-152v-234h152v-26h-152v-272h-27v272h-152v26h152v234h-152z" />
    <glyph glyph-name="bullet" unicode="&#x2022;" horiz-adv-x="148" 
d="M37 261c0 20 17 37 37 37s37 -17 37 -37s-17 -37 -37 -37s-37 17 -37 37z" />
    <glyph glyph-name="ellipsis" unicode="&#x2026;" horiz-adv-x="832" 
d="M692 24c0 11 11 22 25 22c12 0 23 -11 23 -22c0 -13 -11 -25 -23 -25c-14 0 -25 12 -25 25zM392 24c0 11 11 22 25 22c12 0 23 -11 23 -22c0 -13 -11 -25 -23 -25c-14 0 -25 12 -25 25zM92 24c0 11 11 22 25 22c12 0 23 -11 23 -22c0 -13 -11 -25 -23 -25
c-14 0 -25 12 -25 25z" />
    <glyph glyph-name="perthousand" unicode="&#x2030;" horiz-adv-x="1233" 
d="M852 156c0 91 70 156 162 156s162 -65 162 -156c0 -92 -70 -157 -162 -157s-162 65 -162 157zM879 156c0 -80 66 -133 135 -133c72 0 135 53 135 133c0 79 -64 132 -135 132s-135 -53 -135 -132zM144 5l527 704l17 -13l-526 -705zM56 546c0 91 70 156 162 156
s162 -65 162 -156c0 -92 -70 -157 -162 -157s-162 65 -162 157zM83 546c0 -80 66 -133 135 -133c72 0 135 53 135 133c0 79 -64 132 -135 132s-135 -53 -135 -132zM446 156c0 91 70 156 162 156s162 -65 162 -156c0 -92 -70 -157 -162 -157s-162 65 -162 157zM473 156
c0 -80 66 -133 135 -133c72 0 135 53 135 133c0 79 -64 132 -135 132s-135 -53 -135 -132z" />
    <glyph glyph-name="guilsinglleft" unicode="&#x2039;" horiz-adv-x="325" 
d="M231 43l-175 205v4l176 203l19 -17l-163 -188l161 -189z" />
    <glyph glyph-name="guilsinglright" unicode="&#x203a;" horiz-adv-x="325" 
d="M268 248l-174 -205l-19 18l161 189l-163 188l19 17l176 -203v-4z" />
    <glyph glyph-name="fraction" unicode="&#x2044;" horiz-adv-x="184" 
d="M-180 5l527 704l17 -13l-526 -705z" />
    <glyph glyph-name="uni2070" unicode="&#x2070;" horiz-adv-x="363" 
d="M47 525c0 102 46 179 135 179s134 -78 134 -179s-44 -179 -133 -179c-90 0 -136 77 -136 179zM74 525c0 -93 39 -156 109 -156c73 0 106 63 106 156s-37 156 -107 156c-72 0 -108 -63 -108 -156z" />
    <glyph glyph-name="uni2074" unicode="&#x2074;" horiz-adv-x="323" 
d="M215 350v93h-196v16l189 241h25l-184 -235h166v110h24v-110h64v-22h-64v-93h-24z" />
    <glyph glyph-name="uni2075" unicode="&#x2075;" horiz-adv-x="322" 
d="M75 534l25 166h182v-22h-164l-19 -122c12 3 31 7 50 7c79 0 132 -42 132 -105c0 -70 -59 -112 -126 -112c-51 0 -98 16 -123 57l15 15c23 -35 66 -51 105 -51c58 0 102 38 102 90c0 48 -45 85 -116 85c-22 0 -46 -4 -63 -8z" />
    <glyph glyph-name="uni2076" unicode="&#x2076;" horiz-adv-x="359" 
d="M47 476c0 127 107 214 210 228l6 -18c-86 -14 -173 -77 -188 -185c16 34 57 64 117 64c77 0 124 -45 124 -109c0 -62 -58 -110 -125 -110c-98 0 -144 59 -144 130zM74 473c0 -53 38 -106 116 -106c54 0 99 40 99 88c0 49 -35 90 -104 90c-64 0 -102 -40 -111 -72z" />
    <glyph glyph-name="uni2077" unicode="&#x2077;" horiz-adv-x="289" 
d="M23 677v23h243v-15l-164 -335h-28l161 327h-212z" />
    <glyph glyph-name="uni2078" unicode="&#x2078;" horiz-adv-x="366" 
d="M173 540h21c40 0 83 30 83 71c0 46 -47 72 -94 72c-48 0 -93 -26 -93 -72c0 -41 43 -71 83 -71zM193 520h-17c-55 0 -102 -33 -102 -75c0 -46 51 -78 109 -78s109 30 109 78c0 47 -46 75 -99 75zM184 346c-71 0 -135 35 -135 95c0 41 33 78 88 88v2c-43 10 -73 46 -73 83
c0 55 53 90 119 90s120 -35 120 -90c0 -34 -27 -69 -75 -83v-1c53 -6 90 -41 90 -88c0 -61 -63 -96 -134 -96z" />
    <glyph glyph-name="uni2079" unicode="&#x2079;" horiz-adv-x="359" 
d="M312 572c0 -129 -94 -218 -219 -226l-3 18c110 13 191 91 194 185c-17 -35 -58 -65 -117 -65c-78 0 -125 46 -125 109s59 111 126 111c97 0 144 -59 144 -132zM285 575c0 55 -38 108 -117 108c-53 0 -99 -40 -99 -88c0 -49 36 -91 105 -91c63 0 101 40 111 71z" />
    <glyph glyph-name="uni207A" unicode="&#x207a;" horiz-adv-x="360" 
d="M49 519v22h119v119h22v-119h121v-22h-121v-120h-22v120h-119z" />
    <glyph glyph-name="uni207B" unicode="&#x207b;" horiz-adv-x="360" 
d="M49 519v22h262v-22h-262z" />
    <glyph glyph-name="uni207C" unicode="&#x207c;" horiz-adv-x="360" 
d="M49 456v22h262v-22h-262zM49 582v22h262v-22h-262z" />
    <glyph glyph-name="uni207D" unicode="&#x207d;" horiz-adv-x="180" 
d="M170 322l-16 -15c-90 52 -124 142 -124 216c0 73 35 154 125 215l14 -15c-80 -54 -113 -127 -113 -200c0 -74 35 -152 114 -201z" />
    <glyph glyph-name="uni207E" unicode="&#x207e;" horiz-adv-x="180" 
d="M10 723l16 15c90 -52 124 -142 124 -216c0 -73 -35 -154 -125 -215l-14 15c80 54 113 127 113 200c0 74 -36 152 -114 201z" />
    <glyph glyph-name="uni2080" unicode="&#x2080;" horiz-adv-x="363" 
d="M47 175c0 102 46 179 135 179s134 -78 134 -179s-44 -179 -133 -179c-90 0 -136 77 -136 179zM74 175c0 -93 39 -156 109 -156c73 0 106 63 106 156s-37 156 -107 156c-72 0 -108 -63 -108 -156z" />
    <glyph glyph-name="uni2081" unicode="&#x2081;" horiz-adv-x="228" 
d="M32 290l93 63h17v-353h-25v320l-74 -49z" />
    <glyph glyph-name="uni2082" unicode="&#x2082;" horiz-adv-x="330" 
d="M42 0v20c66 49 207 141 207 232c0 42 -27 79 -86 79c-38 0 -85 -21 -93 -68l-22 7c8 55 64 84 115 84c79 0 113 -48 113 -102c0 -102 -157 -202 -198 -229h218v-23h-254z" />
    <glyph glyph-name="uni2083" unicode="&#x2083;" horiz-adv-x="335" 
d="M160 -4c-50 0 -101 17 -124 64l17 13c19 -40 65 -55 106 -55c62 0 101 34 101 79c0 42 -40 71 -91 71h-38v21h34c40 0 80 32 80 74c0 46 -36 69 -87 69c-53 0 -82 -23 -96 -52l-15 14c16 37 58 60 114 60c69 0 111 -32 111 -87c0 -36 -25 -72 -70 -85v-1
c54 -6 85 -45 85 -86c0 -61 -55 -99 -127 -99z" />
    <glyph glyph-name="uni2084" unicode="&#x2084;" horiz-adv-x="323" 
d="M215 0v93h-196v16l189 241h25l-184 -235h166v110h24v-110h64v-22h-64v-93h-24z" />
    <glyph glyph-name="uni2085" unicode="&#x2085;" horiz-adv-x="322" 
d="M75 184l25 166h182v-22h-164l-19 -122c12 3 31 7 50 7c79 0 132 -42 132 -105c0 -70 -59 -112 -126 -112c-51 0 -98 16 -123 57l15 15c23 -35 66 -51 105 -51c58 0 102 38 102 90c0 48 -45 85 -116 85c-22 0 -46 -4 -63 -8z" />
    <glyph glyph-name="uni2086" unicode="&#x2086;" horiz-adv-x="359" 
d="M47 126c0 127 107 214 210 228l6 -18c-86 -14 -173 -77 -188 -185c16 34 57 64 117 64c77 0 124 -45 124 -109c0 -62 -58 -110 -125 -110c-98 0 -144 59 -144 130zM74 123c0 -53 38 -106 116 -106c54 0 99 40 99 88c0 49 -35 90 -104 90c-64 0 -102 -40 -111 -72z" />
    <glyph glyph-name="uni2087" unicode="&#x2087;" horiz-adv-x="289" 
d="M23 327v23h243v-15l-164 -335h-28l161 327h-212z" />
    <glyph glyph-name="uni2088" unicode="&#x2088;" horiz-adv-x="366" 
d="M173 190h21c40 0 83 30 83 71c0 46 -47 72 -94 72c-48 0 -93 -26 -93 -72c0 -41 43 -71 83 -71zM193 170h-17c-55 0 -102 -33 -102 -75c0 -46 51 -78 109 -78s109 30 109 78c0 47 -46 75 -99 75zM184 -4c-71 0 -135 35 -135 95c0 41 33 78 88 88v2c-43 10 -73 46 -73 83
c0 55 53 90 119 90s120 -35 120 -90c0 -34 -27 -69 -75 -83v-1c53 -6 90 -41 90 -88c0 -61 -63 -96 -134 -96z" />
    <glyph glyph-name="uni2089" unicode="&#x2089;" horiz-adv-x="359" 
d="M312 222c0 -129 -94 -218 -219 -226l-3 18c110 13 191 91 194 185c-17 -35 -58 -65 -117 -65c-78 0 -125 46 -125 109s59 111 126 111c97 0 144 -59 144 -132zM285 225c0 55 -38 108 -117 108c-53 0 -99 -40 -99 -88c0 -49 36 -91 105 -91c63 0 101 40 111 71z" />
    <glyph glyph-name="uni208A" unicode="&#x208a;" horiz-adv-x="360" 
d="M49 169v22h119v119h22v-119h121v-22h-121v-120h-22v120h-119z" />
    <glyph glyph-name="uni208B" unicode="&#x208b;" horiz-adv-x="360" 
d="M49 169v22h262v-22h-262z" />
    <glyph glyph-name="uni208C" unicode="&#x208c;" horiz-adv-x="360" 
d="M49 106v22h262v-22h-262zM49 232v22h262v-22h-262z" />
    <glyph glyph-name="uni208D" unicode="&#x208d;" horiz-adv-x="180" 
d="M170 -28l-16 -15c-90 52 -124 142 -124 216c0 73 35 154 125 215l14 -15c-80 -54 -113 -127 -113 -200c0 -74 35 -152 114 -201z" />
    <glyph glyph-name="uni208E" unicode="&#x208e;" horiz-adv-x="180" 
d="M10 373l16 15c90 -52 124 -142 124 -216c0 -73 -35 -154 -125 -215l-14 15c80 54 113 127 113 200c0 74 -36 152 -114 201z" />
    <glyph glyph-name="Euro" unicode="&#x20ac;" 
d="M20 428l10 25h76c38 149 158 256 324 256c50 0 108 -13 137 -29l-11 -27c-32 15 -74 27 -126 27c-147 0 -256 -93 -292 -227h366l-9 -25h-363c-5 -25 -7 -51 -7 -78c0 -21 1 -41 4 -60h332l-8 -24h-320c32 -151 149 -246 308 -246c49 0 85 8 111 23l6 -28
c-22 -15 -81 -24 -118 -24c-177 0 -307 105 -339 275h-81l10 24h67c-2 19 -3 39 -3 60c0 27 2 53 7 78h-81z" />
    <glyph glyph-name="uni20B4" unicode="&#x20b4;" horiz-adv-x="600" 
d="M80 429v24h325c25 31 41 66 36 111c0 71 -53 116 -133 116c-66 0 -117 -20 -158 -62l-16 21c38 43 100 70 172 70c107 0 169 -61 169 -146c0 -45 -16 -82 -41 -110h86v-24h-103c-56 -55 -142 -86 -200 -138h303v-24h-326c-28 -30 -48 -66 -48 -115
c0 -91 84 -132 165 -132c64 0 130 29 167 87l17 -20c-38 -62 -110 -96 -189 -96c-99 0 -188 56 -188 158c0 49 18 87 46 118h-84v24h103c57 54 143 86 200 138h-303z" />
    <glyph glyph-name="uni20B6" unicode="&#x20b6;" horiz-adv-x="600" 
d="M29 324v25h117v351c39 0 123 2 160 2c190 0 241 -88 241 -189c0 -105 -69 -189 -247 -189h-125v-138h188v-24h-188v-162h-29v162h-117v24h117v138h-117zM309 674c-34 0 -101 -1 -134 -2v-323h124c148 0 217 62 217 164c0 98 -57 161 -207 161z" />
    <glyph glyph-name="uni20B6" unicode="&#x20cf;" horiz-adv-x="600" 
d="M29 324v25h117v351c39 0 123 2 160 2c190 0 241 -88 241 -189c0 -105 -69 -189 -247 -189h-125v-138h188v-24h-188v-162h-29v162h-117v24h117v138h-117zM309 674c-34 0 -101 -1 -134 -2v-323h124c148 0 217 62 217 164c0 98 -57 161 -207 161z" />
    <glyph glyph-name="uni20B6" unicode="&#x20ce;" horiz-adv-x="600" 
d="M29 324v25h117v351c39 0 123 2 160 2c190 0 241 -88 241 -189c0 -105 -69 -189 -247 -189h-125v-138h188v-24h-188v-162h-29v162h-117v24h117v138h-117zM309 674c-34 0 -101 -1 -134 -2v-323h124c148 0 217 62 217 164c0 98 -57 161 -207 161z" />
    <glyph glyph-name="uni20B6" unicode="&#x20cd;" horiz-adv-x="600" 
d="M29 324v25h117v351c39 0 123 2 160 2c190 0 241 -88 241 -189c0 -105 -69 -189 -247 -189h-125v-138h188v-24h-188v-162h-29v162h-117v24h117v138h-117zM309 674c-34 0 -101 -1 -134 -2v-323h124c148 0 217 62 217 164c0 98 -57 161 -207 161z" />
    <glyph glyph-name="uni20B6" unicode="&#x20cc;" horiz-adv-x="600" 
d="M29 324v25h117v351c39 0 123 2 160 2c190 0 241 -88 241 -189c0 -105 -69 -189 -247 -189h-125v-138h188v-24h-188v-162h-29v162h-117v24h117v138h-117zM309 674c-34 0 -101 -1 -134 -2v-323h124c148 0 217 62 217 164c0 98 -57 161 -207 161z" />
    <glyph glyph-name="uni20B6" unicode="&#x20cb;" horiz-adv-x="600" 
d="M29 324v25h117v351c39 0 123 2 160 2c190 0 241 -88 241 -189c0 -105 -69 -189 -247 -189h-125v-138h188v-24h-188v-162h-29v162h-117v24h117v138h-117zM309 674c-34 0 -101 -1 -134 -2v-323h124c148 0 217 62 217 164c0 98 -57 161 -207 161z" />
    <glyph glyph-name="uni20B6" unicode="&#x20ca;" horiz-adv-x="600" 
d="M29 324v25h117v351c39 0 123 2 160 2c190 0 241 -88 241 -189c0 -105 -69 -189 -247 -189h-125v-138h188v-24h-188v-162h-29v162h-117v24h117v138h-117zM309 674c-34 0 -101 -1 -134 -2v-323h124c148 0 217 62 217 164c0 98 -57 161 -207 161z" />
    <glyph glyph-name="uni20B6" unicode="&#x20c9;" horiz-adv-x="600" 
d="M29 324v25h117v351c39 0 123 2 160 2c190 0 241 -88 241 -189c0 -105 -69 -189 -247 -189h-125v-138h188v-24h-188v-162h-29v162h-117v24h117v138h-117zM309 674c-34 0 -101 -1 -134 -2v-323h124c148 0 217 62 217 164c0 98 -57 161 -207 161z" />
    <glyph glyph-name="uni20B6" unicode="&#x20c8;" horiz-adv-x="600" 
d="M29 324v25h117v351c39 0 123 2 160 2c190 0 241 -88 241 -189c0 -105 -69 -189 -247 -189h-125v-138h188v-24h-188v-162h-29v162h-117v24h117v138h-117zM309 674c-34 0 -101 -1 -134 -2v-323h124c148 0 217 62 217 164c0 98 -57 161 -207 161z" />
    <glyph glyph-name="uni20B6" unicode="&#x20c7;" horiz-adv-x="600" 
d="M29 324v25h117v351c39 0 123 2 160 2c190 0 241 -88 241 -189c0 -105 -69 -189 -247 -189h-125v-138h188v-24h-188v-162h-29v162h-117v24h117v138h-117zM309 674c-34 0 -101 -1 -134 -2v-323h124c148 0 217 62 217 164c0 98 -57 161 -207 161z" />
    <glyph glyph-name="uni20B6" unicode="&#x20c6;" horiz-adv-x="600" 
d="M29 324v25h117v351c39 0 123 2 160 2c190 0 241 -88 241 -189c0 -105 -69 -189 -247 -189h-125v-138h188v-24h-188v-162h-29v162h-117v24h117v138h-117zM309 674c-34 0 -101 -1 -134 -2v-323h124c148 0 217 62 217 164c0 98 -57 161 -207 161z" />
    <glyph glyph-name="uni20B6" unicode="&#x20c5;" horiz-adv-x="600" 
d="M29 324v25h117v351c39 0 123 2 160 2c190 0 241 -88 241 -189c0 -105 -69 -189 -247 -189h-125v-138h188v-24h-188v-162h-29v162h-117v24h117v138h-117zM309 674c-34 0 -101 -1 -134 -2v-323h124c148 0 217 62 217 164c0 98 -57 161 -207 161z" />
    <glyph glyph-name="uni20B6" unicode="&#x20c4;" horiz-adv-x="600" 
d="M29 324v25h117v351c39 0 123 2 160 2c190 0 241 -88 241 -189c0 -105 -69 -189 -247 -189h-125v-138h188v-24h-188v-162h-29v162h-117v24h117v138h-117zM309 674c-34 0 -101 -1 -134 -2v-323h124c148 0 217 62 217 164c0 98 -57 161 -207 161z" />
    <glyph glyph-name="uni20B6" unicode="&#x20c3;" horiz-adv-x="600" 
d="M29 324v25h117v351c39 0 123 2 160 2c190 0 241 -88 241 -189c0 -105 -69 -189 -247 -189h-125v-138h188v-24h-188v-162h-29v162h-117v24h117v138h-117zM309 674c-34 0 -101 -1 -134 -2v-323h124c148 0 217 62 217 164c0 98 -57 161 -207 161z" />
    <glyph glyph-name="uni20B6" unicode="&#x20c2;" horiz-adv-x="600" 
d="M29 324v25h117v351c39 0 123 2 160 2c190 0 241 -88 241 -189c0 -105 -69 -189 -247 -189h-125v-138h188v-24h-188v-162h-29v162h-117v24h117v138h-117zM309 674c-34 0 -101 -1 -134 -2v-323h124c148 0 217 62 217 164c0 98 -57 161 -207 161z" />
    <glyph glyph-name="uni20B6" unicode="&#x20c1;" horiz-adv-x="600" 
d="M29 324v25h117v351c39 0 123 2 160 2c190 0 241 -88 241 -189c0 -105 -69 -189 -247 -189h-125v-138h188v-24h-188v-162h-29v162h-117v24h117v138h-117zM309 674c-34 0 -101 -1 -134 -2v-323h124c148 0 217 62 217 164c0 98 -57 161 -207 161z" />
    <glyph glyph-name="uni20B6" unicode="&#x20c0;" horiz-adv-x="600" 
d="M29 324v25h117v351c39 0 123 2 160 2c190 0 241 -88 241 -189c0 -105 -69 -189 -247 -189h-125v-138h188v-24h-188v-162h-29v162h-117v24h117v138h-117zM309 674c-34 0 -101 -1 -134 -2v-323h124c148 0 217 62 217 164c0 98 -57 161 -207 161z" />
    <glyph glyph-name="uni20B6" unicode="&#x20bf;" horiz-adv-x="600" 
d="M29 324v25h117v351c39 0 123 2 160 2c190 0 241 -88 241 -189c0 -105 -69 -189 -247 -189h-125v-138h188v-24h-188v-162h-29v162h-117v24h117v138h-117zM309 674c-34 0 -101 -1 -134 -2v-323h124c148 0 217 62 217 164c0 98 -57 161 -207 161z" />
    <glyph glyph-name="uni20B6" unicode="&#x20be;" horiz-adv-x="600" 
d="M29 324v25h117v351c39 0 123 2 160 2c190 0 241 -88 241 -189c0 -105 -69 -189 -247 -189h-125v-138h188v-24h-188v-162h-29v162h-117v24h117v138h-117zM309 674c-34 0 -101 -1 -134 -2v-323h124c148 0 217 62 217 164c0 98 -57 161 -207 161z" />
    <glyph glyph-name="uni20B6" unicode="&#x20bd;" horiz-adv-x="600" 
d="M29 324v25h117v351c39 0 123 2 160 2c190 0 241 -88 241 -189c0 -105 -69 -189 -247 -189h-125v-138h188v-24h-188v-162h-29v162h-117v24h117v138h-117zM309 674c-34 0 -101 -1 -134 -2v-323h124c148 0 217 62 217 164c0 98 -57 161 -207 161z" />
    <glyph glyph-name="uni20B6" unicode="&#x20bc;" horiz-adv-x="600" 
d="M29 324v25h117v351c39 0 123 2 160 2c190 0 241 -88 241 -189c0 -105 -69 -189 -247 -189h-125v-138h188v-24h-188v-162h-29v162h-117v24h117v138h-117zM309 674c-34 0 -101 -1 -134 -2v-323h124c148 0 217 62 217 164c0 98 -57 161 -207 161z" />
    <glyph glyph-name="uni20B6" unicode="&#x20bb;" horiz-adv-x="600" 
d="M29 324v25h117v351c39 0 123 2 160 2c190 0 241 -88 241 -189c0 -105 -69 -189 -247 -189h-125v-138h188v-24h-188v-162h-29v162h-117v24h117v138h-117zM309 674c-34 0 -101 -1 -134 -2v-323h124c148 0 217 62 217 164c0 98 -57 161 -207 161z" />
    <glyph glyph-name="uni20B6" unicode="&#x20ba;" horiz-adv-x="600" 
d="M29 324v25h117v351c39 0 123 2 160 2c190 0 241 -88 241 -189c0 -105 -69 -189 -247 -189h-125v-138h188v-24h-188v-162h-29v162h-117v24h117v138h-117zM309 674c-34 0 -101 -1 -134 -2v-323h124c148 0 217 62 217 164c0 98 -57 161 -207 161z" />
    <glyph glyph-name="uni20B6" unicode="&#x20b9;" horiz-adv-x="600" 
d="M29 324v25h117v351c39 0 123 2 160 2c190 0 241 -88 241 -189c0 -105 -69 -189 -247 -189h-125v-138h188v-24h-188v-162h-29v162h-117v24h117v138h-117zM309 674c-34 0 -101 -1 -134 -2v-323h124c148 0 217 62 217 164c0 98 -57 161 -207 161z" />
    <glyph glyph-name="uni20B6" unicode="&#x20b7;" horiz-adv-x="600" 
d="M29 324v25h117v351c39 0 123 2 160 2c190 0 241 -88 241 -189c0 -105 -69 -189 -247 -189h-125v-138h188v-24h-188v-162h-29v162h-117v24h117v138h-117zM309 674c-34 0 -101 -1 -134 -2v-323h124c148 0 217 62 217 164c0 98 -57 161 -207 161z" />
    <glyph glyph-name="afii61352" unicode="&#x2116;" horiz-adv-x="1157" 
d="M663 0h-24l-495 646v-646h-28v700h24l494 -648v648h29v-700zM755 502c0 91 70 156 162 156s162 -65 162 -156c0 -92 -70 -157 -162 -157s-162 65 -162 157zM782 502c0 -80 66 -133 135 -133c72 0 135 53 135 133c0 79 -64 132 -135 132s-135 -53 -135 -132zM786 244v27
h262v-27h-262z" />
    <glyph glyph-name="trademark" unicode="&#x2122;" horiz-adv-x="820" 
d="M383 385v315h26l153 -186l148 186h24v-315h-27v279l-145 -184h-2l-150 184v-279h-27zM11 674v26h311v-26h-142v-289h-27v289h-142z" />
    <glyph glyph-name="arrowleft" unicode="&#x2190;" horiz-adv-x="643" 
d="M323 555l20 -20l-248 -247h508v-28h-510l250 -250l-20 -20l-283 283z" />
    <glyph glyph-name="arrowup" unicode="&#x2191;" horiz-adv-x="645" 
d="M60 260l-20 20l282 283l283 -283l-20 -20l-250 250v-510h-28v508z" />
    <glyph glyph-name="arrowright" unicode="&#x2192;" horiz-adv-x="643" 
d="M300 535l20 20l283 -282l-283 -283l-20 20l250 250h-510v28h508z" />
    <glyph glyph-name="arrowdown" unicode="&#x2193;" horiz-adv-x="645" 
d="M40 263l20 20l247 -248v508h28v-510l250 250l20 -20l-283 -283z" />
    <glyph glyph-name="partialdiff" unicode="&#x2202;" horiz-adv-x="578" 
d="M52 204c0 136 104 255 242 255c119 0 184 -72 203 -129c0 163 -71 335 -294 352l5 27c203 -14 319 -159 319 -379c0 -164 -97 -339 -267 -339c-119 0 -208 90 -208 213zM81 206c0 -102 73 -188 182 -188c140 0 223 147 233 277c-27 66 -84 137 -201 137
c-120 0 -214 -105 -214 -226z" />
    <glyph glyph-name="product" unicode="&#x220f;" horiz-adv-x="876" 
d="M731 -200v872h-585v-872h-30v900h644v-900h-29z" />
    <glyph glyph-name="summation" unicode="&#x2211;" horiz-adv-x="624" 
d="M364 250l-324 434v16h544v-28h-499l315 -422l-317 -422h501v-28h-544v16z" />
    <glyph glyph-name="minus" unicode="&#x2212;" 
d="M73 347v26h440v-26h-440z" />
    <glyph glyph-name="uni2215" unicode="&#x2215;" horiz-adv-x="301" 
d="M-30 -199l338 908l23 -9l-337 -908z" />
    <glyph glyph-name="radical" unicode="&#x221a;" horiz-adv-x="573" 
d="M1 422v28h135l194 -402l142 652h256v-28h-231l-151 -679h-20l-209 429h-116z" />
    <glyph glyph-name="infinity" unicode="&#x221e;" horiz-adv-x="731" 
d="M540 205c-77 0 -129 57 -176 117c-42 -60 -86 -117 -164 -117c-65 0 -143 49 -143 136c0 73 60 138 146 138c69 0 116 -56 162 -115c41 59 87 115 174 115c84 0 135 -59 135 -142c0 -61 -44 -132 -134 -132zM534 453c-72 0 -114 -52 -154 -109c46 -58 92 -113 160 -113
c73 0 107 59 107 106c0 63 -39 116 -113 116zM201 231c70 0 109 53 148 111c-44 57 -87 111 -146 111c-71 0 -119 -53 -119 -112c0 -73 68 -110 117 -110z" />
    <glyph glyph-name="integral" unicode="&#x222b;" horiz-adv-x="338" 
d="M131 -29c0 -95 -29 -160 -102 -175c-14 -3 -29 -4 -46 -3c-32 0 -61 12 -78 25l10 23c16 -11 43 -22 70 -22c85 0 118 56 118 153v551c0 107 39 166 113 181c14 3 29 4 46 4c52 -1 85 -19 106 -36l-11 -22c-24 17 -50 31 -94 31c-28 0 -52 -5 -72 -16
c-39 -23 -60 -71 -60 -151v-543z" />
    <glyph glyph-name="approxequal" unicode="&#x2248;" 
d="M79 252l-16 19c42 40 83 57 121 57c82 0 152 -74 230 -74c31 0 62 14 95 46l14 -20c-38 -36 -75 -52 -110 -52c-80 0 -152 75 -230 75c-34 0 -69 -17 -104 -51zM79 418l-16 19c42 40 83 57 121 57c82 0 152 -74 230 -74c31 0 62 14 95 46l14 -20
c-38 -36 -75 -52 -110 -52c-80 0 -152 75 -230 75c-34 0 -69 -17 -104 -51z" />
    <glyph glyph-name="notequal" unicode="&#x2260;" 
d="M73 430v26h236l95 253l23 -9l-91 -244h177v-26h-186l-52 -140h238v-26h-248l-101 -273l-23 10l97 263h-165v26h175l52 140h-227z" />
    <glyph glyph-name="lessequal" unicode="&#x2264;" 
d="M70 273v29l403 -258v-29zM473 180l-403 259v12l403 256v-31l-363 -231l363 -233v-32z" />
    <glyph glyph-name="greaterequal" unicode="&#x2265;" 
d="M516 302v-29l-403 -258v29zM516 439l-403 -259v32l363 233l-363 231v31l403 -256v-12z" />
    <glyph glyph-name="lozenge" unicode="&#x25ca;" horiz-adv-x="463" 
d="M222 -7l-167 256l168 269h18l167 -258l-168 -267h-18zM84 250l148 -226l147 236l-147 227z" />
    <glyph glyph-name="spade" unicode="&#x2660;" horiz-adv-x="632" 
d="M316 510c105 -66 256 -220 256 -311c0 -51 -35 -104 -117 -104c-63 0 -103 33 -131 72c17 -72 46 -130 107 -167h-230c51 36 85 93 105 164c-28 -38 -68 -69 -129 -69c-82 0 -117 53 -117 105c0 90 151 244 256 310z" />
    <glyph glyph-name="club" unicode="&#x2663;" horiz-adv-x="612" 
d="M177 381c0 71 58 129 129 129s129 -58 129 -129c0 -6 -1 -13 -2 -19c66 -5 119 -61 119 -128c0 -71 -58 -129 -129 -129c-43 0 -81 21 -104 53c17 -63 46 -124 102 -158h-230c46 32 80 95 100 156c-23 -29 -62 -51 -102 -51c-71 0 -129 58 -129 129c0 67 52 123 118 128
c-1 6 -1 13 -1 19z" />
    <glyph glyph-name="heart" unicode="&#x2665;" horiz-adv-x="649" 
d="M325 0c-109 82 -265 259 -265 370c0 64 36 130 121 130c71 0 115 -50 144 -104c28 54 72 104 143 104c85 0 121 -66 121 -129c0 -112 -156 -289 -264 -371z" />
    <glyph glyph-name="diamond" unicode="&#x2666;" horiz-adv-x="583" 
d="M523 249c-85 -85 -160 -175 -232 -268c-70 92 -147 181 -231 268c85 89 160 179 231 269c73 -93 149 -183 232 -269z" />
    <glyph glyph-name="uniF350" unicode="&#xf350;" horiz-adv-x="560" 
d="M21 0l248 530h22l248 -530h-32l-88 189h-280l-88 -189h-30zM279 491l-128 -275h255z" />
    <glyph glyph-name="uniF351" unicode="&#xf351;" horiz-adv-x="495" 
d="M93 0v525h310v-28h-281v-192c37 3 78 4 104 4c139 0 207 -56 207 -149c0 -110 -83 -162 -214 -162c-46 0 -93 2 -126 2zM225 282c-26 0 -66 -1 -103 -5v-249c28 0 62 -2 100 -2c119 0 182 46 182 133c0 77 -58 123 -179 123z" />
    <glyph glyph-name="uniF352" unicode="&#xf352;" horiz-adv-x="502" 
d="M93 0v525c31 0 102 2 148 2c135 0 176 -57 176 -129c0 -73 -55 -116 -119 -125v-1c92 -9 142 -52 142 -127c0 -104 -85 -147 -199 -147c-46 0 -115 2 -148 2zM244 256h-122v-228c25 0 82 -2 119 -2c106 0 170 38 170 120c0 70 -60 110 -167 110zM240 499
c-38 0 -93 -1 -118 -2v-215h126c76 0 140 43 140 110c0 70 -43 107 -148 107z" />
    <glyph glyph-name="uniF353" unicode="&#xf353;" horiz-adv-x="407" 
d="M93 0v525h312v-28h-283v-497h-29z" />
    <glyph glyph-name="uniF354" unicode="&#xf354;" horiz-adv-x="597" 
d="M15 -102v130h61c23 28 86 144 99 392l6 105h309v-497h77v-130h-28v102h-496v-102h-28zM204 402c-16 -240 -73 -350 -95 -374h352v469h-251z" />
    <glyph glyph-name="uniF355" unicode="&#xf355;" horiz-adv-x="474" 
d="M93 0v525h311v-28h-282v-216h258v-28h-258v-225h290v-28h-319z" />
    <glyph glyph-name="uniF356" unicode="&#xf356;" horiz-adv-x="733" 
d="M698 525l-247 -250l255 -275h-39l-252 274l243 251h40zM352 0v525h30v-525h-30zM282 274l-246 251h39l244 -251l-253 -274h-39z" />
    <glyph glyph-name="uniF357" unicode="&#xf357;" horiz-adv-x="464" 
d="M214 -7c-69 0 -146 33 -176 75l17 19c39 -42 107 -66 158 -66c100 0 159 51 159 128c0 65 -48 106 -125 106h-77v27h71c54 0 109 49 109 114c0 71 -55 107 -128 107c-69 0 -115 -23 -151 -61l-18 19c39 45 99 70 167 70c97 0 160 -49 160 -135c0 -49 -30 -103 -87 -124
v-3c69 -6 109 -62 109 -122c0 -97 -79 -154 -188 -154z" />
    <glyph glyph-name="uniF358" unicode="&#xf358;" horiz-adv-x="645" 
d="M120 0h-27v525h29v-479l403 479h27v-525h-29v479z" />
    <glyph glyph-name="uniF359" unicode="&#xf359;" horiz-adv-x="645" 
d="M120 0h-27v525h29v-479l403 479h27v-525h-29v479zM190 650h27c0 -53 39 -83 103 -83c60 0 99 30 99 83h27c0 -67 -53 -106 -126 -106c-81 0 -130 38 -130 106z" />
    <glyph glyph-name="uniF35A" unicode="&#xf35a;" horiz-adv-x="508" 
d="M473 525l-275 -249l284 -276h-43l-281 274l273 251h42zM93 0v525h29v-525h-29z" />
    <glyph glyph-name="uniF35B" unicode="&#xf35b;" horiz-adv-x="583" 
d="M461 0v497h-258l-9 -99c-31 -368 -110 -402 -171 -398v29c37 -2 115 19 144 391l8 105h315v-525h-29z" />
    <glyph glyph-name="uniF35C" unicode="&#xf35c;" horiz-adv-x="710" 
d="M93 0v525h30l237 -297l228 297h29v-525h-30v481l-227 -295h-4l-234 292v-478h-29z" />
    <glyph glyph-name="uniF35D" unicode="&#xf35d;" horiz-adv-x="626" 
d="M504 0v254h-382v-254h-29v525h29v-243h382v243h29v-525h-29z" />
    <glyph glyph-name="uniF35E" unicode="&#xf35e;" horiz-adv-x="647" 
d="M46 263c0 152 119 268 277 268s278 -114 278 -268s-120 -270 -278 -270c-157 0 -277 114 -277 270zM77 263c0 -138 107 -242 246 -242c143 0 247 104 247 242s-107 240 -247 240c-139 0 -246 -102 -246 -240z" />
    <glyph glyph-name="uniF35F" unicode="&#xf35f;" horiz-adv-x="625" 
d="M503 0v497h-381v-497h-29v525h439v-525h-29z" />
    <glyph glyph-name="uniF360" unicode="&#xf360;" horiz-adv-x="466" 
d="M122 0h-29v525c31 0 101 2 131 2c155 0 197 -80 197 -158c0 -82 -57 -161 -200 -161c-29 0 -64 2 -99 4v-212zM227 499c-27 0 -80 -1 -105 -2v-257c34 -2 64 -4 98 -4c116 0 170 58 170 133c0 73 -45 130 -163 130z" />
    <glyph glyph-name="uniF361" unicode="&#xf361;" horiz-adv-x="530" 
d="M487 73l12 -23c-40 -36 -109 -57 -173 -57c-167 0 -280 106 -280 270c0 149 106 268 272 268c70 0 126 -16 171 -48l-16 -22c-41 30 -92 42 -154 42c-146 0 -242 -104 -242 -240c0 -146 102 -242 251 -242c63 0 119 21 159 52z" />
    <glyph glyph-name="uniF362" unicode="&#xf362;" horiz-adv-x="477" 
d="M8 497v28h461v-28h-216v-497h-29v497h-216z" />
    <glyph glyph-name="uniF363" unicode="&#xf363;" horiz-adv-x="517" 
d="M502 525l-198 -407c-39 -80 -73 -118 -124 -118c-21 0 -42 5 -58 16l11 25c15 -9 31 -14 47 -14c40 0 65 36 85 75l12 22l-262 401h36l241 -372l179 372h31z" />
    <glyph glyph-name="uniF364" unicode="&#xf364;" horiz-adv-x="668" 
d="M318 -6v66h-6c-162 0 -274 76 -274 210s110 210 278 210h2v51h30v-51h3c172 0 279 -76 279 -210c0 -133 -113 -210 -275 -210h-7v-66h-30zM352 453h-4v-366h7c141 0 244 63 244 183c0 118 -99 183 -247 183zM68 270c0 -118 103 -183 244 -183h6v366h-3
c-147 0 -247 -67 -247 -183z" />
    <glyph glyph-name="uniF365" unicode="&#xf365;" horiz-adv-x="530" 
d="M496 525l-212 -258l220 -267h-37l-203 244l-201 -244h-37l220 267l-211 258h37l193 -235l195 235h36z" />
    <glyph glyph-name="uniF366" unicode="&#xf366;" horiz-adv-x="634" 
d="M93 0v525h29v-497h375v497h30v-497h77v-130h-28v102h-483z" />
    <glyph glyph-name="uniF367" unicode="&#xf367;" horiz-adv-x="508" 
d="M415 525v-525h-30v247c-33 -20 -97 -47 -167 -47c-95 0 -168 50 -168 168v157h29v-150c0 -98 57 -146 145 -146c70 0 128 26 161 46v250h30z" />
    <glyph glyph-name="uniF368" unicode="&#xf368;" horiz-adv-x="801" 
d="M93 0v525h29v-497h263v497h30v-497h263v497h30v-525h-615z" />
    <glyph glyph-name="uniF369" unicode="&#xf369;" horiz-adv-x="814" 
d="M93 0v525h29v-497h263v497h30v-497h263v497h30v-497h76v-130h-28v102h-663z" />
    <glyph glyph-name="uniF36A" unicode="&#xf36a;" horiz-adv-x="536" 
d="M1 497v28h178v-213c38 3 75 3 99 3c145 0 212 -58 212 -153c0 -108 -84 -164 -219 -164c-44 0 -88 2 -121 2v497h-149zM277 287c-24 0 -61 -1 -98 -4v-255c27 0 60 -2 96 -2c118 0 184 46 184 137c0 79 -61 124 -182 124z" />
    <glyph glyph-name="uniF36B" unicode="&#xf36b;" horiz-adv-x="662" 
d="M539 0v525h30v-525h-30zM214 287c-25 0 -55 -1 -92 -3v-256c27 0 53 -2 88 -2c119 0 184 47 184 137c0 78 -61 124 -180 124zM122 525v-213c37 3 69 3 92 3c143 0 211 -58 211 -153c0 -108 -85 -164 -218 -164c-43 0 -81 2 -114 2v525h29z" />
    <glyph glyph-name="uniF36C" unicode="&#xf36c;" horiz-adv-x="479" 
d="M220 287c-25 0 -61 -1 -98 -3v-256c27 0 59 -2 94 -2c119 0 186 46 186 137c0 79 -61 124 -182 124zM122 525v-213c37 3 76 3 99 3c144 0 212 -58 212 -153c0 -108 -85 -164 -220 -164c-42 0 -87 2 -120 2v525h29z" />
    <glyph glyph-name="uniF36D" unicode="&#xf36d;" horiz-adv-x="551" 
d="M163 254v28h311c-7 137 -104 221 -253 221c-60 0 -116 -12 -160 -44l-13 21c43 35 110 52 174 52c171 0 283 -104 283 -268c0 -154 -111 -271 -282 -271c-71 0 -134 19 -187 55l14 24c51 -33 108 -50 175 -50c149 0 245 99 250 232h-312z" />
    <glyph glyph-name="uniF36E" unicode="&#xf36e;" horiz-adv-x="862" 
d="M93 0v525h29v-243h157c9 142 115 250 267 250c159 0 270 -114 270 -269c0 -154 -111 -270 -270 -270c-152 0 -263 109 -267 261h-157v-254h-29zM310 263c0 -138 98 -241 237 -241c141 0 238 103 238 241s-98 240 -238 240c-139 0 -237 -102 -237 -240z" />
    <glyph glyph-name="uniF36F" unicode="&#xf36f;" horiz-adv-x="497" 
d="M375 0v210h-142l-169 -210h-36l173 214c-65 17 -127 73 -127 148c0 93 67 165 204 165c44 0 93 -2 126 -2v-525h-29zM228 238h147v259c-26 0 -62 2 -100 2c-118 0 -170 -63 -170 -136c0 -65 61 -116 123 -125z" />
    <glyph glyph-name="uniF371" unicode="&#xf371;" horiz-adv-x="474" 
d="M93 0v525h311v-28h-282v-216h258v-28h-258v-225h290v-28h-319zM135 667c0 11 10 20 22 20c10 0 20 -9 20 -20c0 -13 -10 -22 -20 -22c-12 0 -22 9 -22 22zM310 667c0 11 10 20 22 20c10 0 20 -9 20 -20c0 -13 -10 -22 -20 -22c-12 0 -22 9 -22 22z" />
    <glyph glyph-name="uniF372" unicode="&#xf372;" horiz-adv-x="612" 
d="M566 155c0 -118 -57 -162 -134 -162c-31 0 -62 16 -71 23l12 23c12 -9 35 -17 57 -17c63 0 107 37 107 132c0 96 -51 136 -142 136c-71 0 -110 -29 -142 -46v-244h-29v497h-216v28h461v-28h-216v-225c34 21 77 46 147 46c96 0 166 -43 166 -163z" />
    <glyph glyph-name="uniF373" unicode="&#xf373;" horiz-adv-x="407" 
d="M93 0v525h312v-28h-283v-497h-29zM336 731l-116 -137l-16 15l114 142z" />
    <glyph glyph-name="uniF374" unicode="&#xf374;" horiz-adv-x="550" 
d="M388 282v-29h-313c4 -142 108 -231 259 -231c66 0 116 17 167 50l13 -24c-53 -36 -109 -55 -180 -55c-171 0 -288 107 -288 270c0 155 111 269 282 269c64 0 131 -17 174 -52l-14 -21c-44 32 -102 44 -159 44c-152 0 -245 -91 -254 -221h313z" />
    <glyph glyph-name="uniF375" unicode="&#xf375;" horiz-adv-x="462" 
d="M385 130c0 158 -325 95 -325 272c0 73 60 129 176 129c59 0 131 -22 162 -56l-15 -21c-34 33 -97 49 -150 49c-86 0 -142 -40 -142 -101c0 -153 325 -86 325 -273c0 -84 -81 -136 -175 -136c-88 0 -160 29 -197 72l19 20c39 -38 99 -64 178 -64c69 0 144 36 144 109z" />
    <glyph glyph-name="uniF376" unicode="&#xf376;" horiz-adv-x="257" 
d="M114 0v525h29v-525h-29z" />
    <glyph glyph-name="uniF377" unicode="&#xf377;" horiz-adv-x="261" 
d="M51 666c0 11 10 20 21 20c10 0 20 -9 20 -20c0 -12 -10 -21 -20 -21c-11 0 -21 9 -21 21zM172 666c0 11 10 20 21 20c10 0 19 -9 19 -20c0 -12 -9 -21 -19 -21c-11 0 -21 9 -21 21zM116 0v525h29v-525h-29z" />
    <glyph glyph-name="uniF378" unicode="&#xf378;" horiz-adv-x="285" 
d="M192 525v-411c0 -73 -25 -121 -106 -121c-31 0 -58 11 -72 23l11 23c13 -9 35 -17 57 -17c68 0 80 43 80 95v408h30z" />
    <glyph glyph-name="uniF379" unicode="&#xf379;" horiz-adv-x="838" 
d="M461 0v497h-257l-9 -99c-32 -368 -111 -402 -172 -398v29c37 -1 115 19 144 391l8 105h315v-213c37 3 68 3 92 3c143 0 210 -58 210 -153c0 -108 -84 -164 -218 -164c-42 0 -81 2 -113 2zM581 287c-25 0 -54 -1 -91 -4v-255c26 0 53 -2 87 -2c119 0 184 47 184 137
c0 78 -61 124 -180 124z" />
    <glyph glyph-name="uniF37A" unicode="&#xf37a;" horiz-adv-x="872" 
d="M93 0v525h29v-224h374v224h29v-223c37 3 68 4 92 4c143 0 210 -55 210 -147c0 -108 -84 -161 -218 -161c-35 0 -66 2 -93 2h-20v273h-374v-273h-29zM525 274v-246c26 0 52 -2 87 -2c119 0 184 45 184 132c0 77 -61 121 -180 121c-25 0 -55 -1 -91 -5z" />
    <glyph glyph-name="uniF37B" unicode="&#xf37b;" horiz-adv-x="612" 
d="M8 497v28h461v-28h-216v-227c30 22 84 47 154 47c94 0 159 -48 159 -168v-149h-29v144c0 98 -50 145 -137 145c-70 0 -116 -28 -147 -47v-242h-29v497h-216z" />
    <glyph glyph-name="uniF37C" unicode="&#xf37c;" horiz-adv-x="508" 
d="M473 525l-275 -249l284 -276h-43l-281 274l273 251h42zM93 0v525h29v-525h-29zM359 731l-116 -137l-16 15l114 142z" />
    <glyph glyph-name="uniF37E" unicode="&#xf37e;" horiz-adv-x="517" 
d="M502 525l-198 -407c-39 -80 -73 -118 -124 -118c-21 0 -42 5 -58 16l11 25c15 -9 31 -14 47 -14c40 0 65 36 85 75l12 22l-262 401h36l241 -372l179 372h31zM138 650h27c0 -53 39 -83 103 -83c60 0 99 30 99 83h27c0 -67 -53 -106 -126 -106c-81 0 -130 38 -130 106z" />
    <glyph glyph-name="uniF37F" unicode="&#xf37f;" horiz-adv-x="617" 
d="M93 0v525h29v-497h373v497h29v-525h-201v-119h-29v119h-201z" />
    <glyph glyph-name="uniF381" unicode="&#xf381;" horiz-adv-x="498" 
d="M1 404v26h111v95h29v-95h142v-26h-142v-98c37 3 75 4 98 4c145 0 213 -56 213 -150c0 -108 -85 -162 -220 -162c-43 0 -87 2 -120 2v404h-111zM239 283c-25 0 -62 -1 -98 -3v-253c27 0 59 -2 94 -2c119 0 186 46 186 135c0 78 -61 123 -182 123z" />
    <glyph glyph-name="uniF389" unicode="&#xf389;" horiz-adv-x="647" 
d="M46 263c0 152 119 268 277 268s278 -114 278 -268s-120 -270 -278 -270c-157 0 -277 114 -277 270zM197 298c-41 0 -85 -21 -120 -53c9 -129 113 -224 246 -224c139 0 241 98 247 231c-35 -30 -76 -47 -113 -47c-96 0 -169 93 -260 93zM459 232c36 0 79 19 110 48
c-8 129 -112 223 -246 223c-135 0 -239 -96 -246 -227c38 31 82 49 121 49c99 0 170 -93 261 -93z" />
    <glyph glyph-name="uniF38A" unicode="&#xf38a;" horiz-adv-x="530" 
d="M435 390l-157 -395h-20l-246 530h33l224 -487l141 365c35 90 67 128 111 128c11 0 23 -2 36 -7v-25c-53 23 -87 -21 -122 -109z" />
    <glyph glyph-name="uniF393" unicode="&#xf393;" horiz-adv-x="408" 
d="M93 0v525h285v101h28v-129h-284v-497h-29z" />
    <glyph glyph-name="uniF3CF" unicode="&#xf3cf;" horiz-adv-x="935" 
d="M536 0h-24l-391 475v-475h-28v525h23l392 -476v476h28v-525zM608 376c0 69 58 119 133 119s132 -50 132 -119c0 -70 -57 -120 -132 -120s-133 50 -133 120zM635 376c0 -58 52 -96 106 -96c56 0 106 38 106 96c0 57 -51 95 -106 95c-56 0 -106 -38 -106 -95zM633 175v27
h215v-27h-215z" />
    <glyph glyph-name="uniF3D0" unicode="&#xf3d0;" horiz-adv-x="376" 
d="M60 650h27c0 -53 39 -83 103 -83c60 0 99 30 99 83h27c0 -67 -53 -106 -126 -106c-81 0 -130 38 -130 106z" />
    <glyph glyph-name="uniF400" unicode="&#xf400;" horiz-adv-x="0" 
d="M-172 693l-112 -141l-18 12l109 146z" />
    <glyph glyph-name="uniF401" unicode="&#xf401;" horiz-adv-x="0" 
d="M-263 829l-167 -89l-9 18l165 94z" />
    <glyph glyph-name="uniF406" unicode="&#xf406;" horiz-adv-x="430" 
d="M60 835l14 15c21 -25 67 -68 143 -68c66 0 113 35 140 68l13 -15c-28 -39 -80 -79 -153 -79c-85 0 -139 51 -157 79z" />
    <glyph glyph-name="uniF407" unicode="&#xf407;" horiz-adv-x="314" 
d="M60 -177l10 17c25 -13 52 -21 74 -21c47 0 81 21 81 54s-22 54 -82 54h-6v73h19v-56c70 -1 98 -29 98 -72s-40 -73 -105 -73c-36 0 -63 10 -89 24z" />
    <glyph glyph-name="uniF408" unicode="&#xf408;" horiz-adv-x="457" 
d="M60 757l166 94h4l167 -93l-15 -18l-154 85l-155 -85z" />
    <glyph glyph-name="uniF409" unicode="&#xf409;" horiz-adv-x="198" 
d="M78 -76l20 12c23 -2 40 -21 40 -50c0 -51 -29 -74 -70 -87l-8 15c33 13 50 33 50 66c0 28 -14 40 -32 44z" />
    <glyph glyph-name="uniF40A" unicode="&#xf40a;" horiz-adv-x="197" 
d="M90 720l24 17c12 -13 23 -36 23 -65c0 -60 -25 -96 -65 -117l-12 15c32 18 50 54 50 96c0 27 -11 45 -20 54z" />
    <glyph glyph-name="uniF40B" unicode="&#xf40b;" horiz-adv-x="167" 
d="M60 797c0 14 11 22 25 22c11 0 22 -8 22 -22c0 -15 -11 -24 -22 -24c-14 0 -25 9 -25 24z" />
    <glyph glyph-name="uniF40C" unicode="&#xf40c;" horiz-adv-x="322" 
d="M60 779c0 56 45 81 100 81c56 0 102 -25 102 -81c0 -54 -46 -83 -102 -83c-55 0 -100 29 -100 83zM83 779c0 -43 34 -64 77 -64c44 0 79 21 79 64c0 44 -35 62 -79 62c-43 0 -77 -18 -77 -62z" />
    <glyph glyph-name="uniF40D" unicode="&#xf40d;" horiz-adv-x="446" 
d="M71 772l-11 18c27 24 55 35 81 35c60 0 107 -48 161 -48c23 0 48 8 73 35l11 -19c-28 -30 -56 -41 -85 -41c-56 0 -107 47 -164 47c-21 0 -43 -8 -66 -27z" />
    <glyph glyph-name="uniF40E" unicode="&#xf40e;" horiz-adv-x="287" 
d="M218 -167l9 -19c-17 -9 -41 -14 -61 -14c-43 0 -106 19 -106 91c0 74 85 121 162 121v-12c-65 0 -134 -42 -134 -103c0 -59 56 -73 83 -73c12 0 30 1 47 9z" />
    <glyph glyph-name="uniF410" unicode="&#xf410;" horiz-adv-x="0" 
d="M-334 740l-166 89l11 23l165 -94z" />
    <glyph glyph-name="uniF416" unicode="&#xf416;" horiz-adv-x="198" 
d="M78 -76l20 12c23 -2 40 -21 40 -50c0 -51 -29 -74 -70 -87l-8 15c33 13 50 33 50 66c0 28 -14 40 -32 44z" />
    <glyph glyph-name="uniF418" unicode="&#xf418;" horiz-adv-x="197" 
d="M90 530l24 17c12 -13 23 -36 23 -65c0 -60 -25 -96 -65 -117l-12 15c32 18 50 54 50 96c0 27 -11 45 -20 54z" />
    <glyph glyph-name="uniF447" unicode="&#xf447;" horiz-adv-x="477" 
d="M153 -178l10 17c25 -13 51 -20 73 -20c47 0 81 21 81 54s-22 54 -82 54h-6v73h-5v497h-216v28h461v-28h-216v-497h-5v-56c69 -1 97 -29 97 -72s-40 -73 -106 -73c-34 0 -59 10 -86 23z" />
    <glyph glyph-name="uniF44E" unicode="&#xf44e;" horiz-adv-x="622" 
d="M40 282h505c-7 135 -104 221 -251 221c-59 0 -112 -13 -156 -45l-13 22c43 34 108 51 172 51c171 0 279 -103 279 -267c0 -154 -103 -271 -270 -271s-271 121 -266 289zM305 21c152 0 238 103 240 233h-475c3 -129 92 -233 235 -233z" />
    <glyph glyph-name="uniF639" unicode="&#xf639;" 
d="M77 350c0 205 62 358 216 358s216 -153 216 -358s-60 -358 -214 -358s-218 153 -218 358zM107 350c0 -193 53 -331 188 -331c136 0 184 137 184 331s-50 331 -186 331s-186 -138 -186 -331z" />
    <glyph glyph-name="uniF63A" unicode="&#xf63a;" 
d="M88 0v24c114 112 347 342 347 511c0 71 -49 145 -151 145c-66 0 -147 -39 -161 -140l-25 8c14 108 106 160 185 160c128 0 181 -90 181 -167c0 -196 -278 -458 -338 -514h371v-27h-409z" />
    <glyph glyph-name="uniF63B" unicode="&#xf63b;" 
d="M285 -9c-83 0 -162 34 -198 123l18 18c36 -83 113 -112 182 -112c107 0 175 73 175 169c0 92 -72 155 -160 155h-64v28h57c69 0 140 69 140 160c0 98 -62 148 -151 148s-136 -45 -160 -104l-19 15c25 74 94 118 180 118c112 0 179 -66 179 -176c0 -70 -40 -142 -112 -170
v-3c87 -12 139 -91 139 -171c0 -121 -88 -198 -206 -198z" />
    <glyph glyph-name="uniF63C" unicode="&#xf63c;" 
d="M397 0v193h-327v17l320 490h33l-313 -478h287v228h28v-228h108v-29h-108v-193h-28z" />
    <glyph glyph-name="uniF63D" unicode="&#xf63d;" 
d="M148 378l41 322h294v-28h-270l-34 -262c21 6 50 12 80 12c131 0 222 -83 222 -209c0 -137 -98 -222 -207 -222c-76 0 -155 34 -198 115l19 19c39 -73 114 -105 179 -105c99 0 177 81 177 192c0 104 -80 184 -200 184c-38 0 -76 -9 -103 -18z" />
    <glyph glyph-name="uniF63E" unicode="&#xf63e;" 
d="M75 248c0 257 178 428 334 461l12 -22c-139 -31 -290 -163 -314 -393c26 71 94 133 196 133c126 0 205 -89 205 -216c0 -125 -97 -220 -201 -220c-156 0 -232 121 -232 257zM104 249c0 -117 65 -229 201 -229c94 0 173 85 173 189c0 105 -62 191 -183 191
c-111 0 -175 -84 -191 -151z" />
    <glyph glyph-name="uniF63F" unicode="&#xf63f;" 
d="M103 672v28h390v-15l-274 -685h-31l269 672h-354z" />
    <glyph glyph-name="uniF640" unicode="&#xf640;" 
d="M276 374h35c68 0 145 64 145 152c0 99 -83 154 -164 154c-82 0 -161 -56 -161 -154c0 -88 77 -152 145 -152zM310 346h-30c-94 0 -175 -70 -175 -161c0 -97 89 -165 188 -165c100 0 189 63 189 165c0 101 -80 161 -172 161zM294 -9c-111 0 -218 71 -218 190
c0 82 57 158 150 177v3c-72 19 -124 96 -124 166c0 110 86 182 191 182s193 -72 193 -182c0 -68 -47 -139 -127 -165v-3c89 -10 152 -83 152 -176c0 -121 -106 -192 -217 -192z" />
    <glyph glyph-name="uniF641" unicode="&#xf641;" 
d="M511 451c0 -259 -144 -431 -337 -460l-11 23c173 30 301 170 316 390c-27 -70 -95 -124 -194 -124c-128 0 -208 98 -208 213c0 125 106 216 210 216c156 0 224 -120 224 -258zM481 450c0 116 -56 230 -192 230c-94 0 -183 -81 -183 -185c0 -96 63 -188 184 -188
c111 0 176 76 191 143z" />
    <glyph glyph-name="uniF643" unicode="&#xf643;" 
d="M40 250c0 135 96 259 253 259s253 -124 253 -259s-96 -259 -253 -259s-253 124 -253 259zM70 250c0 -121 85 -230 223 -230c139 0 223 109 223 230c0 122 -85 230 -223 230s-223 -108 -223 -230z" />
    <glyph glyph-name="uniF644" unicode="&#xf644;" 
d="M159 392l150 116h18v-508h-30v469l-126 -101z" />
    <glyph glyph-name="uniF645" unicode="&#xf645;" 
d="M88 0v23c126 50 346 161 346 312c0 84 -48 146 -150 146c-65 0 -148 -37 -163 -137l-21 12c14 103 107 154 182 154c128 0 181 -77 181 -171c0 -170 -237 -281 -313 -311h347v-28h-409z" />
    <glyph glyph-name="uniF646" unicode="&#xf646;" 
d="M285 -209c-82 0 -161 34 -198 123l19 18c36 -83 113 -112 182 -112c107 0 175 73 175 169c0 92 -72 155 -160 155h-64v28h57c69 0 140 69 140 160c0 98 -62 148 -151 148s-136 -45 -161 -104l-18 15c25 74 94 118 180 118c112 0 179 -66 179 -176
c0 -70 -40 -142 -113 -170v-3c88 -12 140 -91 140 -171c0 -121 -88 -198 -207 -198z" />
    <glyph glyph-name="uniF647" unicode="&#xf647;" 
d="M397 -200v200h-327v16l317 484h32l-309 -472h287v228h28v-228h108v-28h-108v-200h-28z" />
    <glyph glyph-name="uniF648" unicode="&#xf648;" 
d="M149 178l41 322h293v-28h-269l-34 -262c20 6 49 12 79 12c131 0 222 -83 222 -209c0 -137 -98 -222 -207 -222c-76 0 -155 34 -198 115l19 19c39 -73 114 -105 179 -105c100 0 178 81 178 192c0 104 -81 184 -201 184c-37 0 -76 -9 -102 -18z" />
    <glyph glyph-name="uniF649" unicode="&#xf649;" 
d="M75 248c0 257 178 428 334 461l13 -22c-140 -31 -290 -163 -315 -393c27 71 95 133 196 133c126 0 205 -89 205 -216c0 -125 -96 -220 -201 -220c-156 0 -232 121 -232 257zM105 249c0 -117 65 -229 201 -229c94 0 173 85 173 189c0 105 -62 191 -183 191
c-111 0 -176 -84 -191 -151z" />
    <glyph glyph-name="uniF64A" unicode="&#xf64a;" 
d="M103 472v28h391v-15l-274 -685h-32l269 672h-354z" />
    <glyph glyph-name="uniF64B" unicode="&#xf64b;" 
d="M276 374h36c68 0 144 64 144 152c0 99 -82 154 -164 154c-81 0 -161 -56 -161 -154c0 -88 77 -152 145 -152zM310 346h-29c-95 0 -175 -70 -175 -161c0 -97 88 -165 187 -165c101 0 189 63 189 165c0 101 -80 161 -172 161zM294 -9c-111 0 -218 71 -218 190
c0 82 57 158 151 177v3c-73 19 -125 96 -125 166c0 110 86 182 191 182s193 -72 193 -182c0 -68 -47 -139 -126 -165v-3c89 -10 151 -83 151 -176c0 -121 -106 -192 -217 -192z" />
    <glyph glyph-name="uniF64C" unicode="&#xf64c;" 
d="M511 251c0 -259 -145 -431 -337 -460l-11 23c173 30 301 170 316 390c-27 -70 -95 -124 -195 -124c-127 0 -207 98 -207 213c0 125 106 216 210 216c156 0 224 -120 224 -258zM481 250c0 116 -56 230 -192 230c-94 0 -183 -81 -183 -185c0 -96 63 -188 184 -188
c111 0 176 76 191 143z" />
    <glyph glyph-name="uniF66D" unicode="&#xf66d;" horiz-adv-x="560" 
d="M21 0l248 530h22l248 -530h-32l-88 189h-280l-88 -189h-30zM279 491l-128 -275h255zM147 707l14 15c20 -25 57 -68 121 -68c55 0 93 35 119 67l12 -14c-27 -37 -66 -77 -132 -77c-75 0 -118 51 -134 77z" />
    <glyph glyph-name="uniF66E" unicode="&#xf66e;" horiz-adv-x="560" 
d="M21 0l248 530h22l248 -530h-32l-88 189h-280l-88 -189h-30zM279 491l-128 -275h255zM158 666v24h242v-24h-242z" />
    <glyph glyph-name="uniF66F" unicode="&#xf66f;" horiz-adv-x="560" 
d="M524 -167l9 -19c-17 -9 -41 -14 -61 -14c-43 0 -106 19 -106 91c0 66 67 110 136 119l-83 179h-280l-88 -189h-30l248 530h22l248 -530h-11c-65 0 -134 -42 -134 -103c0 -59 56 -73 83 -73c12 0 30 1 47 9zM279 491l-128 -275h255z" />
    <glyph glyph-name="uniF671" unicode="&#xf671;" horiz-adv-x="530" 
d="M487 73l12 -23c-40 -36 -109 -57 -173 -57c-167 0 -280 106 -280 270c0 149 106 268 272 268c70 0 126 -16 171 -48l-16 -22c-41 30 -92 42 -154 42c-146 0 -242 -104 -242 -240c0 -146 102 -242 251 -242c63 0 119 21 159 52zM405 731l-116 -137l-16 15l114 142z" />
    <glyph glyph-name="uniF672" unicode="&#xf672;" horiz-adv-x="530" 
d="M487 73l12 -23c-40 -36 -109 -57 -173 -57c-167 0 -280 106 -280 270c0 149 106 268 272 268c70 0 126 -16 171 -48l-16 -22c-41 30 -92 42 -154 42c-146 0 -242 -104 -242 -240c0 -146 102 -242 251 -242c63 0 119 21 159 52zM306 603l-130 112l15 17l117 -101l116 101
l15 -17l-129 -112h-4z" />
    <glyph glyph-name="uniF673" unicode="&#xf673;" horiz-adv-x="530" 
d="M487 73l12 -23c-40 -36 -109 -57 -173 -57c-167 0 -280 106 -280 270c0 149 106 268 272 268c70 0 126 -16 171 -48l-16 -22c-41 30 -92 42 -154 42c-146 0 -242 -104 -242 -240c0 -146 102 -242 251 -242c63 0 119 21 159 52zM310 732l138 -112l-16 -18l-124 101
l-126 -101l-16 18l140 112h4z" />
    <glyph glyph-name="uniF674" unicode="&#xf674;" horiz-adv-x="530" 
d="M487 73l12 -23c-40 -36 -109 -57 -173 -57c-167 0 -280 106 -280 270c0 149 106 268 272 268c70 0 126 -16 171 -48l-16 -22c-41 30 -92 42 -154 42c-146 0 -242 -104 -242 -240c0 -146 102 -242 251 -242c63 0 119 21 159 52zM283 671c0 12 11 21 23 21
c11 0 21 -9 21 -21c0 -14 -10 -23 -21 -23c-12 0 -23 9 -23 23z" />
    <glyph glyph-name="uniF675" unicode="&#xf675;" horiz-adv-x="594" 
d="M93 0v525h9c42 0 77 2 130 2c225 0 316 -118 316 -257c0 -151 -108 -272 -323 -272c-43 0 -82 2 -127 2h-5zM230 499c-47 0 -71 -2 -108 -2v-469c51 0 101 -2 104 -2c194 0 291 108 291 244c0 126 -83 229 -287 229zM268 603l-130 112l15 17l117 -101l116 101l15 -17
l-129 -112h-4z" />
    <glyph glyph-name="uniF676" unicode="&#xf676;" horiz-adv-x="614" 
d="M8 256v27h104v242h9c43 0 78 2 133 2c223 0 314 -120 314 -257c0 -150 -108 -272 -320 -272c-47 0 -86 2 -130 2h-6v256h-104zM253 499c-49 0 -74 -2 -111 -2v-214h165v-27h-165v-228c51 0 102 -2 105 -2c193 0 290 109 290 244c0 126 -83 229 -284 229z" />
    <glyph glyph-name="uniF678" unicode="&#xf678;" horiz-adv-x="474" 
d="M93 0v525h311v-28h-282v-216h258v-28h-258v-225h290v-28h-319zM248 603l-130 112l15 17l117 -101l116 101l15 -17l-129 -112h-4z" />
    <glyph glyph-name="uniF679" unicode="&#xf679;" horiz-adv-x="474" 
d="M93 0v525h311v-28h-282v-216h258v-28h-258v-225h290v-28h-319zM224 671c0 12 11 21 23 21c11 0 21 -9 21 -21c0 -14 -10 -23 -21 -23c-12 0 -23 9 -23 23z" />
    <glyph glyph-name="uniF67A" unicode="&#xf67a;" horiz-adv-x="474" 
d="M93 0v525h311v-28h-282v-216h258v-28h-258v-225h290v-28h-319zM125 666v24h242v-24h-242z" />
    <glyph glyph-name="uniF67C" unicode="&#xf67c;" horiz-adv-x="474" 
d="M93 0v525h311v-28h-282v-216h258v-28h-258v-225h290v-28h-10c-64 -2 -129 -43 -129 -103c0 -59 56 -73 83 -73c12 0 30 1 47 9l9 -19c-17 -9 -41 -14 -61 -14c-43 0 -106 19 -106 91c0 52 41 91 93 109h-245z" />
    <glyph glyph-name="uniF67D" unicode="&#xf67d;" horiz-adv-x="587" 
d="M332 220v27h201v-182c-50 -46 -141 -72 -211 -72c-164 0 -276 106 -276 270c0 150 109 268 272 268c72 0 126 -15 172 -48l-14 -23c-41 30 -94 43 -155 43c-147 0 -244 -103 -244 -240c0 -147 101 -242 246 -242c66 0 140 22 182 59v140h-173zM169 707l14 15
c20 -25 57 -68 121 -68c55 0 93 35 119 67l12 -14c-27 -37 -66 -77 -132 -77c-75 0 -118 51 -134 77z" />
    <glyph glyph-name="uniF67E" unicode="&#xf67e;" horiz-adv-x="587" 
d="M332 220v27h201v-182c-50 -46 -141 -72 -211 -72c-164 0 -276 106 -276 270c0 150 109 268 272 268c72 0 126 -15 172 -48l-14 -23c-41 30 -94 43 -155 43c-147 0 -244 -103 -244 -240c0 -147 101 -242 246 -242c66 0 140 22 182 59v140h-173zM320 732l138 -112l-16 -18
l-124 101l-126 -101l-16 18l140 112h4z" />
    <glyph glyph-name="uniF67F" unicode="&#xf67f;" horiz-adv-x="587" 
d="M332 220v27h201v-182c-50 -46 -141 -72 -211 -72c-164 0 -276 106 -276 270c0 150 109 268 272 268c72 0 126 -15 172 -48l-14 -23c-41 30 -94 43 -155 43c-147 0 -244 -103 -244 -240c0 -147 101 -242 246 -242c66 0 140 22 182 59v140h-173zM292 -76l20 12
c23 -2 40 -21 40 -50c0 -51 -29 -74 -70 -87l-8 15c33 13 50 33 50 66c0 28 -14 40 -32 44z" />
    <glyph glyph-name="uniF680" unicode="&#xf680;" horiz-adv-x="587" 
d="M332 220v27h201v-182c-50 -46 -141 -72 -211 -72c-164 0 -276 106 -276 270c0 150 109 268 272 268c72 0 126 -15 172 -48l-14 -23c-41 30 -94 43 -155 43c-147 0 -244 -103 -244 -240c0 -147 101 -242 246 -242c66 0 140 22 182 59v140h-173zM286 671c0 12 11 21 23 21
c11 0 21 -9 21 -21c0 -14 -10 -23 -21 -23c-12 0 -23 9 -23 23z" />
    <glyph glyph-name="uniF681" unicode="&#xf681;" horiz-adv-x="626" 
d="M30 397v27h63v101h29v-101h382v101h29v-101h63v-27h-63v-397h-29v254h-382v-254h-29v397h-63zM122 282h382v115h-382v-115z" />
    <glyph glyph-name="uniF682" unicode="&#xf682;" horiz-adv-x="626" 
d="M504 0v254h-382v-254h-29v525h29v-243h382v243h29v-525h-29zM316 732l138 -112l-16 -18l-124 101l-126 -101l-16 18l140 112h4z" />
    <glyph glyph-name="uniF685" unicode="&#xf685;" horiz-adv-x="257" 
d="M114 0v525h29v-525h-29zM7 666v24h242v-24h-242z" />
    <glyph glyph-name="uniF686" unicode="&#xf686;" horiz-adv-x="257" 
d="M138 -167l9 -19c-17 -9 -41 -14 -61 -14c-43 0 -106 19 -106 91c0 65 66 109 134 119v515h29v-525h-1c-65 0 -134 -42 -134 -103c0 -59 56 -73 83 -73c12 0 30 1 47 9z" />
    <glyph glyph-name="uniF688" unicode="&#xf688;" horiz-adv-x="285" 
d="M192 525v-411c0 -73 -25 -121 -106 -121c-31 0 -58 11 -72 23l11 23c13 -9 35 -17 57 -17c68 0 80 43 80 95v408h30zM173 732l138 -112l-16 -18l-124 101l-126 -101l-16 18l140 112h4z" />
    <glyph glyph-name="uniF689" unicode="&#xf689;" horiz-adv-x="508" 
d="M473 525l-275 -249l284 -276h-43l-281 274l273 251h42zM93 0v525h29v-525h-29zM224 -76l20 12c23 -2 40 -21 40 -50c0 -51 -29 -74 -70 -87l-8 15c33 13 50 33 50 66c0 28 -14 40 -32 44z" />
    <glyph glyph-name="uniF68A" unicode="&#xf68a;" horiz-adv-x="448" 
d="M93 0v525h29v-496h310v-29h-339zM290 731l-116 -137l-16 15l114 142z" />
    <glyph glyph-name="uniF68B" unicode="&#xf68b;" horiz-adv-x="448" 
d="M93 0v525h29v-496h310v-29h-339zM305 525h28c5 -10 9 -22 9 -42c0 -63 -30 -106 -65 -123l-12 15c30 19 50 59 50 105c0 19 -4 34 -10 45z" />
    <glyph glyph-name="uniF68C" unicode="&#xf68c;" horiz-adv-x="448" 
d="M93 0v525h29v-496h310v-29h-339zM232 -76l20 12c23 -2 40 -21 40 -50c0 -51 -29 -74 -70 -87l-8 15c33 13 50 33 50 66c0 28 -14 40 -32 44z" />
    <glyph glyph-name="uniF68D" unicode="&#xf68d;" horiz-adv-x="448" 
d="M93 0v525h29v-496h310v-29h-339zM311 287c0 11 11 22 25 22c12 0 23 -11 23 -22c0 -13 -11 -25 -23 -25c-14 0 -25 12 -25 25z" />
    <glyph glyph-name="uniF68E" unicode="&#xf68e;" horiz-adv-x="645" 
d="M552 0h-24l-407 475v-475h-28v525h23l408 -476v476h28v-525zM426 731l-116 -137l-16 15l114 142z" />
    <glyph glyph-name="uniF68F" unicode="&#xf68f;" horiz-adv-x="645" 
d="M552 0h-24l-407 475v-475h-28v525h23l408 -476v476h28v-525zM320 603l-130 112l15 17l117 -101l116 101l15 -17l-129 -112h-4z" />
    <glyph glyph-name="uniF690" unicode="&#xf690;" horiz-adv-x="645" 
d="M552 0h-24l-407 475v-475h-28v525h23l408 -476v476h28v-525zM283 -76l20 12c23 -2 40 -21 40 -50c0 -51 -29 -74 -70 -87l-8 15c33 13 50 33 50 66c0 28 -14 40 -32 44z" />
    <glyph glyph-name="uniF692" unicode="&#xf692;" horiz-adv-x="647" 
d="M46 263c0 152 119 268 277 268s278 -114 278 -268s-120 -270 -278 -270c-157 0 -277 114 -277 270zM77 263c0 -138 107 -242 246 -242c143 0 247 104 247 242s-107 240 -247 240c-139 0 -246 -102 -246 -240zM498 734l-117 -139l-16 11l113 144zM351 736l-111 -141
l-17 11l108 146z" />
    <glyph glyph-name="uniF693" unicode="&#xf693;" horiz-adv-x="647" 
d="M46 263c0 152 119 268 277 268s278 -114 278 -268s-120 -270 -278 -270c-157 0 -277 114 -277 270zM77 263c0 -138 107 -242 246 -242c143 0 247 104 247 242s-107 240 -247 240c-139 0 -246 -102 -246 -240zM202 666v24h242v-24h-242z" />
    <glyph glyph-name="uniF695" unicode="&#xf695;" horiz-adv-x="502" 
d="M122 0h-29v525c31 0 100 2 123 2c157 0 198 -73 198 -150c0 -73 -55 -131 -139 -147l199 -230h-38l-191 223h-123v-223zM217 499c-17 0 -71 -1 -95 -2v-246h108c75 0 153 52 153 126c0 69 -42 122 -166 122zM323 731l-116 -137l-16 15l114 142z" />
    <glyph glyph-name="uniF696" unicode="&#xf696;" horiz-adv-x="502" 
d="M122 0h-29v525c31 0 100 2 123 2c157 0 198 -73 198 -150c0 -73 -55 -131 -139 -147l199 -230h-38l-191 223h-123v-223zM217 499c-17 0 -71 -1 -95 -2v-246h108c75 0 153 52 153 126c0 69 -42 122 -166 122zM214 603l-130 112l15 17l117 -101l116 101l15 -17l-129 -112
h-4z" />
    <glyph glyph-name="uniF697" unicode="&#xf697;" horiz-adv-x="502" 
d="M122 0h-29v525c31 0 100 2 123 2c157 0 198 -73 198 -150c0 -73 -55 -131 -139 -147l199 -230h-38l-191 223h-123v-223zM217 499c-17 0 -71 -1 -95 -2v-246h108c75 0 153 52 153 126c0 69 -42 122 -166 122zM232 -76l20 12c23 -2 40 -21 40 -50c0 -51 -29 -74 -70 -87
l-8 15c33 13 50 33 50 66c0 28 -14 40 -32 44z" />
    <glyph glyph-name="uniF698" unicode="&#xf698;" horiz-adv-x="462" 
d="M385 130c0 158 -325 95 -325 272c0 73 60 129 176 129c59 0 131 -22 162 -56l-15 -21c-34 33 -97 49 -150 49c-86 0 -142 -40 -142 -101c0 -153 325 -86 325 -273c0 -84 -81 -136 -175 -136c-88 0 -160 29 -197 72l19 20c39 -38 99 -64 178 -64c69 0 144 36 144 109z
M339 731l-116 -137l-16 15l114 142z" />
    <glyph glyph-name="uniF699" unicode="&#xf699;" horiz-adv-x="462" 
d="M145 -178l10 17c25 -13 51 -20 73 -20c47 0 81 21 81 54s-22 54 -82 54h-6v67c-79 4 -143 31 -177 71l19 20c39 -38 99 -64 178 -64c69 0 144 36 144 109c0 158 -325 95 -325 272c0 73 60 129 176 129c59 0 131 -22 162 -56l-15 -21c-34 33 -97 49 -150 49
c-86 0 -142 -40 -142 -101c0 -153 325 -86 325 -273c0 -84 -81 -136 -175 -136h-1v-49c69 -1 97 -29 97 -72s-40 -73 -106 -73c-34 0 -59 10 -86 23z" />
    <glyph glyph-name="uniF69A" unicode="&#xf69a;" horiz-adv-x="462" 
d="M385 130c0 158 -325 95 -325 272c0 73 60 129 176 129c59 0 131 -22 162 -56l-15 -21c-34 33 -97 49 -150 49c-86 0 -142 -40 -142 -101c0 -153 325 -86 325 -273c0 -84 -81 -136 -175 -136c-88 0 -160 29 -197 72l19 20c39 -38 99 -64 178 -64c69 0 144 36 144 109z
M233 732l138 -112l-16 -18l-124 101l-126 -101l-16 18l140 112h4z" />
    <glyph glyph-name="uniF69B" unicode="&#xf69b;" horiz-adv-x="462" 
d="M385 130c0 158 -325 95 -325 272c0 73 60 129 176 129c59 0 131 -22 162 -56l-15 -21c-34 33 -97 49 -150 49c-86 0 -142 -40 -142 -101c0 -153 325 -86 325 -273c0 -84 -81 -136 -175 -136c-88 0 -160 29 -197 72l19 20c39 -38 99 -64 178 -64c69 0 144 36 144 109z
M213 -76l20 12c23 -2 40 -21 40 -50c0 -51 -29 -74 -70 -87l-8 15c33 13 50 33 50 66c0 28 -14 40 -32 44z" />
    <glyph glyph-name="uniF69D" unicode="&#xf69d;" horiz-adv-x="477" 
d="M8 497v28h461v-28h-216v-497h-29v497h-216zM238 603l-130 112l15 17l117 -101l116 101l15 -17l-129 -112h-4z" />
    <glyph glyph-name="uniF69E" unicode="&#xf69e;" horiz-adv-x="477" 
d="M8 497v28h461v-28h-216v-497h-29v497h-216zM221 -76l20 12c23 -2 40 -21 40 -50c0 -51 -29 -74 -70 -87l-8 15c33 13 50 33 50 66c0 28 -14 40 -32 44z" />
    <glyph glyph-name="uniF69F" unicode="&#xf69f;" horiz-adv-x="607" 
d="M522 525v-305c0 -160 -99 -226 -212 -226c-128 0 -225 78 -225 231v300h29v-295c0 -134 82 -208 196 -208c104 0 182 63 182 205v298h30zM171 707l14 15c20 -25 57 -68 121 -68c55 0 93 35 119 67l12 -14c-27 -37 -66 -77 -132 -77c-75 0 -118 51 -134 77z" />
    <glyph glyph-name="uniF6A0" unicode="&#xf6a0;" horiz-adv-x="607" 
d="M522 525v-305c0 -160 -99 -226 -212 -226c-128 0 -225 78 -225 231v300h29v-295c0 -134 82 -208 196 -208c104 0 182 63 182 205v298h30zM479 734l-117 -139l-16 11l113 144zM332 736l-111 -141l-17 11l108 146z" />
    <glyph glyph-name="uniF6A1" unicode="&#xf6a1;" horiz-adv-x="607" 
d="M522 525v-305c0 -160 -99 -226 -212 -226c-128 0 -225 78 -225 231v300h29v-295c0 -134 82 -208 196 -208c104 0 182 63 182 205v298h30zM182 666v24h242v-24h-242z" />
    <glyph glyph-name="uniF6A2" unicode="&#xf6a2;" horiz-adv-x="607" 
d="M522 525v-305c0 -121 -56 -188 -133 -214c-52 -28 -95 -60 -95 -109c0 -59 56 -73 83 -73c12 0 30 1 47 9l9 -19c-17 -9 -41 -14 -61 -14c-43 0 -106 19 -106 91c0 56 43 85 85 106c-14 -2 -27 -3 -41 -3c-128 0 -225 78 -225 231v300h29v-295c0 -134 82 -208 196 -208
c104 0 182 63 182 205v298h30z" />
    <glyph glyph-name="uniF6A3" unicode="&#xf6a3;" horiz-adv-x="607" 
d="M522 525v-305c0 -160 -99 -226 -212 -226c-128 0 -225 78 -225 231v300h29v-295c0 -134 82 -208 196 -208c104 0 182 63 182 205v298h30zM205 655c0 53 43 97 98 97s99 -44 99 -97c0 -54 -44 -97 -99 -97s-98 43 -98 97zM226 655c0 -44 33 -78 77 -78c43 0 78 34 78 78
c0 43 -35 78 -78 78c-44 0 -77 -35 -77 -78z" />
    <glyph glyph-name="uniF6AB" unicode="&#xf6ab;" horiz-adv-x="504" 
d="M48 497v28h416v-17l-387 -480h395v-28h-440v17l387 480h-371zM358 731l-116 -137l-16 15l114 142z" />
    <glyph glyph-name="uniF6AC" unicode="&#xf6ac;" horiz-adv-x="504" 
d="M48 497v28h416v-17l-387 -480h395v-28h-440v17l387 480h-371zM230 671c0 12 11 21 23 21c11 0 21 -9 21 -21c0 -14 -10 -23 -21 -23c-12 0 -23 9 -23 23z" />
    <glyph glyph-name="uniF6AD" unicode="&#xf6ad;" horiz-adv-x="257" 
d="M114 0v525h29v-525h-29zM107 671c0 12 11 21 23 21c11 0 21 -9 21 -21c0 -14 -10 -23 -21 -23c-12 0 -23 9 -23 23z" />
    <glyph glyph-name="uniF6BA" unicode="&#xf6ba;" horiz-adv-x="407" 
d="M93 340v27h221v-27h-221z" />
    <glyph glyph-name="uniF6BB" unicode="&#xf6bb;" horiz-adv-x="587" 
d="M97 341v26h392v-26h-392z" />
    <glyph glyph-name="uniF6BC" unicode="&#xf6bc;" horiz-adv-x="789" 
d="M97 341v26h595v-26h-595z" />
    <glyph glyph-name="uniF6C3" unicode="&#xf6c3;" horiz-adv-x="198" 
d="M78 -76l20 12c23 -2 40 -21 40 -50c0 -51 -29 -74 -70 -87l-8 15c33 13 50 33 50 66c0 28 -14 40 -32 44z" />
    <glyph glyph-name="uniF6C9" unicode="&#xf6c9;" horiz-adv-x="296" 
d="M236 829l-167 -89l-9 18l165 94z" />
    <glyph glyph-name="uniF6CA" unicode="&#xf6ca;" horiz-adv-x="457" 
d="M227 742l-167 93l13 17l156 -85l154 85l14 -17l-166 -93h-4z" />
    <glyph glyph-name="uniF6CB" unicode="&#xf6cb;" horiz-adv-x="400" 
d="M60 796c0 13 11 21 24 21c12 0 23 -8 23 -21c0 -14 -11 -22 -23 -22c-13 0 -24 8 -24 22zM294 796c0 13 11 21 24 21c11 0 22 -8 22 -21c0 -14 -11 -22 -22 -22c-13 0 -24 8 -24 22z" />
    <glyph glyph-name="uniF6CE" unicode="&#xf6ce;" horiz-adv-x="296" 
d="M226 740l-166 89l11 23l165 -94z" />
    <glyph glyph-name="uniF6CF" unicode="&#xf6cf;" horiz-adv-x="465" 
d="M405 833l-160 -93l-13 14l156 98zM229 837l-156 -97l-13 14l148 98z" />
    <glyph glyph-name="uniF6D0" unicode="&#xf6d0;" horiz-adv-x="417" 
d="M60 785v24h297v-24h-297z" />
    <glyph glyph-name="uniF6D1" unicode="&#xf6d1;" horiz-adv-x="453" 
d="M60 845h28c26 -42 75 -76 140 -76c63 0 120 32 137 76h28c-16 -58 -90 -99 -165 -99c-81 0 -146 43 -168 99z" />
    <glyph glyph-name="uniF6D4" unicode="&#xf6d4;" horiz-adv-x="376" 
d="M60 687h25c0 -53 41 -93 105 -93c60 0 101 40 101 93h25c0 -67 -53 -117 -126 -117c-81 0 -130 49 -130 117z" />
    <glyph glyph-name="uniF6DC" unicode="&#xf6dc;" 
d="M159 584l152 123h18v-707h-28v664l-126 -102z" />
    <glyph glyph-name="uniF6DE" unicode="&#xf6de;" horiz-adv-x="591" 
d="M73 257v26h446v-26h-446z" />
    <glyph glyph-name="uniF6F4" unicode="&#xf6f4;" horiz-adv-x="386" 
d="M60 707l14 15c20 -25 57 -68 121 -68c55 0 93 35 119 67l12 -14c-27 -37 -66 -77 -132 -77c-75 0 -118 51 -134 77z" />
    <glyph glyph-name="uniF6F5" unicode="&#xf6f5;" horiz-adv-x="383" 
d="M190 603l-130 112l15 17l117 -101l116 101l15 -17l-129 -112h-4z" />
    <glyph glyph-name="uniF6F6" unicode="&#xf6f6;" horiz-adv-x="402" 
d="M204 732l138 -112l-16 -18l-124 101l-126 -101l-16 18l140 112h4z" />
    <glyph glyph-name="uniF6F7" unicode="&#xf6f7;" horiz-adv-x="164" 
d="M60 671c0 12 11 21 23 21c11 0 21 -9 21 -21c0 -14 -10 -23 -21 -23c-12 0 -23 9 -23 23z" />
    <glyph glyph-name="uniF6F8" unicode="&#xf6f8;" horiz-adv-x="395" 
d="M335 734l-117 -139l-16 11l113 144zM188 736l-111 -141l-17 11l108 146z" />
    <glyph glyph-name="uniF6F9" unicode="&#xf6f9;" horiz-adv-x="448" 
d="M20 172v31l73 37v285h29v-270l127 66v-29l-127 -67v-196h310v-29h-339v210z" />
    <glyph glyph-name="uniF6FA" unicode="&#xf6fa;" horiz-adv-x="852" 
d="M471 0v32c-38 -24 -90 -39 -148 -39c-164 0 -277 106 -277 270c0 150 106 268 270 268c63 0 114 -13 155 -38v32h311v-28h-281v-216h256v-28h-256v-225h289v-28h-319zM325 21c61 0 108 16 146 43v397c-41 29 -91 42 -152 42c-146 0 -242 -104 -242 -240
c0 -146 102 -242 248 -242z" />
    <glyph glyph-name="uniF6FB" unicode="&#xf6fb;" horiz-adv-x="287" 
d="M218 -167l9 -19c-17 -9 -41 -14 -61 -14c-43 0 -106 19 -106 91c0 74 85 121 162 121v-12c-65 0 -134 -42 -134 -103c0 -59 56 -73 83 -73c12 0 30 1 47 9z" />
    <glyph glyph-name="uniF6FC" unicode="&#xf6fc;" horiz-adv-x="317" 
d="M60 655c0 53 43 97 98 97s99 -44 99 -97c0 -54 -44 -97 -99 -97s-98 43 -98 97zM81 655c0 -44 33 -78 77 -78c43 0 78 34 78 78c0 43 -35 78 -78 78c-44 0 -77 -35 -77 -78z" />
    <glyph glyph-name="uniF6FD" unicode="&#xf6fd;" horiz-adv-x="462" 
d="M385 130c0 158 -325 95 -325 272c0 73 60 129 176 129c59 0 131 -22 162 -56l-15 -21c-34 33 -97 49 -150 49c-86 0 -142 -40 -142 -101c0 -153 325 -86 325 -273c0 -84 -81 -136 -175 -136c-88 0 -160 29 -197 72l19 20c39 -38 99 -64 178 -64c69 0 144 36 144 109z
M229 603l-130 112l15 17l117 -101l116 101l15 -17l-129 -112h-4z" />
    <glyph glyph-name="uniF6FE" unicode="&#xf6fe;" horiz-adv-x="410" 
d="M73 627l-13 15c38 34 68 46 93 46c47 0 68 -48 109 -48c21 0 43 11 76 41l12 -16c-37 -36 -67 -49 -91 -49c-44 0 -65 48 -110 48c-20 0 -44 -11 -76 -37z" />
    <glyph glyph-name="uniF6FF" unicode="&#xf6ff;" horiz-adv-x="504" 
d="M48 497v28h416v-17l-387 -480h395v-28h-440v17l387 480h-371zM249 603l-130 112l15 17l117 -101l116 101l15 -17l-129 -112h-4z" />
    <glyph glyph-name="uniF730" unicode="&#xf730;" horiz-adv-x="620" 
d="M57 250c0 135 96 259 253 259s253 -124 253 -259s-96 -259 -253 -259s-253 124 -253 259zM87 250c0 -121 85 -230 223 -230c139 0 223 109 223 230c0 122 -85 230 -223 230s-223 -108 -223 -230z" />
    <glyph glyph-name="uniF731" unicode="&#xf731;" horiz-adv-x="364" 
d="M55 392l150 116h18v-508h-30v469l-126 -101z" />
    <glyph glyph-name="uniF732" unicode="&#xf732;" horiz-adv-x="529" 
d="M56 0v23c126 50 346 161 346 312c0 84 -48 146 -150 146c-65 0 -148 -37 -163 -137l-21 12c14 103 107 154 182 154c128 0 181 -77 181 -171c0 -170 -237 -281 -313 -311h347v-28h-409z" />
    <glyph glyph-name="uniF733" unicode="&#xf733;" horiz-adv-x="534" 
d="M251 -209c-82 0 -161 34 -198 123l19 18c36 -83 113 -112 182 -112c107 0 175 73 175 169c0 92 -72 155 -160 155h-64v28h57c69 0 140 69 140 160c0 98 -62 148 -151 148s-136 -45 -161 -104l-18 15c25 74 94 118 180 118c112 0 179 -66 179 -176
c0 -70 -40 -142 -113 -170v-3c88 -12 140 -91 140 -171c0 -121 -88 -198 -207 -198z" />
    <glyph glyph-name="uniF734" unicode="&#xf734;" horiz-adv-x="528" 
d="M354 -200v200h-327v16l317 484h32l-309 -472h287v228h28v-228h108v-28h-108v-200h-28z" />
    <glyph glyph-name="uniF735" unicode="&#xf735;" horiz-adv-x="520" 
d="M126 178l41 322h293v-28h-269l-34 -262c20 6 49 12 79 12c131 0 222 -83 222 -209c0 -137 -98 -222 -207 -222c-76 0 -155 34 -198 115l19 19c39 -73 114 -105 179 -105c100 0 178 81 178 192c0 104 -81 184 -201 184c-37 0 -76 -9 -102 -18z" />
    <glyph glyph-name="uniF736" unicode="&#xf736;" horiz-adv-x="547" 
d="M57 248c0 257 178 428 334 461l13 -22c-140 -31 -290 -163 -315 -393c27 71 95 133 196 133c126 0 205 -89 205 -216c0 -125 -96 -220 -201 -220c-156 0 -232 121 -232 257zM87 249c0 -117 65 -229 201 -229c94 0 173 85 173 189c0 105 -62 191 -183 191
c-111 0 -176 -84 -191 -151z" />
    <glyph glyph-name="uniF737" unicode="&#xf737;" horiz-adv-x="466" 
d="M37 472v28h391v-15l-274 -685h-32l269 672h-354z" />
    <glyph glyph-name="uniF738" unicode="&#xf738;" horiz-adv-x="588" 
d="M276 374h36c68 0 144 64 144 152c0 99 -82 154 -164 154c-81 0 -161 -56 -161 -154c0 -88 77 -152 145 -152zM310 346h-29c-95 0 -175 -70 -175 -161c0 -97 88 -165 187 -165c101 0 189 63 189 165c0 101 -80 161 -172 161zM294 -9c-111 0 -218 71 -218 190
c0 82 57 158 151 177v3c-73 19 -125 96 -125 166c0 110 86 182 191 182s193 -72 193 -182c0 -68 -47 -139 -126 -165v-3c89 -10 151 -83 151 -176c0 -121 -106 -192 -217 -192z" />
    <glyph glyph-name="uniF739" unicode="&#xf739;" horiz-adv-x="546" 
d="M489 251c0 -259 -145 -431 -337 -460l-11 23c173 30 301 170 316 390c-27 -70 -95 -124 -195 -124c-127 0 -207 98 -207 213c0 125 106 216 210 216c156 0 224 -120 224 -258zM459 250c0 116 -56 230 -192 230c-94 0 -183 -81 -183 -185c0 -96 63 -188 184 -188
c111 0 176 76 191 143z" />
    <glyph glyph-name="uniF760" unicode="&#xf760;" horiz-adv-x="252" 
d="M176 594l-116 137l18 20l114 -142z" />
    <glyph glyph-name="uniF761" unicode="&#xf761;" horiz-adv-x="560" 
d="M21 0l248 530h22l248 -530h-32l-88 189h-280l-88 -189h-30zM279 491l-128 -275h255z" />
    <glyph glyph-name="uniF762" unicode="&#xf762;" horiz-adv-x="502" 
d="M93 0v525c31 0 102 2 148 2c135 0 176 -57 176 -129c0 -73 -55 -116 -119 -125v-1c92 -9 142 -52 142 -127c0 -104 -85 -147 -199 -147c-46 0 -115 2 -148 2zM244 256h-122v-228c25 0 82 -2 119 -2c106 0 170 38 170 120c0 70 -60 110 -167 110zM240 499
c-38 0 -93 -1 -118 -2v-215h126c76 0 140 43 140 110c0 70 -43 107 -148 107z" />
    <glyph glyph-name="uniF763" unicode="&#xf763;" horiz-adv-x="530" 
d="M487 73l12 -23c-40 -36 -109 -57 -173 -57c-167 0 -280 106 -280 270c0 149 106 268 272 268c70 0 126 -16 171 -48l-16 -22c-41 30 -92 42 -154 42c-146 0 -242 -104 -242 -240c0 -146 102 -242 251 -242c63 0 119 21 159 52z" />
    <glyph glyph-name="uniF764" unicode="&#xf764;" horiz-adv-x="594" 
d="M93 0v525h9c42 0 77 2 130 2c225 0 316 -118 316 -257c0 -151 -108 -272 -323 -272c-43 0 -82 2 -127 2h-5zM230 499c-47 0 -71 -2 -108 -2v-469c51 0 101 -2 104 -2c194 0 291 108 291 244c0 126 -83 229 -287 229z" />
    <glyph glyph-name="uniF765" unicode="&#xf765;" horiz-adv-x="474" 
d="M93 0v525h311v-28h-282v-216h258v-28h-258v-225h290v-28h-319z" />
    <glyph glyph-name="uniF766" unicode="&#xf766;" horiz-adv-x="441" 
d="M93 0v525h316v-28h-287v-231h262v-28h-262v-238h-29z" />
    <glyph glyph-name="uniF767" unicode="&#xf767;" horiz-adv-x="587" 
d="M332 220v27h201v-182c-50 -46 -141 -72 -211 -72c-164 0 -276 106 -276 270c0 150 109 268 272 268c72 0 126 -15 172 -48l-14 -23c-41 30 -94 43 -155 43c-147 0 -244 -103 -244 -240c0 -147 101 -242 246 -242c66 0 140 22 182 59v140h-173z" />
    <glyph glyph-name="uniF768" unicode="&#xf768;" horiz-adv-x="626" 
d="M504 0v254h-382v-254h-29v525h29v-243h382v243h29v-525h-29z" />
    <glyph glyph-name="uniF769" unicode="&#xf769;" horiz-adv-x="257" 
d="M114 0v525h29v-525h-29z" />
    <glyph glyph-name="uniF76A" unicode="&#xf76a;" horiz-adv-x="285" 
d="M192 525v-411c0 -73 -25 -121 -106 -121c-31 0 -58 11 -72 23l11 23c13 -9 35 -17 57 -17c68 0 80 43 80 95v408h30z" />
    <glyph glyph-name="uniF76B" unicode="&#xf76b;" horiz-adv-x="508" 
d="M473 525l-275 -249l284 -276h-43l-281 274l273 251h42zM93 0v525h29v-525h-29z" />
    <glyph glyph-name="uniF76C" unicode="&#xf76c;" horiz-adv-x="448" 
d="M93 0v525h29v-496h310v-29h-339z" />
    <glyph glyph-name="uniF76D" unicode="&#xf76d;" horiz-adv-x="710" 
d="M93 0v525h30l237 -297l228 297h29v-525h-30v481l-227 -295h-4l-234 292v-478h-29z" />
    <glyph glyph-name="uniF76E" unicode="&#xf76e;" horiz-adv-x="645" 
d="M552 0h-24l-407 475v-475h-28v525h23l408 -476v476h28v-525z" />
    <glyph glyph-name="uniF76F" unicode="&#xf76f;" horiz-adv-x="647" 
d="M46 263c0 152 119 268 277 268s278 -114 278 -268s-120 -270 -278 -270c-157 0 -277 114 -277 270zM77 263c0 -138 107 -242 246 -242c143 0 247 104 247 242s-107 240 -247 240c-139 0 -246 -102 -246 -240z" />
    <glyph glyph-name="uniF770" unicode="&#xf770;" horiz-adv-x="466" 
d="M122 0h-29v525c31 0 101 2 131 2c155 0 197 -80 197 -158c0 -82 -57 -161 -200 -161c-29 0 -64 2 -99 4v-212zM227 499c-27 0 -80 -1 -105 -2v-257c34 -2 64 -4 98 -4c116 0 170 58 170 133c0 73 -45 130 -163 130z" />
    <glyph glyph-name="uniF771" unicode="&#xf771;" horiz-adv-x="647" 
d="M46 263c0 152 119 268 277 268s278 -114 278 -268c0 -83 -35 -155 -92 -204l53 -59h-36l-38 43c-46 -32 -102 -50 -165 -50c-157 0 -277 114 -277 270zM77 263c0 -138 107 -242 246 -242c56 0 105 16 145 43l-49 56l20 18l51 -57c50 43 80 108 80 182
c0 138 -107 240 -247 240c-139 0 -246 -102 -246 -240z" />
    <glyph glyph-name="uniF772" unicode="&#xf772;" horiz-adv-x="502" 
d="M122 0h-29v525c31 0 100 2 123 2c157 0 198 -73 198 -150c0 -73 -55 -131 -139 -147l199 -230h-38l-191 223h-123v-223zM217 499c-17 0 -71 -1 -95 -2v-246h108c75 0 153 52 153 126c0 69 -42 122 -166 122z" />
    <glyph glyph-name="uniF773" unicode="&#xf773;" horiz-adv-x="462" 
d="M385 130c0 158 -325 95 -325 272c0 73 60 129 176 129c59 0 131 -22 162 -56l-15 -21c-34 33 -97 49 -150 49c-86 0 -142 -40 -142 -101c0 -153 325 -86 325 -273c0 -84 -81 -136 -175 -136c-88 0 -160 29 -197 72l19 20c39 -38 99 -64 178 -64c69 0 144 36 144 109z" />
    <glyph glyph-name="uniF774" unicode="&#xf774;" horiz-adv-x="477" 
d="M8 497v28h461v-28h-216v-497h-29v497h-216z" />
    <glyph glyph-name="uniF775" unicode="&#xf775;" horiz-adv-x="607" 
d="M522 525v-305c0 -160 -99 -226 -212 -226c-128 0 -225 78 -225 231v300h29v-295c0 -134 82 -208 196 -208c104 0 182 63 182 205v298h30z" />
    <glyph glyph-name="uniF776" unicode="&#xf776;" horiz-adv-x="530" 
d="M518 525l-240 -530h-20l-246 530h33l224 -487l217 487h32z" />
    <glyph glyph-name="uniF777" unicode="&#xf777;" horiz-adv-x="767" 
d="M753 525l-165 -525h-24l-178 474l-174 -474h-25l-173 525h33l154 -472l173 472h25l177 -473l148 473h29z" />
    <glyph glyph-name="uniF778" unicode="&#xf778;" horiz-adv-x="530" 
d="M496 525l-212 -258l220 -267h-37l-203 244l-201 -244h-37l220 267l-211 258h37l193 -235l195 235h36z" />
    <glyph glyph-name="uniF779" unicode="&#xf779;" horiz-adv-x="462" 
d="M448 525l-203 -293v-232h-30v232l-201 293h36l181 -265l183 265h34z" />
    <glyph glyph-name="uniF77A" unicode="&#xf77a;" horiz-adv-x="504" 
d="M48 497v28h416v-17l-387 -480h395v-28h-440v17l387 480h-371z" />
    <glyph glyph-name="uniF7A8" unicode="&#xf7a8;" horiz-adv-x="337" 
d="M60 667c0 11 10 20 22 20c10 0 20 -9 20 -20c0 -13 -10 -22 -20 -22c-12 0 -22 9 -22 22zM235 667c0 11 10 20 22 20c10 0 20 -9 20 -20c0 -13 -10 -22 -20 -22c-12 0 -22 9 -22 22z" />
    <glyph glyph-name="uniF7AF" unicode="&#xf7af;" horiz-adv-x="362" 
d="M60 666v24h242v-24h-242z" />
    <glyph glyph-name="uniF7B4" unicode="&#xf7b4;" horiz-adv-x="252" 
d="M192 731l-116 -137l-16 15l114 142z" />
    <glyph glyph-name="uniF7B8" unicode="&#xf7b8;" horiz-adv-x="312" 
d="M60 -178l10 17c25 -13 51 -20 73 -20c47 0 81 21 81 54s-22 54 -82 54h-6v73h19v-56c69 -1 97 -29 97 -72s-40 -73 -106 -73c-34 0 -59 10 -86 23z" />
    <glyph glyph-name="uniF7E0" unicode="&#xf7e0;" horiz-adv-x="560" 
d="M21 0l248 530h22l248 -530h-32l-88 189h-280l-88 -189h-30zM279 491l-128 -275h255zM305 594l-116 137l18 20l114 -142z" />
    <glyph glyph-name="uniF7E1" unicode="&#xf7e1;" horiz-adv-x="560" 
d="M21 0l248 530h22l248 -530h-32l-88 189h-280l-88 -189h-30zM279 491l-128 -275h255zM378 731l-116 -137l-16 15l114 142z" />
    <glyph glyph-name="uniF7E2" unicode="&#xf7e2;" horiz-adv-x="560" 
d="M21 0l248 530h22l248 -530h-32l-88 189h-280l-88 -189h-30zM279 491l-128 -275h255zM283 732l138 -112l-16 -18l-124 101l-126 -101l-16 18l140 112h4z" />
    <glyph glyph-name="uniF7E3" unicode="&#xf7e3;" horiz-adv-x="560" 
d="M21 0l248 530h22l248 -530h-32l-88 189h-280l-88 -189h-30zM279 491l-128 -275h255zM148 627l-13 15c38 34 68 46 93 46c47 0 68 -48 109 -48c21 0 43 11 76 41l12 -16c-37 -36 -67 -49 -91 -49c-44 0 -65 48 -110 48c-20 0 -44 -11 -76 -37z" />
    <glyph glyph-name="uniF7E4" unicode="&#xf7e4;" horiz-adv-x="560" 
d="M21 0l248 530h22l248 -530h-32l-88 189h-280l-88 -189h-30zM279 491l-128 -275h255zM171 667c0 11 10 20 22 20c10 0 20 -9 20 -20c0 -13 -10 -22 -20 -22c-12 0 -22 9 -22 22zM346 667c0 11 10 20 22 20c10 0 20 -9 20 -20c0 -13 -10 -22 -20 -22c-12 0 -22 9 -22 22z
" />
    <glyph glyph-name="uniF7E5" unicode="&#xf7e5;" horiz-adv-x="560" 
d="M21 0l248 530h22l248 -530h-32l-88 189h-280l-88 -189h-30zM279 491l-128 -275h255zM182 657c0 53 43 97 98 97s99 -44 99 -97c0 -54 -44 -97 -99 -97s-98 43 -98 97zM203 657c0 -44 33 -78 77 -78c43 0 78 34 78 78c0 43 -35 78 -78 78c-44 0 -77 -35 -77 -78z" />
    <glyph glyph-name="uniF7E6" unicode="&#xf7e6;" horiz-adv-x="783" 
d="M405 0v193h-222l-148 -193h-34l169 220l236 305h307v-28h-279v-216h254v-28h-254v-225h287v-28h-316zM405 481l-200 -260h200v260z" />
    <glyph glyph-name="uniF7E7" unicode="&#xf7e7;" horiz-adv-x="530" 
d="M214 -178l10 17c25 -13 51 -20 73 -20c47 0 81 21 81 54s-22 54 -82 54h-6v68c-147 14 -244 116 -244 268c0 149 106 268 272 268c70 0 126 -16 171 -48l-16 -22c-41 30 -92 42 -154 42c-146 0 -242 -104 -242 -240c0 -146 102 -242 251 -242c63 0 119 21 159 52l12 -23
c-40 -36 -109 -57 -173 -57c-6 0 -12 1 -17 1v-50c69 -1 97 -29 97 -72s-40 -73 -106 -73c-34 0 -59 10 -86 23z" />
    <glyph glyph-name="uniF7E8" unicode="&#xf7e8;" horiz-adv-x="474" 
d="M93 0v525h311v-28h-282v-216h258v-28h-258v-225h290v-28h-319zM273 594l-116 137l18 20l114 -142z" />
    <glyph glyph-name="uniF7E9" unicode="&#xf7e9;" horiz-adv-x="474" 
d="M93 0v525h311v-28h-282v-216h258v-28h-258v-225h290v-28h-319zM353 731l-116 -137l-16 15l114 142z" />
    <glyph glyph-name="uniF7EA" unicode="&#xf7ea;" horiz-adv-x="474" 
d="M93 0v525h311v-28h-282v-216h258v-28h-258v-225h290v-28h-319zM255 732l138 -112l-16 -18l-124 101l-126 -101l-16 18l140 112h4z" />
    <glyph glyph-name="uniF7EB" unicode="&#xf7eb;" horiz-adv-x="474" 
d="M93 0v525h311v-28h-282v-216h258v-28h-258v-225h290v-28h-319zM136 667c0 11 10 20 22 20c10 0 20 -9 20 -20c0 -13 -10 -22 -20 -22c-12 0 -22 9 -22 22zM311 667c0 11 10 20 22 20c10 0 20 -9 20 -20c0 -13 -10 -22 -20 -22c-12 0 -22 9 -22 22z" />
    <glyph glyph-name="uniF7EC" unicode="&#xf7ec;" horiz-adv-x="257" 
d="M114 0v525h29v-525h-29zM146 594l-116 137l18 20l114 -142z" />
    <glyph glyph-name="uniF7ED" unicode="&#xf7ed;" horiz-adv-x="257" 
d="M114 0v525h29v-525h-29zM238 731l-116 -137l-16 15l114 142z" />
    <glyph glyph-name="uniF7EE" unicode="&#xf7ee;" horiz-adv-x="257" 
d="M114 0v525h29v-525h-29zM132 732l138 -112l-16 -18l-124 101l-126 -101l-16 18l140 112h4z" />
    <glyph glyph-name="uniF7EF" unicode="&#xf7ef;" horiz-adv-x="257" 
d="M114 0v525h29v-525h-29zM20 667c0 11 10 20 22 20c10 0 20 -9 20 -20c0 -13 -10 -22 -20 -22c-12 0 -22 9 -22 22zM195 667c0 11 10 20 22 20c10 0 20 -9 20 -20c0 -13 -10 -22 -20 -22c-12 0 -22 9 -22 22z" />
    <glyph glyph-name="uniF7F0" unicode="&#xf7f0;" horiz-adv-x="614" 
d="M8 256v27h104v242h9c43 0 78 2 133 2c223 0 314 -120 314 -257c0 -150 -108 -272 -320 -272c-47 0 -86 2 -130 2h-6v256h-104zM253 499c-49 0 -74 -2 -111 -2v-214h165v-27h-165v-228c51 0 102 -2 105 -2c193 0 290 109 290 244c0 126 -83 229 -284 229z" />
    <glyph glyph-name="uniF7F1" unicode="&#xf7f1;" horiz-adv-x="645" 
d="M552 0h-24l-407 475v-475h-28v525h23l408 -476v476h28v-525zM188 627l-13 15c38 34 68 46 93 46c47 0 68 -48 109 -48c21 0 43 11 76 41l12 -16c-37 -36 -67 -49 -91 -49c-44 0 -65 48 -110 48c-20 0 -44 -11 -76 -37z" />
    <glyph glyph-name="uniF7F2" unicode="&#xf7f2;" horiz-adv-x="647" 
d="M46 263c0 152 119 268 277 268s278 -114 278 -268s-120 -270 -278 -270c-157 0 -277 114 -277 270zM77 263c0 -138 107 -242 246 -242c143 0 247 104 247 242s-107 240 -247 240c-139 0 -246 -102 -246 -240zM341 594l-116 137l18 20l114 -142z" />
    <glyph glyph-name="uniF7F3" unicode="&#xf7f3;" horiz-adv-x="647" 
d="M46 263c0 152 119 268 277 268s278 -114 278 -268s-120 -270 -278 -270c-157 0 -277 114 -277 270zM77 263c0 -138 107 -242 246 -242c143 0 247 104 247 242s-107 240 -247 240c-139 0 -246 -102 -246 -240zM425 731l-116 -137l-16 15l114 142z" />
    <glyph glyph-name="uniF7F4" unicode="&#xf7f4;" horiz-adv-x="647" 
d="M46 263c0 152 119 268 277 268s278 -114 278 -268s-120 -270 -278 -270c-157 0 -277 114 -277 270zM77 263c0 -138 107 -242 246 -242c143 0 247 104 247 242s-107 240 -247 240c-139 0 -246 -102 -246 -240zM327 732l138 -112l-16 -18l-124 101l-126 -101l-16 18
l140 112h4z" />
    <glyph glyph-name="uniF7F5" unicode="&#xf7f5;" horiz-adv-x="647" 
d="M46 263c0 152 119 268 277 268s278 -114 278 -268s-120 -270 -278 -270c-157 0 -277 114 -277 270zM77 263c0 -138 107 -242 246 -242c143 0 247 104 247 242s-107 240 -247 240c-139 0 -246 -102 -246 -240zM192 627l-13 15c38 34 68 46 93 46c47 0 68 -48 109 -48
c21 0 43 11 76 41l12 -16c-37 -36 -67 -49 -91 -49c-44 0 -65 48 -110 48c-20 0 -44 -11 -76 -37z" />
    </font>
</defs>
</svg>
