<?xml version="1.0" standalone="no"?>
<!DOCTYPE svg PUBLIC "-//W3C//DTD SVG 1.1//EN" "http://www.w3.org/Graphics/SVG/1.1/DTD/svg11.dtd" >
<svg xmlns="http://www.w3.org/2000/svg" xmlns:xlink="http://www.w3.org/1999/xlink" version="1.1">
<metadata>
Created by FontForge 20141024 at Fri Mar 27 11:03:25 2015
 By System Administrator
Circe is a geometric sans-serif with some humanist features in 6 weights from Thin to Extra Bold. Name of the font derives from both its geometric shapes and artificial, kinky nature. While being clean and simple in its basic form, Circe can become more intricate with its numerous decorative variations of characters, tempting and challenging the designer to use more and more of them and finally -- probably -- making him look foolish like the sailors who got to Circe's island. Its oversized character set not only allows using Circe for almost all European languages (based on Latin and Cyrillic scripts) but also contains a lot of alternates and swash variants organized in stylistic sets which make the font look in several completely different ways. Circe is good for both text setting in small point sizes and display purposes, such as magazine headlines, posters and so on. Designed by Alexandra Korolkova and released by ParaType in 2011.
</metadata>
<defs>
<font id="Circe-Regular" horiz-adv-x="592" >
  <font-face 
    font-family="Circe"
    font-weight="400"
    font-stretch="normal"
    units-per-em="1000"
    panose-1="2 11 5 2 2 2 3 2 2 3"
    ascent="773"
    descent="-227"
    x-height="450"
    cap-height="700"
    bbox="-534 -392 1681 1005"
    underline-thickness="50"
    underline-position="-50"
    stemh="80"
    stemv="85"
    unicode-range="U+0020-FB02"
  />
<missing-glyph horiz-adv-x="225" 
 />
    <glyph glyph-name="uniF350.var.accented" unicode="&#xf350;`" horiz-adv-x="590" 
d="M12 0l246 528h74l246 -528h-91l-64 140h-261l-64 -140h-86zM293 426l-95 -206h189zM409 705l-135 -125l-40 44l126 142z" />
    <glyph glyph-name="uniF355.var.accented" unicode="&#xf355;`" horiz-adv-x="488" 
d="M84 0v525h340v-80h-255v-140h230v-80h-230v-145h263v-80h-348zM367 705l-135 -125l-40 44l126 142z" />
    <glyph glyph-name="uniF358.var.accented" unicode="&#xf358;`" horiz-adv-x="656" 
d="M159 0h-75v525h85v-390l328 390h75v-525h-85v390zM437 705l-135 -125l-40 44l126 142z" />
    <glyph glyph-name="uniF35E.var.accented" unicode="&#xf35e;`" horiz-adv-x="655" 
d="M40 262c0 152 118 270 288 270c164 0 287 -108 287 -270c0 -158 -123 -271 -287 -271c-165 0 -288 108 -288 271zM130 262c0 -109 87 -191 198 -191c122 0 197 83 197 191c0 112 -86 190 -197 190c-113 0 -198 -78 -198 -190zM448 705l-135 -125l-40 44l126 142z" />
    <glyph glyph-name="uniF363.var.accented" unicode="&#xf363;`" horiz-adv-x="546" 
d="M536 525l-197 -401c-40 -81 -84 -124 -152 -124c-28 0 -54 9 -69 20l30 72c15 -9 27 -13 43 -13c31 0 48 24 61 48l10 18l-251 380h106l189 -296l143 296h87zM397 705l-135 -125l-40 44l126 142z" />
    <glyph glyph-name="uniF36B.var.accented" unicode="&#xf36b;`" horiz-adv-x="706" 
d="M537 0v525h85v-525h-85zM233 265c-17 0 -38 -1 -64 -3v-182c20 -1 39 -2 62 -2c85 0 131 32 131 97c0 59 -46 90 -129 90zM169 525v-183c28 2 53 3 71 3c144 0 212 -65 212 -168c0 -111 -86 -179 -231 -179c-52 0 -103 2 -137 2v525h85zM447 705l-135 -125l-40 44
l126 142z" />
    <glyph glyph-name="uniF36D.var.accented" unicode="&#xf36d;`" horiz-adv-x="557" 
d="M157 228v80h272c-18 93 -91 145 -205 145c-65 0 -116 -12 -157 -41l-34 64c42 32 112 57 195 57c170 0 290 -106 290 -270c0 -163 -117 -271 -299 -271c-79 0 -150 22 -193 55l37 71c39 -27 93 -46 166 -46c109 0 187 54 201 156h-273zM347 705l-135 -125l-40 44l126 142
z" />
    <glyph glyph-name="uniF36E.var.accented" unicode="&#xf36e;`" horiz-adv-x="871" 
d="M84 0v525h85v-217h112c18 129 119 225 271 225c170 0 279 -108 279 -270c0 -158 -109 -271 -279 -271c-147 0 -257 93 -272 236h-111v-228h-85zM368 263c0 -109 75 -191 186 -191c118 0 187 83 187 191c0 112 -74 190 -187 190c-109 0 -186 -78 -186 -190zM538 705
l-135 -125l-40 44l126 142z" />
    <glyph glyph-name="uniF36F.var.accented" unicode="&#xf36f;`" horiz-adv-x="534" 
d="M365 0v180h-112l-134 -180h-101l149 197c-55 25 -103 75 -103 148c0 97 68 183 226 183c58 0 126 -3 160 -3v-525h-85zM245 260h120v185c-17 1 -53 3 -83 3c-86 0 -128 -43 -128 -98c0 -48 44 -83 91 -90zM397 705l-135 -125l-40 44l126 142z" />
    <glyph glyph-name="uniF371.var.accented" unicode="&#xf371;`" horiz-adv-x="488" 
d="M84 654c0 26 22 43 48 43c21 0 43 -17 43 -43c0 -29 -22 -46 -43 -46c-26 0 -48 17 -48 46zM332 654c0 26 22 43 46 43c23 0 44 -17 44 -43c0 -29 -21 -46 -44 -46c-24 0 -46 17 -46 46zM337 723l-109 -143l-45 28l85 158zM84 0v525h340v-80h-255v-140h230v-80h-230v-145
h263v-80h-348z" />
    <glyph glyph-name="afii10017.var.accented" unicode="&#x410;`" horiz-adv-x="705" 
d="M15 0l301 704h73l301 -704h-91l-90 212h-319l-89 -212h-86zM350 591l-126 -299h252zM513 819l-202 -84l-23 48l195 104z" />
    <glyph glyph-name="afii10022.var.accented" unicode="&#x415;`" horiz-adv-x="575" 
d="M105 0v700h395v-80h-310v-226h280v-80h-280v-234h320v-80h-405zM463 819l-202 -84l-23 48l195 104z" />
    <glyph glyph-name="afii10026.var.accented" unicode="&#x418;`" horiz-adv-x="795" 
d="M180 0h-75v700h85v-560l425 560h75v-700h-85v560zM553 819l-202 -84l-23 48l195 104z" />
    <glyph glyph-name="afii10032.var.accented" unicode="&#x41e;`" horiz-adv-x="814" 
d="M50 350c0 203 149 360 357 360c203 0 357 -147 357 -360c0 -208 -154 -360 -357 -360s-357 147 -357 360zM140 350c0 -159 117 -280 267 -280c160 0 267 122 267 280c0 163 -117 280 -267 280c-152 0 -267 -117 -267 -280zM563 819l-202 -84l-23 48l195 104z" />
    <glyph glyph-name="afii10037.var.accented" unicode="&#x423;`" horiz-adv-x="666" 
d="M651 700l-242 -540c-48 -107 -97 -160 -174 -160c-31 0 -66 10 -85 25l30 72c19 -13 34 -18 54 -18c40 0 67 31 86 71l12 26l-317 524h96l262 -439l192 439h86zM508 819l-202 -84l-23 48l195 104z" />
    <glyph glyph-name="afii10045.var.accented" unicode="&#x42b;`" horiz-adv-x="845" 
d="M655 0v700h85v-700h-85zM277 365c-23 0 -52 -2 -87 -6v-278c27 -1 52 -3 84 -3c115 0 178 50 178 149c0 89 -62 138 -175 138zM190 700v-260c38 3 70 5 93 5c176 0 259 -84 259 -216c0 -147 -104 -231 -278 -231c-60 0 -118 2 -159 2v700h85zM563 819l-202 -84l-23 48
l195 104z" />
    <glyph glyph-name="afii10047.var.accented" unicode="&#x42d;`" horiz-adv-x="677" 
d="M193 317v80h346c-18 146 -127 233 -283 233c-62 0 -125 -17 -177 -57l-33 64c50 44 135 73 230 73c208 0 351 -140 351 -358c0 -213 -140 -362 -359 -362c-93 0 -177 28 -233 73l37 71c52 -39 119 -64 194 -64c148 0 259 93 274 247h-347zM443 819l-202 -84l-23 48
l195 104z" />
    <glyph glyph-name="afii10048.var.accented" unicode="&#x42e;`" horiz-adv-x="1078" 
d="M105 0v700h85v-303h151c20 180 153 313 340 313c203 0 347 -147 347 -360c0 -208 -144 -360 -347 -360c-183 0 -327 132 -341 327h-150v-317h-85zM429 350c0 -159 109 -280 254 -280c161 0 255 122 255 280c0 163 -104 280 -255 280c-147 0 -254 -117 -254 -280zM713 819
l-202 -84l-23 48l195 104z" />
    <glyph glyph-name="afii10049.var.accented" unicode="&#x42f;`" horiz-adv-x="623" 
d="M433 0v260h-131l-181 -260h-96l194 275c-72 29 -138 96 -138 196c0 126 84 232 273 232c47 0 123 -3 164 -3v-700h-85zM292 340h141v280c-23 1 -65 3 -95 3c-109 0 -167 -64 -167 -147c0 -74 60 -126 121 -136zM518 819l-202 -84l-23 48l195 104z" />
    <glyph glyph-name="afii10023.var.accented" unicode="&#x401;`" horiz-adv-x="575" 
d="M124 813c0 28 19 45 43 45c21 0 41 -17 41 -45c0 -32 -20 -49 -41 -49c-24 0 -43 17 -43 49zM403 813c0 28 21 45 44 45c21 0 41 -17 41 -45c0 -32 -20 -49 -41 -49c-23 0 -44 17 -44 49zM403 866l-139 -125l-29 15l101 131zM105 0v700h395v-80h-310v-226h280v-80h-280
v-234h320v-80h-405z" />
    <glyph glyph-name="afii10065.var.accented" unicode="&#x430;`" horiz-adv-x="460" 
d="M96 355l-21 64c40 25 94 41 150 41c128 0 173 -67 173 -184v-276h-76v58c-27 -34 -70 -65 -144 -65c-82 0 -138 52 -138 139c0 92 73 143 170 143c35 0 82 -7 112 -29c0 84 -13 142 -102 142c-55 0 -88 -14 -124 -33zM206 65c59 0 93 31 116 58v57c-28 20 -62 30 -101 30
c-48 0 -96 -22 -96 -74c0 -43 29 -71 81 -71zM355 674l-120 -143l-48 34l106 157z" />
    <glyph glyph-name="afii10070.var.accented" unicode="&#x435;`" horiz-adv-x="520" 
d="M427 112l25 -63c-44 -40 -109 -59 -169 -59c-146 0 -241 93 -241 235c0 131 84 235 232 235c116 0 209 -82 209 -206c0 -22 -2 -40 -5 -54h-346c7 -85 69 -135 157 -135c58 0 109 20 138 47zM270 385c-82 0 -134 -51 -143 -120h273c-4 74 -52 120 -130 120zM384 674
l-120 -143l-48 34l106 157z" />
    <glyph glyph-name="afii10074.var.accented" unicode="&#x438;`" horiz-adv-x="565" 
d="M152 0h-80v450h80v-335l260 335h80v-450h-80v335zM392 674l-120 -143l-48 34l106 157z" />
    <glyph glyph-name="afii10080.var.accented" unicode="&#x43e;`" horiz-adv-x="565" 
d="M42 225c0 135 96 235 240 235s240 -100 240 -235s-96 -235 -240 -235s-240 100 -240 235zM127 225c0 -94 65 -160 155 -160s155 64 155 160c0 94 -65 160 -155 160c-88 0 -155 -65 -155 -160zM397 674l-120 -143l-48 34l106 157z" />
    <glyph glyph-name="afii10085.var.accented" unicode="&#x443;`" horiz-adv-x="491" 
d="M481 450l-180 -450c-66 -161 -108 -200 -172 -200c-34 0 -61 12 -85 28l26 61c15 -7 32 -15 50 -15c38 0 66 30 96 102l10 24l-216 450h96l132 -286c10 -23 18 -45 27 -68c6 22 13 45 21 69l104 285h91zM370 674l-120 -143l-48 34l106 157z" />
    <glyph glyph-name="afii10093.var.accented" unicode="&#x44b;`" horiz-adv-x="642" 
d="M72 0v450h80v-135h74c138 0 178 -75 178 -155c0 -79 -46 -160 -187 -160h-145zM490 0v450h80v-450h-80zM211 240h-59v-165h58c80 0 109 29 109 82c0 54 -31 83 -108 83zM420 674l-120 -143l-48 34l106 157z" />
    <glyph glyph-name="afii10095.var.accented" unicode="&#x44d;`" horiz-adv-x="489" 
d="M142 196v65h221c-13 83 -75 124 -156 124c-56 0 -103 -18 -138 -49l-34 60c42 41 113 64 171 64c142 0 240 -92 240 -235c0 -131 -96 -235 -228 -235c-71 0 -139 16 -181 57l38 59c31 -28 87 -41 138 -41c83 0 140 48 151 131h-222zM332 674l-120 -143l-48 34l106 157z
" />
    <glyph glyph-name="afii10096.var.accented" unicode="&#x44e;`" horiz-adv-x="760" 
d="M72 0v450h85v-180h98c18 111 104 190 227 190c141 0 235 -100 235 -235s-96 -235 -235 -235c-127 0 -214 83 -228 200h-97v-190h-85zM342 225c0 -95 60 -155 143 -155s142 61 142 155c0 92 -56 155 -142 155c-84 0 -143 -62 -143 -155zM497 674l-120 -143l-48 34l106 157
z" />
    <glyph glyph-name="afii10097.var.accented" unicode="&#x44f;`" horiz-adv-x="482" 
d="M269 450h140v-450h-80v150h-87l-110 -150h-97l130 170c-46 11 -97 56 -97 130c0 77 51 150 201 150zM153 298c0 -46 44 -73 84 -73h92v150h-73c-75 0 -103 -35 -103 -77zM393 674l-120 -143l-48 34l106 157z" />
    <glyph glyph-name="afii10071.var.accented" unicode="&#x451;`" horiz-adv-x="520" 
d="M96 602c0 24 18 39 40 39c19 0 37 -15 37 -39c0 -26 -18 -41 -37 -41c-22 0 -40 15 -40 41zM360 602c0 24 19 39 40 39c19 0 37 -15 37 -39c0 -26 -18 -41 -37 -41c-21 0 -40 15 -40 41zM360 674l-120 -143l-39 27l107 157zM427 112l25 -63c-44 -40 -109 -59 -169 -59
c-146 0 -241 93 -241 235c0 131 84 235 232 235c116 0 209 -82 209 -206c0 -22 -2 -40 -5 -54h-346c7 -85 69 -135 157 -135c58 0 109 20 138 47zM270 385c-82 0 -134 -51 -143 -120h273c-4 74 -52 120 -130 120z" />
    <glyph glyph-name="fi" unicode="fi" horiz-adv-x="514" 
d="M364 0v375h-202v-375h-80v511c0 137 75 199 188 199c89 0 137 -37 165 -74l-58 -47c-19 25 -49 46 -94 46c-77 0 -121 -37 -121 -133v-52h282v-450h-80z" />
    <glyph glyph-name="fl" unicode="fl" horiz-adv-x="561" 
d="M344 120v487c-19 14 -48 28 -82 28c-66 0 -100 -37 -100 -121v-64h103v-75h-103v-375h-80v523c0 125 58 187 158 187c48 0 88 -12 114 -32h70v-522c0 -61 15 -89 53 -89c22 0 41 10 56 20l18 -61c-23 -19 -59 -34 -106 -34c-68 0 -101 41 -101 128z" />
    <glyph glyph-name=".notdef" horiz-adv-x="225" 
 />
    <glyph glyph-name="space" unicode=" " horiz-adv-x="225" 
 />
    <glyph glyph-name="exclam" unicode="!" horiz-adv-x="310" 
d="M112 215v485h85v-485h-85zM99 54c0 26 22 53 58 53c31 0 53 -27 53 -53c0 -30 -22 -57 -53 -57c-36 0 -58 27 -58 57z" />
    <glyph glyph-name="quotedbl" unicode="&#x22;" horiz-adv-x="415" 
d="M250 477v223h80v-223h-80zM85 477v223h80v-223h-80z" />
    <glyph glyph-name="numbersign" unicode="#" horiz-adv-x="704" 
d="M317 12l67 183h-184l-76 -205l-63 22l68 183h-89v70h115l63 170h-178v70h204l76 205l63 -23l-68 -182h184l76 205l63 -22l-68 -183h94v-70h-120l-63 -170h183v-70h-209l-76 -205zM289 435l-63 -170h184l63 170h-184z" />
    <glyph glyph-name="dollar" unicode="$" 
d="M430 179c0 171 -342 116 -342 348c0 90 65 164 174 180v83h80v-82c65 -8 121 -34 155 -71l-46 -64c-37 37 -81 57 -142 57c-84 0 -131 -41 -131 -103c0 -173 342 -108 342 -347c0 -101 -74 -171 -178 -186v-94h-80v92c-77 9 -156 46 -186 103l49 58
c41 -54 114 -83 173 -83c73 0 132 38 132 109z" />
    <glyph glyph-name="percent" unicode="%" horiz-adv-x="877" 
d="M159 23l514 687l46 -34l-513 -686zM45 537c0 101 78 169 183 169s183 -68 183 -169s-78 -170 -183 -170s-183 69 -183 170zM120 537c0 -64 51 -105 108 -105c59 0 108 41 108 105c0 63 -50 104 -108 104c-59 0 -108 -41 -108 -104zM466 164c0 101 78 169 183 169
s183 -68 183 -169s-78 -170 -183 -170s-183 69 -183 170zM541 164c0 -64 51 -105 108 -105c59 0 108 41 108 105c0 63 -50 104 -108 104c-59 0 -108 -41 -108 -104z" />
    <glyph glyph-name="ampersand" unicode="&#x26;" horiz-adv-x="744" 
d="M584 0l-73 92c-44 -57 -111 -102 -215 -102c-133 0 -226 84 -226 200c0 117 83 187 166 243c-54 18 -93 65 -93 132c0 87 73 145 154 145c82 0 155 -58 155 -145c0 -65 -47 -122 -104 -133l170 -219c34 60 58 142 58 237h79c0 -111 -32 -221 -88 -301l117 -149h-100z
M298 70c75 0 129 34 164 86l-175 230c-73 -55 -127 -109 -127 -180c0 -80 64 -136 138 -136zM218 565c0 -43 35 -79 79 -79c45 0 80 36 80 79c0 44 -36 80 -80 80s-79 -35 -79 -80z" />
    <glyph glyph-name="quotesingle" unicode="'" horiz-adv-x="250" 
d="M85 477v223h80v-223h-80z" />
    <glyph glyph-name="parenleft" unicode="(" horiz-adv-x="293" 
d="M293 -162l-51 -44c-152 131 -202 284 -202 431s50 293 203 431l50 -44c-124 -118 -173 -240 -173 -387s62 -288 173 -387z" />
    <glyph glyph-name="parenright" unicode=")" horiz-adv-x="293" 
d="M51 -206l-51 44c111 99 173 240 173 387s-49 269 -173 387l50 44c153 -138 203 -284 203 -431s-50 -300 -202 -431z" />
    <glyph glyph-name="asterisk" unicode="*" horiz-adv-x="479" 
d="M189 657c0 28 24 52 51 52c30 0 53 -24 53 -52c0 -29 -23 -51 -53 -51c-27 0 -51 22 -51 51zM187 375c0 30 25 54 52 54c28 0 53 -24 53 -54c0 -27 -25 -52 -53 -52c-27 0 -52 25 -52 52zM305 584c0 29 22 53 50 53c29 0 53 -24 53 -53c0 -28 -24 -52 -53 -52
c-28 0 -50 24 -50 52zM305 451c0 29 22 52 50 52c29 0 53 -23 53 -52s-24 -53 -53 -53c-28 0 -50 24 -50 53zM71 451c0 29 23 52 51 52c29 0 52 -23 52 -52s-23 -53 -52 -53c-28 0 -51 24 -51 53zM71 584c0 29 23 53 51 53c29 0 52 -24 52 -53c0 -28 -23 -52 -52 -52
c-28 0 -51 24 -51 52z" />
    <glyph glyph-name="plus" unicode="+" 
d="M69 325v70h188v191h75v-191h191v-70h-191v-193h-75v193h-188z" />
    <glyph glyph-name="comma" unicode="," horiz-adv-x="223" 
d="M54 46c0 31 20 53 57 53c42 0 72 -38 72 -97c0 -75 -45 -129 -110 -148l-22 38c27 9 55 30 64 67c6 26 4 41 -1 50c-5 -8 -14 -9 -22 -9c-20 0 -38 20 -38 46z" />
    <glyph glyph-name="hyphen" unicode="-" horiz-adv-x="389" 
d="M75 235v75h239v-75h-239z" />
    <glyph glyph-name="period" unicode="." horiz-adv-x="210" 
d="M50 54c0 26 22 53 57 53c31 0 53 -27 53 -53c0 -30 -22 -57 -53 -57c-35 0 -57 27 -57 57z" />
    <glyph glyph-name="slash" unicode="/" horiz-adv-x="335" 
d="M-30 -185l333 895l62 -23l-332 -895z" />
    <glyph glyph-name="zero" unicode="0" horiz-adv-x="564" 
d="M55 350c0 210 69 358 227 358s227 -148 227 -358c0 -211 -67 -358 -225 -358s-229 147 -229 358zM140 350c0 -180 45 -283 144 -283c102 0 140 102 140 283s-40 283 -142 283s-142 -104 -142 -283z" />
    <glyph glyph-name="one" unicode="1" horiz-adv-x="379" 
d="M35 574l168 130h56v-704h-80v589l-102 -80z" />
    <glyph glyph-name="two" unicode="2" horiz-adv-x="527" 
d="M45 0v65c114 112 313 301 313 450c0 62 -38 113 -114 113c-56 0 -111 -37 -125 -112l-68 28c17 104 102 164 200 164c131 0 192 -90 192 -177c0 -196 -238 -407 -294 -456h323v-75h-427z" />
    <glyph glyph-name="three" unicode="3" horiz-adv-x="532" 
d="M247 -10c-97 0 -176 42 -212 120l46 57c35 -65 98 -97 163 -97c87 0 138 55 138 126c0 75 -59 122 -143 122h-55v80h50c62 0 121 49 121 121c0 69 -43 111 -114 111c-69 0 -113 -33 -144 -87l-45 55c32 71 104 112 195 112c117 0 193 -67 193 -177
c0 -76 -38 -138 -109 -168v-3c87 -14 136 -87 136 -169c0 -125 -95 -203 -220 -203z" />
    <glyph glyph-name="four" unicode="4" horiz-adv-x="550" 
d="M343 0v175h-323v57l290 468h92l-277 -445h218v195h80v-195h97v-80h-97v-175h-80z" />
    <glyph glyph-name="five" unicode="5" horiz-adv-x="516" 
d="M99 348l44 352h316v-80h-246l-26 -189c15 4 36 7 56 7c127 0 221 -84 221 -217c0 -145 -104 -231 -228 -231c-75 0 -159 33 -201 106l46 59c34 -55 100 -85 157 -85c80 0 141 62 141 148c0 84 -66 148 -170 148c-42 0 -87 -9 -110 -18z" />
    <glyph glyph-name="six" unicode="6" horiz-adv-x="554" 
d="M50 248c0 257 186 426 340 462l33 -61c-124 -32 -248 -138 -279 -311c28 53 82 93 165 93c115 0 200 -88 200 -215c0 -138 -107 -226 -216 -226c-156 0 -243 119 -243 258zM135 248c0 -95 52 -178 157 -178c77 0 132 65 132 140c0 81 -48 146 -142 146
c-82 0 -131 -59 -147 -108z" />
    <glyph glyph-name="seven" unicode="7" horiz-adv-x="485" 
d="M30 620v80h420v-52l-258 -648h-88l249 620h-323z" />
    <glyph glyph-name="eight" unicode="8" horiz-adv-x="595" 
d="M285 400h26c59 0 112 51 112 115c0 73 -59 115 -127 115c-69 0 -124 -45 -124 -115c0 -64 53 -115 113 -115zM310 320h-22c-74 0 -138 -51 -138 -124s62 -126 147 -126c90 0 148 51 148 126c-1 79 -62 124 -135 124zM298 -10c-126 0 -233 72 -233 191
c0 87 54 155 132 177v3c-61 21 -110 88 -110 166c0 110 94 183 210 183s211 -73 211 -183c0 -68 -43 -137 -115 -165v-3c77 -13 137 -79 137 -172c0 -125 -106 -197 -232 -197z" />
    <glyph glyph-name="nine" unicode="9" horiz-adv-x="551" 
d="M501 447c0 -265 -153 -432 -350 -457l-27 63c156 30 261 137 283 303c-28 -52 -82 -87 -158 -87c-122 0 -209 94 -209 215c0 138 114 226 223 226c156 0 238 -114 238 -263zM416 447c0 95 -47 183 -152 183c-77 0 -139 -65 -139 -140c0 -76 50 -146 144 -146
c82 0 131 53 147 103z" />
    <glyph glyph-name="colon" unicode=":" horiz-adv-x="320" 
d="M105 406c0 26 22 53 57 53c31 0 53 -27 53 -53c0 -30 -22 -57 -53 -57c-35 0 -57 27 -57 57zM105 54c0 26 22 53 57 53c31 0 53 -27 53 -53c0 -30 -22 -57 -53 -57c-35 0 -57 27 -57 57z" />
    <glyph glyph-name="semicolon" unicode=";" horiz-adv-x="324" 
d="M105 406c0 26 22 53 57 53c31 0 53 -27 53 -53c0 -30 -22 -57 -53 -57c-35 0 -57 27 -57 57zM105 46c0 31 20 53 57 53c42 0 72 -38 72 -97c0 -75 -45 -129 -110 -148l-22 38c27 9 55 30 64 67c6 26 4 41 -1 50c-5 -8 -14 -9 -22 -9c-20 0 -38 20 -38 46z" />
    <glyph glyph-name="less" unicode="&#x3c;" 
d="M497 79l-440 266v34l440 264v-87l-329 -194l329 -196v-87z" />
    <glyph glyph-name="equal" unicode="=" 
d="M69 415v70h454v-70h-454zM69 235v70h454v-70h-454z" />
    <glyph glyph-name="greater" unicode="&#x3e;" 
d="M534 345l-439 -266v87l329 196l-329 194v87l439 -264v-34z" />
    <glyph glyph-name="question" unicode="?" horiz-adv-x="466" 
d="M350 520c0 61 -51 110 -122 110c-60 0 -105 -26 -140 -74l-48 53c36 58 108 101 193 101c129 0 203 -79 203 -173c0 -198 -220 -182 -192 -334l-72 -1c-36 186 178 166 178 318zM152 54c0 26 22 53 58 53c31 0 53 -27 53 -53c0 -30 -22 -57 -53 -57c-36 0 -58 27 -58 57z
" />
    <glyph glyph-name="at" unicode="@" horiz-adv-x="1006" 
d="M628 0v47c-32 -32 -84 -57 -139 -57c-136 0 -223 93 -223 235c0 131 106 235 253 235c72 0 143 -22 189 -51v-334h21c84 0 137 85 137 195c0 178 -141 318 -353 318c-210 0 -373 -147 -373 -363c0 -208 163 -363 373 -363c38 0 74 4 108 12l5 -74
c-36 -8 -74 -13 -113 -13c-259 0 -448 188 -448 438c0 244 189 438 448 438c244 0 428 -159 428 -392c0 -136 -77 -271 -230 -271h-83zM502 65c52 0 101 30 126 59v232c-35 20 -73 29 -110 29c-101 0 -167 -74 -167 -164c0 -98 62 -156 151 -156z" />
    <glyph glyph-name="A" unicode="A" horiz-adv-x="705" 
d="M15 0l301 704h73l301 -704h-91l-90 212h-319l-89 -212h-86zM350 591l-126 -299h252z" />
    <glyph glyph-name="B" unicode="B" horiz-adv-x="617" 
d="M105 1v698c39 1 127 4 192 4c167 0 225 -76 225 -173c0 -88 -53 -140 -120 -162v-2c87 -14 145 -70 145 -166c0 -142 -109 -203 -254 -203c-62 0 -147 2 -188 4zM303 319h-113v-238c23 -2 68 -4 108 -4c103 0 164 42 164 128c0 74 -58 114 -159 114zM295 623
c-37 0 -80 -2 -105 -3v-226h112c74 0 135 41 135 117c0 73 -49 112 -142 112z" />
    <glyph glyph-name="C" unicode="C" horiz-adv-x="656" 
d="M592 132l34 -64c-47 -48 -134 -78 -221 -78c-210 0 -355 142 -355 360c0 201 130 360 349 360c90 0 163 -25 213 -68l-39 -64c-46 34 -100 52 -173 52c-152 0 -260 -114 -260 -280c0 -167 111 -280 273 -280c67 0 131 23 179 62z" />
    <glyph glyph-name="D" unicode="D" horiz-adv-x="739" 
d="M105 0v700h12c46 0 122 3 179 3c280 0 393 -161 393 -344c0 -199 -134 -361 -401 -361c-47 0 -113 2 -172 2h-11zM294 623c-42 0 -69 -2 -104 -3v-540c46 -1 89 -2 101 -2c200 0 308 118 308 281c0 152 -102 264 -305 264z" />
    <glyph glyph-name="E" unicode="E" horiz-adv-x="575" 
d="M105 0v700h395v-80h-310v-226h280v-80h-280v-234h320v-80h-405z" />
    <glyph glyph-name="F" unicode="F" horiz-adv-x="540" 
d="M105 0v700h395v-80h-310v-248h280v-80h-280v-292h-85z" />
    <glyph glyph-name="G" unicode="G" horiz-adv-x="727" 
d="M398 276v80h269v-269c-62 -62 -175 -97 -262 -97c-218 0 -355 142 -355 360c0 201 135 360 344 360c95 0 163 -23 220 -68l-37 -68c-41 37 -106 56 -173 56c-156 0 -264 -111 -264 -280c0 -170 108 -280 267 -280c66 0 143 26 180 62v144h-189z" />
    <glyph glyph-name="H" unicode="H" horiz-adv-x="765" 
d="M575 0v317h-385v-317h-85v700h85v-303h385v303h85v-700h-85z" />
    <glyph glyph-name="I" unicode="I" horiz-adv-x="335" 
d="M125 0v700h85v-700h-85z" />
    <glyph glyph-name="J" unicode="J" horiz-adv-x="374" 
d="M269 700v-541c0 -105 -45 -169 -153 -169c-47 0 -88 19 -106 37l29 65c16 -12 41 -22 66 -22c61 0 79 43 79 103v527h85z" />
    <glyph glyph-name="K" unicode="K" horiz-adv-x="653" 
d="M617 700l-312 -329l328 -371h-109l-317 365l307 335h103zM105 0v700h85v-700h-85z" />
    <glyph glyph-name="L" unicode="L" horiz-adv-x="550" 
d="M105 0v700h85v-620h345v-80h-430z" />
    <glyph glyph-name="M" unicode="M" horiz-adv-x="892" 
d="M105 0v700h86l263 -359l252 359h81v-700h-85v566l-248 -348h-13l-251 345v-563h-85z" />
    <glyph glyph-name="N" unicode="N" horiz-adv-x="795" 
d="M690 0h-68l-437 550v-550h-80v700h68l437 -552v552h80v-700z" />
    <glyph glyph-name="O" unicode="O" horiz-adv-x="814" 
d="M50 350c0 203 149 360 357 360c203 0 357 -147 357 -360c0 -208 -154 -360 -357 -360s-357 147 -357 360zM140 350c0 -159 117 -280 267 -280c160 0 267 122 267 280c0 163 -117 280 -267 280c-152 0 -267 -117 -267 -280z" />
    <glyph glyph-name="P" unicode="P" horiz-adv-x="597" 
d="M190 0h-85v700c39 0 139 2 183 2c200 0 259 -108 259 -217c0 -114 -81 -220 -252 -220c-28 0 -70 1 -105 4v-269zM296 622c-28 0 -73 -1 -106 -2v-270c34 -3 67 -5 102 -5c103 0 165 53 165 141c0 83 -50 136 -161 136z" />
    <glyph glyph-name="Q" unicode="Q" horiz-adv-x="814" 
d="M50 350c0 203 149 360 357 360c203 0 357 -147 357 -360c0 -105 -40 -196 -105 -260l77 -90h-100l-37 43c-55 -34 -120 -53 -192 -53c-203 0 -357 147 -357 360zM140 350c0 -159 117 -280 267 -280c52 0 99 13 138 36l-61 73l56 51l64 -75c44 50 70 118 70 195
c0 163 -117 280 -267 280c-152 0 -267 -117 -267 -280z" />
    <glyph glyph-name="R" unicode="R" horiz-adv-x="643" 
d="M190 0h-85v700c39 0 168 2 188 2c191 0 249 -95 249 -208c0 -109 -75 -178 -152 -198l233 -296h-104l-215 280h-114v-280zM288 622c-22 0 -65 -1 -98 -2v-260h103c81 0 159 50 159 133c0 72 -40 129 -164 129z" />
    <glyph glyph-name="S" unicode="S" horiz-adv-x="549" 
d="M409 179c0 171 -342 116 -342 348c0 101 78 183 211 183c81 0 153 -29 193 -73l-46 -64c-37 37 -81 57 -142 57c-78 0 -126 -41 -126 -103c0 -173 342 -108 342 -347c0 -115 -101 -190 -228 -190c-86 0 -186 39 -221 105l49 58c41 -54 114 -83 173 -83
c73 0 137 38 137 109z" />
    <glyph glyph-name="T" unicode="T" horiz-adv-x="595" 
d="M10 620v80h575v-80h-245v-620h-85v620h-245z" />
    <glyph glyph-name="U" unicode="U" horiz-adv-x="751" 
d="M656 700v-408c0 -214 -128 -301 -271 -301c-168 0 -290 103 -290 308v401h85v-385c0 -152 74 -244 205 -244c115 0 186 79 186 238v391h85z" />
    <glyph glyph-name="V" unicode="V" horiz-adv-x="656" 
d="M651 700l-288 -704h-63l-295 704h91l238 -576l231 576h86z" />
    <glyph glyph-name="W" unicode="W" horiz-adv-x="970" 
d="M960 700l-202 -700h-78l-192 563l-188 -563h-78l-212 700h96l163 -557l181 557h82l186 -557l159 557h83z" />
    <glyph glyph-name="X" unicode="X" horiz-adv-x="664" 
d="M635 700l-248 -344l257 -356h-101l-212 291l-211 -291h-100l257 356l-246 344h100l203 -280l200 280h101z" />
    <glyph glyph-name="Y" unicode="Y" horiz-adv-x="604" 
d="M594 700l-251 -400v-300h-85v300l-248 400h98l196 -320l197 320h93z" />
    <glyph glyph-name="Z" unicode="Z" horiz-adv-x="635" 
d="M60 620v80h525v-57l-430 -563h440v-80h-555v57l428 563h-408z" />
    <glyph glyph-name="bracketleft" unicode="[" horiz-adv-x="320" 
d="M60 -200v850h250v-75h-170v-700h170v-75h-250z" />
    <glyph glyph-name="backslash" unicode="\" horiz-adv-x="335" 
d="M32 710l333 -895l-63 -23l-332 895z" />
    <glyph glyph-name="bracketright" unicode="]" horiz-adv-x="320" 
d="M260 650v-850h-250v75h170v700h-170v75h250z" />
    <glyph glyph-name="asciicircum" unicode="^" horiz-adv-x="492" 
d="M40 450l180 258h54l178 -258h-87l-119 176l-119 -176h-87z" />
    <glyph glyph-name="underscore" unicode="_" horiz-adv-x="312" 
d="M0 -200v80h312v-80h-312z" />
    <glyph glyph-name="grave" unicode="`" horiz-adv-x="290" 
d="M181 531l-121 142l63 48l107 -156z" />
    <glyph glyph-name="a" unicode="a" horiz-adv-x="460" 
d="M96 355l-21 64c40 25 94 41 150 41c128 0 173 -67 173 -184v-276h-76v58c-27 -34 -70 -65 -144 -65c-82 0 -138 52 -138 139c0 92 73 143 170 143c35 0 82 -7 112 -29c0 84 -13 142 -102 142c-55 0 -88 -14 -124 -33zM206 65c59 0 93 31 116 58v57c-28 20 -62 30 -101 30
c-48 0 -96 -22 -96 -74c0 -43 29 -71 81 -71z" />
    <glyph glyph-name="b" unicode="b" horiz-adv-x="549" 
d="M72 42v658h80v-293c32 29 86 53 140 53c134 0 214 -95 214 -228c0 -148 -99 -242 -250 -242c-72 0 -141 21 -184 52zM274 385c-52 0 -100 -30 -122 -58v-231c36 -24 69 -31 108 -31c91 0 161 60 161 161s-60 159 -147 159z" />
    <glyph glyph-name="c" unicode="c" horiz-adv-x="488" 
d="M418 123l38 -58c-38 -49 -104 -75 -173 -75c-143 0 -241 93 -241 235c0 131 96 235 228 235c72 0 135 -17 177 -59l-37 -63c-38 35 -82 47 -129 47c-81 0 -154 -65 -154 -160c0 -99 73 -160 162 -160c54 0 99 24 129 58z" />
    <glyph glyph-name="d" unicode="d" horiz-adv-x="554" 
d="M402 0v57c-33 -36 -82 -65 -143 -65c-132 0 -217 91 -217 230c0 140 104 238 246 238c48 0 83 -10 114 -32v272h80v-700h-80zM274 67c52 0 100 29 128 60v223c-38 24 -74 35 -111 35c-89 0 -164 -62 -164 -161s63 -157 147 -157z" />
    <glyph glyph-name="e" unicode="e" horiz-adv-x="520" 
d="M427 112l25 -63c-44 -40 -109 -59 -169 -59c-146 0 -241 93 -241 235c0 131 84 235 232 235c116 0 209 -82 209 -206c0 -22 -2 -40 -5 -54h-346c7 -85 69 -135 157 -135c58 0 109 20 138 47zM270 385c-82 0 -134 -51 -143 -120h273c-4 74 -52 120 -130 120z" />
    <glyph glyph-name="f" unicode="f" horiz-adv-x="330" 
d="M82 0v523c0 125 58 187 158 187c54 0 97 -18 120 -40l-28 -61c-19 16 -45 26 -79 26c-57 0 -91 -37 -91 -121v-64h150v-75h-150v-375h-80z" />
    <glyph glyph-name="g" unicode="g" horiz-adv-x="494" 
d="M10 -65c0 73 58 119 144 137c-8 10 -11 24 -11 37c0 14 4 28 12 38c-64 26 -101 82 -101 148c0 90 71 165 184 165c44 0 83 -12 114 -33l132 32l2 -65l-85 -21c14 -23 21 -50 21 -78c0 -90 -73 -162 -184 -162c-10 0 -20 0 -30 1c-4 -8 -5 -17 -5 -25c0 -11 3 -22 9 -30
c9 0 18 1 27 1c131 0 229 -47 229 -145c0 -96 -98 -143 -229 -143s-229 45 -229 143zM85 -65c0 -50 61 -78 154 -78s154 27 154 78c0 50 -58 80 -154 80s-154 -30 -154 -80zM129 295c0 -56 43 -97 109 -97c63 0 109 39 109 97c0 56 -42 100 -109 100
c-66 0 -109 -44 -109 -100z" />
    <glyph glyph-name="h" unicode="h" horiz-adv-x="549" 
d="M72 0v700h80v-302c33 34 90 60 147 60c117 0 187 -59 187 -200v-258h-80v247c0 90 -43 136 -126 136c-50 0 -100 -25 -128 -57v-326h-80z" />
    <glyph glyph-name="i" unicode="i" horiz-adv-x="268" 
d="M94 0v450h80v-450h-80zM84 619c0 29 24 48 52 48c25 0 49 -19 49 -48c0 -33 -24 -52 -49 -52c-28 0 -52 19 -52 52z" />
    <glyph glyph-name="j" unicode="j" horiz-adv-x="266" 
d="M178 450v-483c0 -110 -41 -175 -141 -175c-43 0 -81 14 -100 29l23 64c16 -10 35 -18 59 -18c57 0 79 40 79 106v477h80zM87 619c0 29 24 48 52 48c25 0 49 -19 49 -48c0 -33 -24 -52 -49 -52c-28 0 -52 19 -52 52z" />
    <glyph glyph-name="k" unicode="k" horiz-adv-x="491" 
d="M457 450l-191 -209l215 -241h-109l-203 235l186 215h102zM72 0v700h80v-700h-80z" />
    <glyph glyph-name="l" unicode="l" horiz-adv-x="290" 
d="M72 120v580h80v-544c0 -61 15 -89 53 -89c22 0 42 10 57 20l18 -61c-24 -19 -59 -34 -106 -34c-68 0 -102 41 -102 128z" />
    <glyph glyph-name="m" unicode="m" horiz-adv-x="803" 
d="M740 295v-295h-80v273c0 74 -32 110 -97 110c-54 0 -97 -28 -118 -65c1 -8 1 -22 1 -32v-286h-80v290c0 55 -33 93 -96 93c-52 0 -95 -28 -118 -61v-322h-80v450h80v-57c33 39 91 65 149 65c70 0 119 -31 136 -78c32 46 90 78 158 78c83 0 145 -40 145 -163z" />
    <glyph glyph-name="n" unicode="n" horiz-adv-x="549" 
d="M72 0v450h80v-55c31 34 88 63 147 63c117 0 187 -57 187 -198v-260h-80v245c0 94 -43 138 -127 138c-51 0 -98 -25 -127 -58v-325h-80z" />
    <glyph glyph-name="o" unicode="o" horiz-adv-x="565" 
d="M42 225c0 135 96 235 240 235s240 -100 240 -235s-96 -235 -240 -235s-240 100 -240 235zM127 225c0 -94 65 -160 155 -160s155 64 155 160c0 94 -65 160 -155 160c-88 0 -155 -65 -155 -160z" />
    <glyph glyph-name="p" unicode="p" horiz-adv-x="556" 
d="M72 -200v650h80v-53c31 36 91 63 153 63c128 0 208 -95 208 -228c0 -137 -93 -242 -234 -242c-48 0 -95 10 -127 31v-221h-80zM282 385c-53 0 -102 -27 -130 -62v-223c40 -27 77 -35 120 -35c96 0 156 69 156 164c0 91 -53 156 -146 156z" />
    <glyph glyph-name="q" unicode="q" horiz-adv-x="557" 
d="M404 -200v236c-36 -28 -86 -46 -131 -46c-141 0 -231 93 -231 235c0 131 106 235 253 235c72 0 143 -22 189 -51v-609h-80zM283 65c48 0 97 25 121 54v237c-35 20 -73 29 -110 29c-101 0 -167 -74 -167 -164c0 -92 62 -156 156 -156z" />
    <glyph glyph-name="r" unicode="r" horiz-adv-x="340" 
d="M72 0v450h80v-53c23 34 56 61 113 61c37 0 55 -6 70 -17l-28 -75c-22 13 -34 17 -61 17c-52 0 -77 -31 -94 -64v-319h-80z" />
    <glyph glyph-name="s" unicode="s" horiz-adv-x="430" 
d="M300 122c0 91 -243 46 -243 211c0 79 64 127 153 127c74 0 128 -27 155 -53l-38 -61c-27 24 -66 44 -113 44c-45 0 -72 -26 -72 -56c0 -95 243 -50 243 -208c0 -95 -84 -136 -174 -136c-73 0 -145 38 -166 70l45 57c26 -30 85 -57 130 -57c42 0 80 21 80 62z" />
    <glyph glyph-name="t" unicode="t" horiz-adv-x="353" 
d="M62 171v404h80v-125h165v-75h-165v-196c0 -71 23 -112 80 -112c31 0 55 13 71 25l25 -62c-24 -20 -65 -38 -115 -38c-101 0 -141 64 -141 179z" />
    <glyph glyph-name="u" unicode="u" horiz-adv-x="540" 
d="M467 450v-450h-80v64c-31 -38 -88 -74 -159 -74c-100 0 -166 60 -166 192v268h80v-250c0 -85 34 -135 116 -135c52 0 101 31 129 67v318h80z" />
    <glyph glyph-name="v" unicode="v" horiz-adv-x="476" 
d="M471 450l-199 -454h-58l-209 454h94l109 -243c13 -29 27 -67 38 -100c10 33 24 72 37 102l103 241h85z" />
    <glyph glyph-name="w" unicode="w" horiz-adv-x="706" 
d="M696 450l-144 -454h-70l-112 293c-7 18 -12 36 -17 55c-6 -21 -11 -39 -19 -58l-109 -290h-66l-149 454h86l88 -284c7 -22 11 -42 17 -63c6 20 10 38 19 63l102 284h69l103 -283c8 -21 14 -43 21 -65c5 23 11 46 18 69l82 279h81z" />
    <glyph glyph-name="x" unicode="x" horiz-adv-x="507" 
d="M472 450l-161 -217l171 -233h-98l-132 182l-134 -182h-93l170 229l-160 221h98l122 -170l124 170h93z" />
    <glyph glyph-name="y" unicode="y" horiz-adv-x="491" 
d="M481 450l-180 -450c-66 -161 -108 -200 -172 -200c-34 0 -61 12 -85 28l26 61c15 -7 32 -15 50 -15c38 0 66 30 96 102l10 24l-216 450h96l132 -286c10 -23 18 -45 27 -68c6 22 13 45 21 69l104 285h91z" />
    <glyph glyph-name="z" unicode="z" horiz-adv-x="485" 
d="M60 375v75h380v-56l-282 -319h277v-75h-390v56l281 319h-266z" />
    <glyph glyph-name="braceleft" unicode="{" horiz-adv-x="335" 
d="M110 -65v157c0 79 -50 99 -90 98v70c36 0 90 21 90 110v139c0 91 34 141 138 141h67v-75h-48c-57 0 -77 -25 -77 -93v-142c0 -65 -30 -108 -75 -114c42 -5 75 -37 75 -114v-145c0 -66 26 -92 83 -92h42v-75h-71c-86 0 -134 38 -134 135z" />
    <glyph glyph-name="bar" unicode="|" horiz-adv-x="330" 
d="M125 0v700h80v-700h-80z" />
    <glyph glyph-name="braceright" unicode="}" horiz-adv-x="335" 
d="M225 92v-157c0 -97 -48 -135 -135 -135h-70v75h42c57 0 83 26 83 92v145c0 77 33 109 75 114c-45 6 -75 49 -75 114v142c0 68 -21 93 -77 93h-48v75h67c103 0 138 -50 138 -141v-139c0 -89 54 -110 90 -110v-70c-40 1 -90 -19 -90 -98z" />
    <glyph glyph-name="asciitilde" unicode="~" 
d="M86 307l-36 51c42 45 91 72 136 72c82 0 154 -71 232 -71c31 0 64 18 91 45l32 -55c-38 -36 -82 -60 -124 -60c-80 0 -154 71 -227 71c-39 0 -75 -25 -104 -53z" />
    <glyph glyph-name="uni00A0" unicode="&#xa0;" horiz-adv-x="225" 
 />
    <glyph glyph-name="exclamdown" unicode="&#xa1;" horiz-adv-x="310" 
d="M198 242v-485h-85v485h85zM211 403c0 -26 -22 -53 -58 -53c-31 0 -53 27 -53 53c0 30 22 57 53 57c36 0 58 -27 58 -57z" />
    <glyph glyph-name="cent" unicode="&#xa2;" 
d="M465 123l38 -58c-33 -42 -85 -67 -143 -73v-112h-80v114c-116 19 -191 106 -191 231c0 118 78 214 191 232v109h80v-108c54 -6 100 -24 134 -57l-37 -63c-38 35 -82 47 -129 47c-81 0 -154 -65 -154 -160c0 -99 73 -160 162 -160c54 0 99 24 129 58z" />
    <glyph glyph-name="sterling" unicode="&#xa3;" 
d="M75 275v65h79c-22 51 -54 95 -54 174c0 105 84 194 216 194c83 0 149 -30 191 -76l-45 -62c-41 39 -88 58 -144 58c-78 0 -128 -56 -128 -119c0 -75 37 -110 57 -169h162v-65h-150v-9c0 -60 -27 -105 -54 -139c72 -7 139 -51 208 -51c37 0 70 9 109 46l36 -62
c-42 -43 -95 -64 -147 -64c-77 0 -151 52 -228 52c-39 0 -76 -21 -111 -55l-34 63c27 29 55 48 84 60c29 37 52 81 52 135c0 8 0 16 -1 24h-98z" />
    <glyph glyph-name="currency" unicode="&#xa4;" 
d="M69 345c0 49 14 96 41 135l-83 85l50 50l83 -85c36 26 82 42 136 42s99 -16 135 -41l88 87l50 -50l-88 -87c27 -39 42 -87 42 -136s-15 -97 -42 -135l85 -85l-49 -49l-85 84c-36 -26 -82 -42 -136 -42c-55 0 -100 16 -136 42l-88 -88l-49 49l87 89c-27 38 -41 86 -41 135
zM144 345c0 -85 57 -157 152 -157c98 0 152 72 152 157c0 88 -57 157 -152 157c-94 0 -152 -70 -152 -157z" />
    <glyph glyph-name="yen" unicode="&#xa5;" 
d="M68 299v65h146l-195 336h98l181 -320l182 320h93l-198 -336h147v-65h-185v-105h185v-65h-185v-129h-85v129h-184v65h184v105h-184z" />
    <glyph glyph-name="brokenbar" unicode="&#xa6;" horiz-adv-x="330" 
d="M205 440h-80v260h80v-260zM125 260h80v-260h-80v260z" />
    <glyph glyph-name="section" unicode="&#xa7;" horiz-adv-x="524" 
d="M65 249c0 84 49 152 132 175c-45 25 -82 71 -82 135c0 78 59 141 161 141c68 0 110 -33 135 -65l-48 -54c-19 21 -39 44 -85 44s-83 -36 -83 -81c0 -54 39 -88 87 -112c110 -8 177 -85 177 -183c0 -84 -50 -153 -134 -175c44 -25 82 -70 82 -133
c0 -78 -59 -141 -161 -141c-68 0 -111 32 -136 65l48 54c19 -21 40 -44 86 -44s83 36 83 81c0 54 -40 87 -89 111c-108 10 -173 86 -173 182zM145 249c0 -61 48 -113 117 -113c71 0 117 52 117 113s-48 114 -117 114s-117 -52 -117 -114z" />
    <glyph glyph-name="dieresis" unicode="&#xa8;" horiz-adv-x="415" 
d="M60 610c0 28 21 46 47 46c22 0 44 -18 44 -46c0 -32 -22 -50 -44 -50c-26 0 -47 18 -47 50zM263 610c0 28 22 46 48 46c22 0 44 -18 44 -46c0 -32 -22 -50 -44 -50c-26 0 -48 18 -48 50z" />
    <glyph glyph-name="copyright" unicode="&#xa9;" horiz-adv-x="1018" 
d="M75 221c0 242 187 434 434 434s434 -192 434 -434s-187 -434 -434 -434s-434 192 -434 434zM145 220c0 -200 154 -363 364 -363c209 0 364 163 364 363c0 201 -155 365 -364 365c-210 0 -364 -164 -364 -365zM652 123l38 -58c-38 -49 -104 -75 -173 -75
c-143 0 -241 93 -241 235c0 131 96 235 228 235c72 0 135 -17 177 -59l-37 -63c-38 35 -82 47 -129 47c-81 0 -154 -65 -154 -160c0 -99 73 -160 162 -160c54 0 99 24 129 58z" />
    <glyph glyph-name="ordfeminine" unicode="&#xaa;" horiz-adv-x="425" 
d="M114 573l-30 47c29 21 72 38 130 38c78 0 141 -42 141 -129v-204h-70v47c-23 -28 -57 -51 -124 -51c-68 0 -111 47 -111 103c0 70 48 108 126 108c45 0 80 -8 109 -25v5c0 60 -31 86 -84 86c-37 0 -64 -9 -87 -25zM195 380c38 0 68 18 90 36v46c-23 11 -57 20 -86 20
c-43 0 -74 -19 -74 -51c0 -30 27 -51 70 -51z" />
    <glyph glyph-name="guillemotleft" unicode="&#xab;" horiz-adv-x="530" 
d="M420 30l-185 218v4l188 216l52 -46l-148 -172l147 -173zM230 30l-185 218v4l188 216l52 -46l-148 -172l147 -173z" />
    <glyph glyph-name="logicalnot" unicode="&#xac;" 
d="M59 325v70h474v-201h-70v131h-404z" />
    <glyph glyph-name="uni00AD" unicode="&#xad;" horiz-adv-x="389" 
d="M75 235v75h239v-75h-239z" />
    <glyph glyph-name="registered" unicode="&#xae;" horiz-adv-x="618" 
d="M50 497c0 142 115 258 260 258c142 0 258 -116 258 -258c0 -145 -116 -261 -258 -261c-145 0 -260 116 -260 261zM115 496c0 -107 87 -194 194 -194s194 87 194 194s-87 194 -194 194s-194 -87 -194 -194zM266 360h-55v280h98c79 0 108 -38 108 -87
c0 -39 -26 -71 -60 -81l74 -112h-65l-63 101h-37v-101zM302 600h-36v-99h39c32 0 57 21 57 51c0 29 -21 48 -60 48z" />
    <glyph glyph-name="macron" unicode="&#xaf;" horiz-adv-x="384" 
d="M60 580v65h264v-65h-264z" />
    <glyph glyph-name="degree" unicode="&#xb0;" horiz-adv-x="410" 
d="M50 569c0 88 69 156 154 156c86 0 156 -64 156 -153c0 -87 -70 -157 -156 -157c-85 0 -154 67 -154 154zM120 570c0 -47 38 -85 85 -85c46 0 85 38 85 85c0 46 -39 85 -85 85c-47 0 -85 -39 -85 -85z" />
    <glyph glyph-name="plusminus" unicode="&#xb1;" 
d="M69 410v70h188v191h75v-191h191v-70h-191v-123h-75v123h-188zM69 165v70h454v-70h-454z" />
    <glyph glyph-name="twosuperior" unicode="&#xb2;" horiz-adv-x="349" 
d="M35 350v51c72 48 192 121 192 188c0 31 -21 55 -61 55c-32 0 -64 -24 -69 -58l-59 21c10 61 65 97 135 97c86 0 128 -47 128 -107c0 -93 -129 -165 -174 -187h192v-60h-284z" />
    <glyph glyph-name="threesuperior" unicode="&#xb3;" horiz-adv-x="350" 
d="M169 344c-61 0 -118 22 -144 70l41 38c16 -31 55 -50 92 -50c50 0 77 23 77 53c0 27 -25 47 -71 47h-34v50h30c35 0 62 22 62 51c0 28 -25 45 -63 45c-45 0 -73 -22 -89 -45l-34 38c20 36 65 64 137 64c74 0 124 -33 124 -88c0 -41 -28 -72 -74 -84v-1
c57 -4 87 -42 87 -83c0 -65 -64 -105 -141 -105z" />
    <glyph glyph-name="acute" unicode="&#xb4;" horiz-adv-x="288" 
d="M228 674l-120 -143l-48 34l106 157z" />
    <glyph glyph-name="mu" unicode="&#xb5;" horiz-adv-x="545" 
d="M472 450v-450h-80v64c-31 -38 -88 -74 -159 -74c-33 0 -62 7 -86 20v-210h-80v650h80v-250c0 -85 34 -135 116 -135c52 0 101 31 129 67v318h80z" />
    <glyph glyph-name="mu" unicode="&#x3bc;" horiz-adv-x="545" 
d="M472 450v-450h-80v64c-31 -38 -88 -74 -159 -74c-33 0 -62 7 -86 20v-210h-80v650h80v-250c0 -85 34 -135 116 -135c52 0 101 31 129 67v318h80z" />
    <glyph glyph-name="paragraph" unicode="&#xb6;" horiz-adv-x="461" 
d="M45 481c0 136 87 219 214 219h172v-75h-94v-638c0 -125 -50 -195 -165 -195c-46 0 -91 19 -114 41l33 58c16 -12 44 -24 75 -24c75 0 91 55 91 123v273c-114 1 -212 81 -212 218z" />
    <glyph glyph-name="periodcentered" unicode="&#xb7;" horiz-adv-x="225" 
d="M57 299c0 26 22 53 57 53c31 0 53 -27 53 -53c0 -30 -22 -57 -53 -57c-35 0 -57 27 -57 57z" />
    <glyph glyph-name="cedilla" unicode="&#xb8;" horiz-adv-x="351" 
d="M60 -171l24 39c20 -13 47 -23 71 -23c32 0 56 13 56 36c0 24 -16 39 -58 39h-6v80h43v-43c68 -4 101 -33 101 -80c0 -48 -45 -82 -126 -82c-51 0 -81 18 -105 34z" />
    <glyph glyph-name="onesuperior" unicode="&#xb9;" horiz-adv-x="252" 
d="M22 630l105 71h50v-351h-70v269l-58 -37z" />
    <glyph glyph-name="ordmasculine" unicode="&#xba;" horiz-adv-x="476" 
d="M55 489c0 101 78 169 183 169s183 -68 183 -169s-78 -170 -183 -170s-183 69 -183 170zM130 489c0 -64 51 -105 108 -105c59 0 108 41 108 105c0 63 -50 104 -108 104c-59 0 -108 -41 -108 -104z" />
    <glyph glyph-name="guillemotright" unicode="&#xbb;" horiz-adv-x="530" 
d="M485 248l-185 -218l-54 47l147 173l-148 172l52 46l188 -216v-4zM295 248l-185 -218l-54 47l147 173l-148 172l52 46l188 -216v-4z" />
    <glyph glyph-name="onequarter" unicode="&#xbc;" horiz-adv-x="673" 
d="M32 630l105 71h50v-351h-70v269l-58 -37zM50 23l514 687l46 -34l-513 -686zM529 0v79h-194v46l168 225h67l-163 -216h122v91h65v-91h59v-55h-59v-79h-65z" />
    <glyph glyph-name="onehalf" unicode="&#xbd;" horiz-adv-x="689" 
d="M32 630l105 71h50v-351h-70v269l-58 -37zM30 23l514 687l46 -34l-513 -686zM365 0v51c72 48 192 121 192 188c0 31 -21 55 -61 55c-32 0 -64 -24 -69 -58l-59 21c10 61 65 97 135 97c86 0 128 -47 128 -107c0 -93 -129 -165 -174 -187h192v-60h-284z" />
    <glyph glyph-name="threequarters" unicode="&#xbe;" horiz-adv-x="723" 
d="M110 23l514 687l46 -34l-513 -686zM579 0v79h-194v46l168 225h67l-163 -216h122v91h65v-91h59v-55h-59v-79h-65zM174 344c-61 0 -118 22 -144 70l41 38c16 -31 55 -50 92 -50c50 0 77 23 77 53c0 27 -25 47 -71 47h-34v50h30c35 0 62 22 62 51c0 28 -25 45 -63 45
c-45 0 -73 -22 -89 -45l-34 38c20 36 65 64 137 64c74 0 124 -33 124 -88c0 -41 -28 -72 -74 -84v-1c57 -4 87 -42 87 -83c0 -65 -64 -105 -141 -105z" />
    <glyph glyph-name="questiondown" unicode="&#xbf;" horiz-adv-x="466" 
d="M116 -63c0 -61 51 -110 122 -110c60 0 105 26 140 74l48 -53c-36 -58 -108 -101 -193 -101c-129 0 -203 79 -203 173c0 198 220 182 192 334l72 1c36 -186 -178 -166 -178 -318zM314 403c0 -26 -22 -53 -58 -53c-31 0 -53 27 -53 53c0 30 22 57 53 57c36 0 58 -27 58 -57
z" />
    <glyph glyph-name="Agrave" unicode="&#xc0;" horiz-adv-x="705" 
d="M15 0l301 704h73l301 -704h-91l-90 212h-319l-89 -212h-86zM350 591l-126 -299h252zM395 735l-202 84l30 68l195 -104z" />
    <glyph glyph-name="Aacute" unicode="&#xc1;" horiz-adv-x="705" 
d="M15 0l301 704h73l301 -704h-91l-90 212h-319l-89 -212h-86zM350 591l-126 -299h252zM513 819l-202 -84l-23 48l195 104z" />
    <glyph glyph-name="Acircumflex" unicode="&#xc2;" horiz-adv-x="705" 
d="M15 0l301 704h73l301 -704h-91l-90 212h-319l-89 -212h-86zM350 591l-126 -299h252zM177 778l171 104h4l174 -103l-33 -46l-143 76l-144 -76z" />
    <glyph glyph-name="Atilde" unicode="&#xc3;" horiz-adv-x="705" 
d="M15 0l301 704h73l301 -704h-91l-90 212h-319l-89 -212h-86zM350 591l-126 -299h252zM204 761l-26 50c28 30 66 47 100 47c60 0 96 -40 150 -40c23 0 50 5 75 32l22 -50c-28 -37 -62 -52 -102 -52c-54 0 -96 40 -153 40c-21 0 -43 -8 -66 -27z" />
    <glyph glyph-name="Adieresis" unicode="&#xc4;" horiz-adv-x="705" 
d="M15 0l301 704h73l301 -704h-91l-90 212h-319l-89 -212h-86zM350 591l-126 -299h252zM182 813c0 28 25 45 55 45c26 0 52 -17 52 -45c0 -31 -26 -48 -52 -48c-30 0 -55 17 -55 48zM414 813c0 28 26 45 56 45c26 0 51 -16 51 -45c0 -31 -25 -48 -51 -48
c-30 0 -56 17 -56 48z" />
    <glyph glyph-name="Aring" unicode="&#xc5;" horiz-adv-x="705" 
d="M227 792c0 67 56 96 124 96c70 0 126 -29 126 -96c0 -52 -35 -85 -85 -96l298 -696h-91l-90 212h-319l-89 -212h-86l297 696c-49 10 -85 43 -85 96zM350 591l-126 -299h252zM287 792c0 -37 28 -55 65 -55c36 0 65 18 65 55c0 36 -29 51 -65 51c-37 0 -65 -15 -65 -51z
" />
    <glyph glyph-name="AE" unicode="&#xc6;" horiz-adv-x="956" 
d="M881 700v-80h-310v-226h280v-80h-280v-234h320v-80h-405v216h-250l-152 -216h-99l503 700h393zM486 571l-194 -275h194v275z" />
    <glyph glyph-name="Ccedilla" unicode="&#xc7;" horiz-adv-x="656" 
d="M276 -169l26 42c20 -14 50 -28 74 -28c32 0 56 13 56 36c0 24 -16 39 -58 39h-6v72c-190 15 -318 153 -318 358c0 201 130 360 349 360c90 0 163 -25 213 -68l-39 -64c-46 34 -100 52 -173 52c-152 0 -260 -114 -260 -280c0 -167 111 -280 273 -280c67 0 131 23 179 62
l34 -64c-46 -47 -130 -76 -215 -78v-33c74 -4 106 -33 106 -80c0 -48 -46 -82 -123 -82c-59 0 -94 20 -118 36z" />
    <glyph glyph-name="Egrave" unicode="&#xc8;" horiz-adv-x="575" 
d="M105 0v700h395v-80h-310v-226h280v-80h-280v-234h320v-80h-405zM360 735l-202 84l30 68l195 -104z" />
    <glyph glyph-name="Eacute" unicode="&#xc9;" horiz-adv-x="575" 
d="M105 0v700h395v-80h-310v-226h280v-80h-280v-234h320v-80h-405zM453 819l-202 -84l-23 48l195 104z" />
    <glyph glyph-name="Ecircumflex" unicode="&#xca;" horiz-adv-x="575" 
d="M105 0v700h395v-80h-310v-226h280v-80h-280v-234h320v-80h-405zM129 778l171 104h4l174 -103l-33 -46l-143 76l-144 -76z" />
    <glyph glyph-name="Edieresis" unicode="&#xcb;" horiz-adv-x="575" 
d="M105 0v700h395v-80h-310v-226h280v-80h-280v-234h320v-80h-405zM136 813c0 28 25 45 55 45c26 0 52 -17 52 -45c0 -31 -26 -48 -52 -48c-30 0 -55 17 -55 48zM368 813c0 28 26 45 56 45c26 0 51 -16 51 -45c0 -31 -25 -48 -51 -48c-30 0 -56 17 -56 48z" />
    <glyph glyph-name="Igrave" unicode="&#xcc;" horiz-adv-x="335" 
d="M125 0v700h85v-700h-85zM200 735l-202 84l30 68l195 -104z" />
    <glyph glyph-name="Iacute" unicode="&#xcd;" horiz-adv-x="335" 
d="M125 0v700h85v-700h-85zM338 819l-202 -84l-23 48l195 104z" />
    <glyph glyph-name="Icircumflex" unicode="&#xce;" horiz-adv-x="335" 
d="M125 0v700h85v-700h-85zM-7 778l171 104h4l174 -103l-33 -46l-143 76l-144 -76z" />
    <glyph glyph-name="Idieresis" unicode="&#xcf;" horiz-adv-x="335" 
d="M125 0v700h85v-700h-85zM-2 813c0 28 25 45 55 45c26 0 52 -17 52 -45c0 -31 -26 -48 -52 -48c-30 0 -55 17 -55 48zM230 813c0 28 26 45 56 45c26 0 51 -16 51 -45c0 -31 -25 -48 -51 -48c-30 0 -56 17 -56 48z" />
    <glyph glyph-name="Eth" unicode="&#xd0;" horiz-adv-x="754" 
d="M10 316v75h110v309h12c46 0 122 3 179 3c280 0 393 -161 393 -344c0 -199 -134 -361 -401 -361c-47 0 -113 2 -172 2h-11v316h-110zM309 623c-42 0 -69 -2 -104 -3v-229h188v-75h-188v-236c46 -1 89 -2 101 -2c200 0 308 118 308 281c0 152 -102 264 -305 264z" />
    <glyph glyph-name="Ntilde" unicode="&#xd1;" horiz-adv-x="795" 
d="M690 0h-68l-437 550v-550h-80v700h68l437 -552v552h80v-700zM256 761l-26 50c28 30 66 47 100 47c60 0 96 -40 150 -40c23 0 50 5 75 32l22 -50c-28 -37 -62 -52 -102 -52c-54 0 -96 40 -153 40c-21 0 -43 -8 -66 -27z" />
    <glyph glyph-name="Ograve" unicode="&#xd2;" horiz-adv-x="814" 
d="M50 350c0 203 149 360 357 360c203 0 357 -147 357 -360c0 -208 -154 -360 -357 -360s-357 147 -357 360zM140 350c0 -159 117 -280 267 -280c160 0 267 122 267 280c0 163 -117 280 -267 280c-152 0 -267 -117 -267 -280zM480 735l-202 84l30 68l195 -104z" />
    <glyph glyph-name="Oacute" unicode="&#xd3;" horiz-adv-x="814" 
d="M50 350c0 203 149 360 357 360c203 0 357 -147 357 -360c0 -208 -154 -360 -357 -360s-357 147 -357 360zM140 350c0 -159 117 -280 267 -280c160 0 267 122 267 280c0 163 -117 280 -267 280c-152 0 -267 -117 -267 -280zM563 819l-202 -84l-23 48l195 104z" />
    <glyph glyph-name="Ocircumflex" unicode="&#xd4;" horiz-adv-x="814" 
d="M50 350c0 203 149 360 357 360c203 0 357 -147 357 -360c0 -208 -154 -360 -357 -360s-357 147 -357 360zM140 350c0 -159 117 -280 267 -280c160 0 267 122 267 280c0 163 -117 280 -267 280c-152 0 -267 -117 -267 -280zM236 778l171 104h4l174 -103l-33 -46l-143 76
l-144 -76z" />
    <glyph glyph-name="Otilde" unicode="&#xd5;" horiz-adv-x="814" 
d="M50 350c0 203 149 360 357 360c203 0 357 -147 357 -360c0 -208 -154 -360 -357 -360s-357 147 -357 360zM140 350c0 -159 117 -280 267 -280c160 0 267 122 267 280c0 163 -117 280 -267 280c-152 0 -267 -117 -267 -280zM258 761l-26 50c28 30 66 47 100 47
c60 0 96 -40 150 -40c23 0 50 5 75 32l22 -50c-28 -37 -62 -52 -102 -52c-54 0 -96 40 -153 40c-21 0 -43 -8 -66 -27z" />
    <glyph glyph-name="Odieresis" unicode="&#xd6;" horiz-adv-x="814" 
d="M50 350c0 203 149 360 357 360c203 0 357 -147 357 -360c0 -208 -154 -360 -357 -360s-357 147 -357 360zM140 350c0 -159 117 -280 267 -280c160 0 267 122 267 280c0 163 -117 280 -267 280c-152 0 -267 -117 -267 -280zM236 813c0 28 25 45 55 45c26 0 52 -17 52 -45
c0 -31 -26 -48 -52 -48c-30 0 -55 17 -55 48zM468 813c0 28 26 45 56 45c26 0 51 -16 51 -45c0 -31 -25 -48 -51 -48c-30 0 -56 17 -56 48z" />
    <glyph glyph-name="multiply" unicode="&#xd7;" 
d="M111 495l50 50l135 -136l135 136l49 -50l-135 -135l137 -136l-50 -50l-136 136l-137 -136l-49 50l136 136z" />
    <glyph glyph-name="Oslash" unicode="&#xd8;" horiz-adv-x="814" 
d="M50 350c0 203 149 360 357 360c90 0 170 -29 231 -80l44 43l46 -47l-43 -42c50 -61 79 -141 79 -234c0 -208 -154 -360 -357 -360c-94 0 -178 32 -240 87l-45 -44l-47 48l46 45c-45 59 -71 136 -71 224zM674 350c0 66 -20 125 -53 171l-392 -383c47 -43 109 -68 178 -68
c160 0 267 122 267 280zM140 350c0 -61 17 -116 46 -161l390 381c-45 38 -104 60 -169 60c-152 0 -267 -117 -267 -280z" />
    <glyph glyph-name="Ugrave" unicode="&#xd9;" horiz-adv-x="751" 
d="M656 700v-408c0 -214 -128 -301 -271 -301c-168 0 -290 103 -290 308v401h85v-385c0 -152 74 -244 205 -244c115 0 186 79 186 238v391h85zM435 735l-202 84l30 68l195 -104z" />
    <glyph glyph-name="Uacute" unicode="&#xda;" horiz-adv-x="751" 
d="M656 700v-408c0 -214 -128 -301 -271 -301c-168 0 -290 103 -290 308v401h85v-385c0 -152 74 -244 205 -244c115 0 186 79 186 238v391h85zM528 819l-202 -84l-23 48l195 104z" />
    <glyph glyph-name="Ucircumflex" unicode="&#xdb;" horiz-adv-x="751" 
d="M656 700v-408c0 -214 -128 -301 -271 -301c-168 0 -290 103 -290 308v401h85v-385c0 -152 74 -244 205 -244c115 0 186 79 186 238v391h85zM200 778l171 104h4l174 -103l-33 -46l-143 76l-144 -76z" />
    <glyph glyph-name="Udieresis" unicode="&#xdc;" horiz-adv-x="751" 
d="M656 700v-408c0 -214 -128 -301 -271 -301c-168 0 -290 103 -290 308v401h85v-385c0 -152 74 -244 205 -244c115 0 186 79 186 238v391h85zM201 813c0 28 25 45 55 45c26 0 52 -17 52 -45c0 -31 -26 -48 -52 -48c-30 0 -55 17 -55 48zM433 813c0 28 26 45 56 45
c26 0 51 -16 51 -45c0 -31 -25 -48 -51 -48c-30 0 -56 17 -56 48z" />
    <glyph glyph-name="Yacute" unicode="&#xdd;" horiz-adv-x="604" 
d="M594 700l-251 -400v-300h-85v300l-248 400h98l196 -320l197 320h93zM458 819l-202 -84l-23 48l195 104z" />
    <glyph glyph-name="Thorn" unicode="&#xde;" horiz-adv-x="597" 
d="M190 0h-85v700h85v-105c25 0 77 2 98 2c200 0 259 -108 259 -217c0 -114 -81 -220 -252 -220c-28 0 -70 1 -105 4v-164zM289 517c-26 0 -76 -2 -99 -3v-269c34 -3 67 -5 102 -5c103 0 165 53 165 141c0 83 -53 136 -168 136z" />
    <glyph glyph-name="germandbls" unicode="&#xdf;" horiz-adv-x="546" 
d="M421 154c0 108 -183 116 -183 234c0 97 94 111 94 181c0 39 -37 66 -80 66c-67 0 -97 -42 -97 -137v-500h-80v510c0 140 69 202 188 202c88 0 154 -55 154 -127c0 -98 -94 -108 -94 -180c0 -104 183 -95 183 -251c0 -91 -65 -162 -154 -162c-69 0 -118 32 -143 65l27 61
c21 -25 53 -51 97 -51c46 0 88 32 88 89z" />
    <glyph glyph-name="agrave" unicode="&#xe0;" horiz-adv-x="460" 
d="M96 355l-21 64c40 25 94 41 150 41c128 0 173 -67 173 -184v-276h-76v58c-27 -34 -70 -65 -144 -65c-82 0 -138 52 -138 139c0 92 73 143 170 143c35 0 82 -7 112 -29c0 84 -13 142 -102 142c-55 0 -88 -14 -124 -33zM206 65c59 0 93 31 116 58v57c-28 20 -62 30 -101 30
c-48 0 -96 -22 -96 -74c0 -43 29 -71 81 -71zM251 531l-121 142l63 48l107 -156z" />
    <glyph glyph-name="aacute" unicode="&#xe1;" horiz-adv-x="460" 
d="M96 355l-21 64c40 25 94 41 150 41c128 0 173 -67 173 -184v-276h-76v58c-27 -34 -70 -65 -144 -65c-82 0 -138 52 -138 139c0 92 73 143 170 143c35 0 82 -7 112 -29c0 84 -13 142 -102 142c-55 0 -88 -14 -124 -33zM206 65c59 0 93 31 116 58v57c-28 20 -62 30 -101 30
c-48 0 -96 -22 -96 -74c0 -43 29 -71 81 -71zM335 674l-120 -143l-48 34l106 157z" />
    <glyph glyph-name="acircumflex" unicode="&#xe2;" horiz-adv-x="460" 
d="M96 355l-21 64c40 25 94 41 150 41c128 0 173 -67 173 -184v-276h-76v58c-27 -34 -70 -65 -144 -65c-82 0 -138 52 -138 139c0 92 73 143 170 143c35 0 82 -7 112 -29c0 84 -13 142 -102 142c-55 0 -88 -14 -124 -33zM206 65c59 0 93 31 116 58v57c-28 20 -62 30 -101 30
c-48 0 -96 -22 -96 -74c0 -43 29 -71 81 -71zM232 707l139 -133l-38 -48l-104 91l-104 -90l-38 47l141 133h4z" />
    <glyph glyph-name="atilde" unicode="&#xe3;" horiz-adv-x="460" 
d="M96 355l-21 64c40 25 94 41 150 41c128 0 173 -67 173 -184v-276h-76v58c-27 -34 -70 -65 -144 -65c-82 0 -138 52 -138 139c0 92 73 143 170 143c35 0 82 -7 112 -29c0 84 -13 142 -102 142c-55 0 -88 -14 -124 -33zM206 65c59 0 93 31 116 58v57c-28 20 -62 30 -101 30
c-48 0 -96 -22 -96 -74c0 -43 29 -71 81 -71zM99 557l-33 37c38 43 77 60 110 60c47 0 72 -44 113 -44c26 0 42 11 71 35l28 -41c-37 -39 -74 -59 -106 -59c-44 0 -69 44 -114 44c-20 0 -44 -13 -69 -32z" />
    <glyph glyph-name="adieresis" unicode="&#xe4;" horiz-adv-x="460" 
d="M96 355l-21 64c40 25 94 41 150 41c128 0 173 -67 173 -184v-276h-76v58c-27 -34 -70 -65 -144 -65c-82 0 -138 52 -138 139c0 92 73 143 170 143c35 0 82 -7 112 -29c0 84 -13 142 -102 142c-55 0 -88 -14 -124 -33zM206 65c59 0 93 31 116 58v57c-28 20 -62 30 -101 30
c-48 0 -96 -22 -96 -74c0 -43 29 -71 81 -71zM83 610c0 28 21 46 47 46c22 0 44 -18 44 -46c0 -32 -22 -50 -44 -50c-26 0 -47 18 -47 50zM286 610c0 28 22 46 48 46c22 0 44 -18 44 -46c0 -32 -22 -50 -44 -50c-26 0 -48 18 -48 50z" />
    <glyph glyph-name="aring" unicode="&#xe5;" horiz-adv-x="460" 
d="M96 355l-21 64c40 25 94 41 150 41c128 0 173 -67 173 -184v-276h-76v58c-27 -34 -70 -65 -144 -65c-82 0 -138 52 -138 139c0 92 73 143 170 143c35 0 82 -7 112 -29c0 84 -13 142 -102 142c-55 0 -88 -14 -124 -33zM206 65c59 0 93 31 116 58v57c-28 20 -62 30 -101 30
c-48 0 -96 -22 -96 -74c0 -43 29 -71 81 -71zM116 613c0 61 49 111 114 111c66 0 116 -50 116 -111s-50 -110 -116 -110c-65 0 -114 49 -114 110zM168 614c0 -37 27 -66 63 -66s63 29 63 66c0 36 -27 65 -63 65s-63 -29 -63 -65z" />
    <glyph glyph-name="ae" unicode="&#xe6;" horiz-adv-x="775" 
d="M225 460c71 0 116 -21 142 -59c39 36 94 59 162 59c116 0 209 -82 209 -206c0 -22 -2 -40 -5 -54h-335v-62c28 -46 76 -73 146 -73c58 0 109 20 138 47l25 -63c-44 -40 -109 -59 -169 -59c-77 0 -139 26 -181 70c-56 -51 -108 -67 -163 -67c-98 0 -154 52 -154 139
c0 92 73 143 170 143c35 0 86 -7 108 -14c4 80 -20 124 -98 124c-55 0 -88 -14 -124 -33l-21 67c40 25 94 41 150 41zM398 276v-11h257c-4 74 -52 120 -130 120c-56 0 -102 -25 -129 -69c1 -12 2 -26 2 -40zM206 68c59 0 89 28 112 55v73c-33 9 -58 14 -97 14
c-48 0 -96 -22 -96 -74c0 -43 35 -68 81 -68z" />
    <glyph glyph-name="ccedilla" unicode="&#xe7;" horiz-adv-x="488" 
d="M159 -171l24 39c20 -13 47 -23 71 -23c32 0 56 13 56 36c0 24 -16 39 -58 39h-6v72c-123 14 -204 103 -204 233c0 131 96 235 228 235c72 0 135 -17 177 -59l-37 -63c-38 35 -82 47 -129 47c-81 0 -154 -65 -154 -160c0 -99 73 -160 162 -160c54 0 99 24 129 58l38 -58
c-37 -48 -100 -73 -167 -75v-33c68 -4 101 -33 101 -80c0 -48 -45 -82 -126 -82c-51 0 -81 18 -105 34z" />
    <glyph glyph-name="egrave" unicode="&#xe8;" horiz-adv-x="520" 
d="M427 112l25 -63c-44 -40 -109 -59 -169 -59c-146 0 -241 93 -241 235c0 131 84 235 232 235c116 0 209 -82 209 -206c0 -22 -2 -40 -5 -54h-346c7 -85 69 -135 157 -135c58 0 109 20 138 47zM270 385c-82 0 -134 -51 -143 -120h273c-4 74 -52 120 -130 120zM286 531
l-121 142l63 48l107 -156z" />
    <glyph glyph-name="eacute" unicode="&#xe9;" horiz-adv-x="520" 
d="M427 112l25 -63c-44 -40 -109 -59 -169 -59c-146 0 -241 93 -241 235c0 131 84 235 232 235c116 0 209 -82 209 -206c0 -22 -2 -40 -5 -54h-346c7 -85 69 -135 157 -135c58 0 109 20 138 47zM270 385c-82 0 -134 -51 -143 -120h273c-4 74 -52 120 -130 120zM390 674
l-120 -143l-48 34l106 157z" />
    <glyph glyph-name="ecircumflex" unicode="&#xea;" horiz-adv-x="520" 
d="M427 112l25 -63c-44 -40 -109 -59 -169 -59c-146 0 -241 93 -241 235c0 131 84 235 232 235c116 0 209 -82 209 -206c0 -22 -2 -40 -5 -54h-346c7 -85 69 -135 157 -135c58 0 109 20 138 47zM270 385c-82 0 -134 -51 -143 -120h273c-4 74 -52 120 -130 120zM272 707
l139 -133l-38 -48l-104 91l-104 -90l-38 47l141 133h4z" />
    <glyph glyph-name="edieresis" unicode="&#xeb;" horiz-adv-x="520" 
d="M427 112l25 -63c-44 -40 -109 -59 -169 -59c-146 0 -241 93 -241 235c0 131 84 235 232 235c116 0 209 -82 209 -206c0 -22 -2 -40 -5 -54h-346c7 -85 69 -135 157 -135c58 0 109 20 138 47zM270 385c-82 0 -134 -51 -143 -120h273c-4 74 -52 120 -130 120zM119 610
c0 28 21 46 47 46c22 0 44 -18 44 -46c0 -32 -22 -50 -44 -50c-26 0 -47 18 -47 50zM322 610c0 28 22 46 48 46c22 0 44 -18 44 -46c0 -32 -22 -50 -44 -50c-26 0 -48 18 -48 50z" />
    <glyph glyph-name="igrave" unicode="&#xec;" horiz-adv-x="268" 
d="M94 0v450h80v-450h-80zM127 531l-121 142l63 48l107 -156z" />
    <glyph glyph-name="iacute" unicode="&#xed;" horiz-adv-x="268" 
d="M94 0v450h80v-450h-80zM246 674l-120 -143l-48 34l106 157z" />
    <glyph glyph-name="icircumflex" unicode="&#xee;" horiz-adv-x="268" 
d="M94 0v450h80v-450h-80zM137 707l139 -133l-38 -48l-104 91l-104 -90l-38 47l141 133h4z" />
    <glyph glyph-name="idieresis" unicode="&#xef;" horiz-adv-x="268" 
d="M94 0v450h80v-450h-80zM-13 610c0 28 21 46 47 46c22 0 44 -18 44 -46c0 -32 -22 -50 -44 -50c-26 0 -47 18 -47 50zM190 610c0 28 22 46 48 46c22 0 44 -18 44 -46c0 -32 -22 -50 -44 -50c-26 0 -48 18 -48 50z" />
    <glyph glyph-name="eth" unicode="&#xf0;" horiz-adv-x="565" 
d="M196 512l-23 71l96 40c-33 29 -67 53 -103 72l90 15c30 -16 58 -35 84 -57l105 45l23 -71l-72 -30c81 -96 126 -222 126 -337c0 -169 -96 -270 -240 -270s-240 100 -240 235s96 235 240 235c58 0 109 -31 135 -79c-16 69 -49 132 -93 185zM127 225
c0 -94 65 -160 155 -160c94 0 160 76 155 200c-13 61 -70 120 -155 120c-88 0 -155 -65 -155 -160z" />
    <glyph glyph-name="ntilde" unicode="&#xf1;" horiz-adv-x="549" 
d="M72 0v450h80v-55c31 34 88 63 147 63c117 0 187 -57 187 -198v-260h-80v245c0 94 -43 138 -127 138c-51 0 -98 -25 -127 -58v-325h-80zM144 557l-33 37c38 43 77 60 110 60c47 0 72 -44 113 -44c26 0 42 11 71 35l28 -41c-37 -39 -74 -59 -106 -59c-44 0 -69 44 -114 44
c-20 0 -44 -13 -69 -32z" />
    <glyph glyph-name="ograve" unicode="&#xf2;" horiz-adv-x="565" 
d="M42 225c0 135 96 235 240 235s240 -100 240 -235s-96 -235 -240 -235s-240 100 -240 235zM127 225c0 -94 65 -160 155 -160s155 64 155 160c0 94 -65 160 -155 160c-88 0 -155 -65 -155 -160zM290 531l-121 142l63 48l107 -156z" />
    <glyph glyph-name="oacute" unicode="&#xf3;" horiz-adv-x="565" 
d="M42 225c0 135 96 235 240 235s240 -100 240 -235s-96 -235 -240 -235s-240 100 -240 235zM127 225c0 -94 65 -160 155 -160s155 64 155 160c0 94 -65 160 -155 160c-88 0 -155 -65 -155 -160zM394 674l-120 -143l-48 34l106 157z" />
    <glyph glyph-name="ocircumflex" unicode="&#xf4;" horiz-adv-x="565" 
d="M42 225c0 135 96 235 240 235s240 -100 240 -235s-96 -235 -240 -235s-240 100 -240 235zM127 225c0 -94 65 -160 155 -160s155 64 155 160c0 94 -65 160 -155 160c-88 0 -155 -65 -155 -160zM285 707l139 -133l-38 -48l-104 91l-104 -90l-38 47l141 133h4z" />
    <glyph glyph-name="otilde" unicode="&#xf5;" horiz-adv-x="565" 
d="M42 225c0 135 96 235 240 235s240 -100 240 -235s-96 -235 -240 -235s-240 100 -240 235zM127 225c0 -94 65 -160 155 -160s155 64 155 160c0 94 -65 160 -155 160c-88 0 -155 -65 -155 -160zM152 557l-33 37c38 43 77 60 110 60c47 0 72 -44 113 -44c26 0 42 11 71 35
l28 -41c-37 -39 -74 -59 -106 -59c-44 0 -69 44 -114 44c-20 0 -44 -13 -69 -32z" />
    <glyph glyph-name="odieresis" unicode="&#xf6;" horiz-adv-x="565" 
d="M42 225c0 135 96 235 240 235s240 -100 240 -235s-96 -235 -240 -235s-240 100 -240 235zM127 225c0 -94 65 -160 155 -160s155 64 155 160c0 94 -65 160 -155 160c-88 0 -155 -65 -155 -160zM139 610c0 28 21 46 47 46c22 0 44 -18 44 -46c0 -32 -22 -50 -44 -50
c-26 0 -47 18 -47 50zM342 610c0 28 22 46 48 46c22 0 44 -18 44 -46c0 -32 -22 -50 -44 -50c-26 0 -48 18 -48 50z" />
    <glyph glyph-name="divide" unicode="&#xf7;" 
d="M246 564c0 23 18 48 50 48c30 0 49 -25 49 -48c0 -26 -19 -51 -49 -51c-32 0 -50 25 -50 51zM246 157c0 22 18 47 50 47c29 0 49 -25 49 -47c0 -27 -19 -51 -49 -51c-32 0 -50 24 -50 51zM69 325v70h454v-70h-454z" />
    <glyph glyph-name="oslash" unicode="&#xf8;" horiz-adv-x="565" 
d="M42 225c0 135 96 235 240 235c61 0 113 -18 153 -49l46 44l44 -49l-45 -43c27 -38 42 -85 42 -138c0 -135 -96 -235 -240 -235c-58 0 -107 16 -146 43l-50 -47l-45 51l46 44c-29 39 -45 88 -45 144zM127 225c0 -33 7 -62 21 -86l228 216c-26 19 -58 30 -94 30
c-88 0 -155 -65 -155 -160zM437 225c0 29 -7 56 -18 79l-224 -214c24 -16 54 -25 87 -25c90 0 155 64 155 160z" />
    <glyph glyph-name="ugrave" unicode="&#xf9;" horiz-adv-x="540" 
d="M467 450v-450h-80v64c-31 -38 -88 -74 -159 -74c-100 0 -166 60 -166 192v268h80v-250c0 -85 34 -135 116 -135c52 0 101 31 129 67v318h80zM275 531l-121 142l63 48l107 -156z" />
    <glyph glyph-name="uacute" unicode="&#xfa;" horiz-adv-x="540" 
d="M467 450v-450h-80v64c-31 -38 -88 -74 -159 -74c-100 0 -166 60 -166 192v268h80v-250c0 -85 34 -135 116 -135c52 0 101 31 129 67v318h80zM384 674l-120 -143l-48 34l106 157z" />
    <glyph glyph-name="ucircumflex" unicode="&#xfb;" horiz-adv-x="540" 
d="M467 450v-450h-80v64c-31 -38 -88 -74 -159 -74c-100 0 -166 60 -166 192v268h80v-250c0 -85 34 -135 116 -135c52 0 101 31 129 67v318h80zM269 707l139 -133l-38 -48l-104 91l-104 -90l-38 47l141 133h4z" />
    <glyph glyph-name="udieresis" unicode="&#xfc;" horiz-adv-x="540" 
d="M467 450v-450h-80v64c-31 -38 -88 -74 -159 -74c-100 0 -166 60 -166 192v268h80v-250c0 -85 34 -135 116 -135c52 0 101 31 129 67v318h80zM121 610c0 28 21 46 47 46c22 0 44 -18 44 -46c0 -32 -22 -50 -44 -50c-26 0 -47 18 -47 50zM324 610c0 28 22 46 48 46
c22 0 44 -18 44 -46c0 -32 -22 -50 -44 -50c-26 0 -48 18 -48 50z" />
    <glyph glyph-name="yacute" unicode="&#xfd;" horiz-adv-x="491" 
d="M481 450l-180 -450c-66 -161 -108 -200 -172 -200c-34 0 -61 12 -85 28l26 61c15 -7 32 -15 50 -15c38 0 66 30 96 102l10 24l-216 450h96l132 -286c10 -23 18 -45 27 -68c6 22 13 45 21 69l104 285h91zM355 674l-120 -143l-48 34l106 157z" />
    <glyph glyph-name="thorn" unicode="&#xfe;" horiz-adv-x="556" 
d="M72 -200v900h80v-298c34 33 90 58 153 58c128 0 208 -95 208 -228c0 -137 -93 -242 -234 -242c-48 0 -95 10 -127 31v-221h-80zM282 385c-53 0 -102 -27 -130 -62v-223c40 -27 77 -35 120 -35c96 0 156 69 156 164c0 91 -53 156 -146 156z" />
    <glyph glyph-name="ydieresis" unicode="&#xff;" horiz-adv-x="491" 
d="M481 450l-180 -450c-66 -161 -108 -200 -172 -200c-34 0 -61 12 -85 28l26 61c15 -7 32 -15 50 -15c38 0 66 30 96 102l10 24l-216 450h96l132 -286c10 -23 18 -45 27 -68c6 22 13 45 21 69l104 285h91zM103 610c0 28 21 46 47 46c22 0 44 -18 44 -46
c0 -32 -22 -50 -44 -50c-26 0 -47 18 -47 50zM306 610c0 28 22 46 48 46c22 0 44 -18 44 -46c0 -32 -22 -50 -44 -50c-26 0 -48 18 -48 50z" />
    <glyph glyph-name="Amacron" unicode="&#x100;" horiz-adv-x="705" 
d="M15 0l301 704h73l301 -704h-91l-90 212h-319l-89 -212h-86zM350 591l-126 -299h252zM200 770v65h304v-65h-304z" />
    <glyph glyph-name="amacron" unicode="&#x101;" horiz-adv-x="460" 
d="M96 355l-21 64c40 25 94 41 150 41c128 0 173 -67 173 -184v-276h-76v58c-27 -34 -70 -65 -144 -65c-82 0 -138 52 -138 139c0 92 73 143 170 143c35 0 82 -7 112 -29c0 84 -13 142 -102 142c-55 0 -88 -14 -124 -33zM206 65c59 0 93 31 116 58v57c-28 20 -62 30 -101 30
c-48 0 -96 -22 -96 -74c0 -43 29 -71 81 -71zM101 580v65h264v-65h-264z" />
    <glyph glyph-name="Abreve" unicode="&#x102;" horiz-adv-x="705" 
d="M15 0l301 704h73l301 -704h-91l-90 212h-319l-89 -212h-86zM350 591l-126 -299h252zM177 838l36 42c23 -26 67 -65 143 -65c66 0 113 33 140 65l31 -42c-31 -48 -94 -93 -171 -93c-89 0 -154 54 -179 93z" />
    <glyph glyph-name="abreve" unicode="&#x103;" horiz-adv-x="460" 
d="M96 355l-21 64c40 25 94 41 150 41c128 0 173 -67 173 -184v-276h-76v58c-27 -34 -70 -65 -144 -65c-82 0 -138 52 -138 139c0 92 73 143 170 143c35 0 82 -7 112 -29c0 84 -13 142 -102 142c-55 0 -88 -14 -124 -33zM206 65c59 0 93 31 116 58v57c-28 20 -62 30 -101 30
c-48 0 -96 -22 -96 -74c0 -43 29 -71 81 -71zM79 640l37 41c20 -24 54 -61 114 -61c52 0 91 31 115 60l29 -39c-28 -39 -70 -86 -147 -86c-83 0 -130 57 -148 85z" />
    <glyph glyph-name="Aogonek" unicode="&#x104;" horiz-adv-x="705" 
d="M661 -126l24 -49c-17 -14 -52 -25 -86 -25c-58 0 -122 23 -122 92c0 60 54 98 119 114l-87 206h-319l-89 -212h-86l301 704h73l301 -704h-19c-60 -2 -114 -38 -114 -82c0 -42 37 -53 60 -53c14 0 27 1 44 9zM350 591l-126 -299h252z" />
    <glyph glyph-name="aogonek" unicode="&#x105;" horiz-adv-x="460" 
d="M383 -126l24 -49c-17 -14 -52 -25 -86 -25c-58 0 -122 23 -122 92c0 61 56 99 123 115v51c-27 -34 -70 -65 -144 -65c-82 0 -138 52 -138 139c0 92 73 143 170 143c35 0 82 -7 112 -29c0 84 -13 142 -102 142c-55 0 -88 -14 -124 -33l-21 64c40 25 94 41 150 41
c128 0 173 -67 173 -184v-276c-62 0 -119 -37 -119 -82c0 -42 37 -53 60 -53c14 0 27 1 44 9zM206 65c59 0 93 31 116 58v57c-28 20 -62 30 -101 30c-48 0 -96 -22 -96 -74c0 -43 29 -71 81 -71z" />
    <glyph glyph-name="Cacute" unicode="&#x106;" horiz-adv-x="656" 
d="M592 132l34 -64c-47 -48 -134 -78 -221 -78c-210 0 -355 142 -355 360c0 201 130 360 349 360c90 0 163 -25 213 -68l-39 -64c-46 34 -100 52 -173 52c-152 0 -260 -114 -260 -280c0 -167 111 -280 273 -280c67 0 131 23 179 62zM538 819l-202 -84l-23 48l195 104z" />
    <glyph glyph-name="cacute" unicode="&#x107;" horiz-adv-x="488" 
d="M418 123l38 -58c-38 -49 -104 -75 -173 -75c-143 0 -241 93 -241 235c0 131 96 235 228 235c72 0 135 -17 177 -59l-37 -63c-38 35 -82 47 -129 47c-81 0 -154 -65 -154 -160c0 -99 73 -160 162 -160c54 0 99 24 129 58zM382 674l-120 -143l-48 34l106 157z" />
    <glyph glyph-name="Ccircumflex" unicode="&#x108;" horiz-adv-x="656" 
d="M592 132l34 -64c-47 -48 -134 -78 -221 -78c-210 0 -355 142 -355 360c0 201 130 360 349 360c90 0 163 -25 213 -68l-39 -64c-46 34 -100 52 -173 52c-152 0 -260 -114 -260 -280c0 -167 111 -280 273 -280c67 0 131 23 179 62zM216 778l171 104h4l174 -103l-33 -46
l-143 76l-144 -76z" />
    <glyph glyph-name="ccircumflex" unicode="&#x109;" horiz-adv-x="488" 
d="M418 123l38 -58c-38 -49 -104 -75 -173 -75c-143 0 -241 93 -241 235c0 131 96 235 228 235c72 0 135 -17 177 -59l-37 -63c-38 35 -82 47 -129 47c-81 0 -154 -65 -154 -160c0 -99 73 -160 162 -160c54 0 99 24 129 58zM279 707l139 -133l-38 -48l-104 91l-104 -90
l-38 47l141 133h4z" />
    <glyph glyph-name="Cdotaccent" unicode="&#x10a;" horiz-adv-x="656" 
d="M592 132l34 -64c-47 -48 -134 -78 -221 -78c-210 0 -355 142 -355 360c0 201 130 360 349 360c90 0 163 -25 213 -68l-39 -64c-46 34 -100 52 -173 52c-152 0 -260 -114 -260 -280c0 -167 111 -280 273 -280c67 0 131 23 179 62zM325 817c0 32 27 51 57 51
c28 0 54 -19 54 -51c0 -35 -26 -54 -54 -54c-30 0 -57 19 -57 54z" />
    <glyph glyph-name="cdotaccent" unicode="&#x10b;" horiz-adv-x="488" 
d="M418 123l38 -58c-38 -49 -104 -75 -173 -75c-143 0 -241 93 -241 235c0 131 96 235 228 235c72 0 135 -17 177 -59l-37 -63c-38 35 -82 47 -129 47c-81 0 -154 -65 -154 -160c0 -99 73 -160 162 -160c54 0 99 24 129 58zM226 619c0 29 24 48 52 48c25 0 49 -19 49 -48
c0 -33 -24 -52 -49 -52c-28 0 -52 19 -52 52z" />
    <glyph glyph-name="Ccaron" unicode="&#x10c;" horiz-adv-x="656" 
d="M592 132l34 -64c-47 -48 -134 -78 -221 -78c-210 0 -355 142 -355 360c0 201 130 360 349 360c90 0 163 -25 213 -68l-39 -64c-46 34 -100 52 -173 52c-152 0 -260 -114 -260 -280c0 -167 111 -280 273 -280c67 0 131 23 179 62zM390 738l-175 103l33 46l144 -81l143 81
l30 -45l-171 -104h-4z" />
    <glyph glyph-name="ccaron" unicode="&#x10d;" horiz-adv-x="488" 
d="M418 123l38 -58c-38 -49 -104 -75 -173 -75c-143 0 -241 93 -241 235c0 131 96 235 228 235c72 0 135 -17 177 -59l-37 -63c-38 35 -82 47 -129 47c-81 0 -154 -65 -154 -160c0 -99 73 -160 162 -160c54 0 99 24 129 58zM273 529l-140 133l39 48l104 -103l104 102l37 -47
l-140 -133h-4z" />
    <glyph glyph-name="Dcaron" unicode="&#x10e;" horiz-adv-x="739" 
d="M105 0v700h12c46 0 122 3 179 3c280 0 393 -161 393 -344c0 -199 -134 -361 -401 -361c-47 0 -113 2 -172 2h-11zM294 623c-42 0 -69 -2 -104 -3v-540c46 -1 89 -2 101 -2c200 0 308 118 308 281c0 152 -102 264 -305 264zM335 738l-175 103l33 46l144 -81l143 81l30 -45
l-171 -104h-4z" />
    <glyph glyph-name="dcaron" unicode="&#x10f;" horiz-adv-x="554" 
d="M402 0v57c-33 -36 -82 -65 -143 -65c-132 0 -217 91 -217 230c0 140 104 238 246 238c48 0 83 -10 114 -32v272h80v-700h-80zM274 67c52 0 100 29 128 60v223c-38 24 -74 35 -111 35c-89 0 -164 -62 -164 -161s63 -157 147 -157zM571 700h78c5 -10 8 -24 8 -38
c0 -81 -44 -131 -86 -153l-36 35c28 24 47 64 47 109c0 20 -4 34 -11 47z" />
    <glyph glyph-name="Dcroat" unicode="&#x110;" horiz-adv-x="754" 
d="M10 316v75h110v309h12c46 0 122 3 179 3c280 0 393 -161 393 -344c0 -199 -134 -361 -401 -361c-47 0 -113 2 -172 2h-11v316h-110zM309 623c-42 0 -69 -2 -104 -3v-229h188v-75h-188v-236c46 -1 89 -2 101 -2c200 0 308 118 308 281c0 152 -102 264 -305 264z" />
    <glyph glyph-name="dcroat" unicode="&#x111;" horiz-adv-x="554" 
d="M245 534v65h157v101h80v-101h92v-65h-92v-534h-80v57c-33 -36 -82 -65 -143 -65c-132 0 -217 91 -217 230c0 140 104 238 246 238c48 0 83 -10 114 -32v106h-157zM274 67c52 0 100 29 128 60v223c-38 24 -74 35 -111 35c-89 0 -164 -62 -164 -161s63 -157 147 -157z" />
    <glyph glyph-name="Emacron" unicode="&#x112;" horiz-adv-x="575" 
d="M105 0v700h395v-80h-310v-226h280v-80h-280v-234h320v-80h-405zM150 770v65h304v-65h-304z" />
    <glyph glyph-name="emacron" unicode="&#x113;" horiz-adv-x="520" 
d="M427 112l25 -63c-44 -40 -109 -59 -169 -59c-146 0 -241 93 -241 235c0 131 84 235 232 235c116 0 209 -82 209 -206c0 -22 -2 -40 -5 -54h-346c7 -85 69 -135 157 -135c58 0 109 20 138 47zM270 385c-82 0 -134 -51 -143 -120h273c-4 74 -52 120 -130 120zM132 580v65
h264v-65h-264z" />
    <glyph glyph-name="Edotaccent" unicode="&#x116;" horiz-adv-x="575" 
d="M105 0v700h395v-80h-310v-226h280v-80h-280v-234h320v-80h-405zM250 817c0 32 27 51 57 51c28 0 54 -19 54 -51c0 -35 -26 -54 -54 -54c-30 0 -57 19 -57 54z" />
    <glyph glyph-name="edotaccent" unicode="&#x117;" horiz-adv-x="520" 
d="M427 112l25 -63c-44 -40 -109 -59 -169 -59c-146 0 -241 93 -241 235c0 131 84 235 232 235c116 0 209 -82 209 -206c0 -22 -2 -40 -5 -54h-346c7 -85 69 -135 157 -135c58 0 109 20 138 47zM270 385c-82 0 -134 -51 -143 -120h273c-4 74 -52 120 -130 120zM215 619
c0 29 24 48 52 48c25 0 49 -19 49 -48c0 -33 -24 -52 -49 -52c-28 0 -52 19 -52 52z" />
    <glyph glyph-name="Eogonek" unicode="&#x118;" horiz-adv-x="575" 
d="M105 0v700h395v-80h-310v-226h280v-80h-280v-234h320v-80h-5c-60 -2 -114 -38 -114 -82c0 -42 37 -53 60 -53c14 0 27 1 44 9l24 -49c-17 -14 -52 -25 -86 -25c-58 0 -122 23 -122 92c0 53 43 89 98 108h-304z" />
    <glyph glyph-name="eogonek" unicode="&#x119;" horiz-adv-x="520" 
d="M427 112l25 -63c-21 -19 -47 -34 -74 -43c-40 -26 -67 -55 -67 -88c0 -42 38 -53 61 -53c14 0 27 1 44 9l24 -49c-17 -14 -52 -25 -86 -25c-58 0 -123 23 -123 92c0 41 28 73 72 99c-7 0 -13 -1 -20 -1c-146 0 -241 93 -241 235c0 131 84 235 232 235
c116 0 209 -82 209 -206c0 -22 -2 -40 -5 -54h-346c7 -85 69 -135 157 -135c58 0 109 20 138 47zM270 385c-82 0 -134 -51 -143 -120h273c-4 74 -52 120 -130 120z" />
    <glyph glyph-name="Ecaron" unicode="&#x11a;" horiz-adv-x="575" 
d="M105 0v700h395v-80h-310v-226h280v-80h-280v-234h320v-80h-405zM310 738l-175 103l33 46l144 -81l143 81l30 -45l-171 -104h-4z" />
    <glyph glyph-name="ecaron" unicode="&#x11b;" horiz-adv-x="520" 
d="M427 112l25 -63c-44 -40 -109 -59 -169 -59c-146 0 -241 93 -241 235c0 131 84 235 232 235c116 0 209 -82 209 -206c0 -22 -2 -40 -5 -54h-346c7 -85 69 -135 157 -135c58 0 109 20 138 47zM270 385c-82 0 -134 -51 -143 -120h273c-4 74 -52 120 -130 120zM271 529
l-140 133l39 48l104 -103l104 102l37 -47l-140 -133h-4z" />
    <glyph glyph-name="Gcircumflex" unicode="&#x11c;" horiz-adv-x="727" 
d="M398 276v80h269v-269c-62 -62 -175 -97 -262 -97c-218 0 -355 142 -355 360c0 201 135 360 344 360c95 0 163 -23 220 -68l-37 -68c-41 37 -106 56 -173 56c-156 0 -264 -111 -264 -280c0 -170 108 -280 267 -280c66 0 143 26 180 62v144h-189zM216 778l171 104h4
l174 -103l-33 -46l-143 76l-144 -76z" />
    <glyph glyph-name="gcircumflex" unicode="&#x11d;" horiz-adv-x="494" 
d="M10 -65c0 73 58 119 144 137c-8 10 -11 24 -11 37c0 14 4 28 12 38c-64 26 -101 82 -101 148c0 90 71 165 184 165c44 0 83 -12 114 -33l132 32l2 -65l-85 -21c14 -23 21 -50 21 -78c0 -90 -73 -162 -184 -162c-10 0 -20 0 -30 1c-4 -8 -5 -17 -5 -25c0 -11 3 -22 9 -30
c9 0 18 1 27 1c131 0 229 -47 229 -145c0 -96 -98 -143 -229 -143s-229 45 -229 143zM85 -65c0 -50 61 -78 154 -78s154 27 154 78c0 50 -58 80 -154 80s-154 -30 -154 -80zM129 295c0 -56 43 -97 109 -97c63 0 109 39 109 97c0 56 -42 100 -109 100
c-66 0 -109 -44 -109 -100zM245 707l139 -133l-38 -48l-104 91l-104 -90l-38 47l141 133h4z" />
    <glyph glyph-name="Gbreve" unicode="&#x11e;" horiz-adv-x="727" 
d="M398 276v80h269v-269c-62 -62 -175 -97 -262 -97c-218 0 -355 142 -355 360c0 201 135 360 344 360c95 0 163 -23 220 -68l-37 -68c-41 37 -106 56 -173 56c-156 0 -264 -111 -264 -280c0 -170 108 -280 267 -280c66 0 143 26 180 62v144h-189zM226 838l36 42
c23 -26 67 -65 143 -65c66 0 113 33 140 65l31 -42c-31 -48 -94 -93 -171 -93c-89 0 -154 54 -179 93z" />
    <glyph glyph-name="gbreve" unicode="&#x11f;" horiz-adv-x="494" 
d="M10 -65c0 73 58 119 144 137c-8 10 -11 24 -11 37c0 14 4 28 12 38c-64 26 -101 82 -101 148c0 90 71 165 184 165c44 0 83 -12 114 -33l132 32l2 -65l-85 -21c14 -23 21 -50 21 -78c0 -90 -73 -162 -184 -162c-10 0 -20 0 -30 1c-4 -8 -5 -17 -5 -25c0 -11 3 -22 9 -30
c9 0 18 1 27 1c131 0 229 -47 229 -145c0 -96 -98 -143 -229 -143s-229 45 -229 143zM85 -65c0 -50 61 -78 154 -78s154 27 154 78c0 50 -58 80 -154 80s-154 -30 -154 -80zM129 295c0 -56 43 -97 109 -97c63 0 109 39 109 97c0 56 -42 100 -109 100
c-66 0 -109 -44 -109 -100zM92 640l37 41c20 -24 54 -61 114 -61c52 0 91 31 115 60l29 -39c-28 -39 -70 -86 -147 -86c-83 0 -130 57 -148 85z" />
    <glyph glyph-name="Gdotaccent" unicode="&#x120;" horiz-adv-x="727" 
d="M398 276v80h269v-269c-62 -62 -175 -97 -262 -97c-218 0 -355 142 -355 360c0 201 135 360 344 360c95 0 163 -23 220 -68l-37 -68c-41 37 -106 56 -173 56c-156 0 -264 -111 -264 -280c0 -170 108 -280 267 -280c66 0 143 26 180 62v144h-189zM325 817c0 32 27 51 57 51
c28 0 54 -19 54 -51c0 -35 -26 -54 -54 -54c-30 0 -57 19 -57 54z" />
    <glyph glyph-name="gdotaccent" unicode="&#x121;" horiz-adv-x="494" 
d="M10 -65c0 73 58 119 144 137c-8 10 -11 24 -11 37c0 14 4 28 12 38c-64 26 -101 82 -101 148c0 90 71 165 184 165c44 0 83 -12 114 -33l132 32l2 -65l-85 -21c14 -23 21 -50 21 -78c0 -90 -73 -162 -184 -162c-10 0 -20 0 -30 1c-4 -8 -5 -17 -5 -25c0 -11 3 -22 9 -30
c9 0 18 1 27 1c131 0 229 -47 229 -145c0 -96 -98 -143 -229 -143s-229 45 -229 143zM85 -65c0 -50 61 -78 154 -78s154 27 154 78c0 50 -58 80 -154 80s-154 -30 -154 -80zM129 295c0 -56 43 -97 109 -97c63 0 109 39 109 97c0 56 -42 100 -109 100
c-66 0 -109 -44 -109 -100zM189 619c0 29 24 48 52 48c25 0 49 -19 49 -48c0 -33 -24 -52 -49 -52c-28 0 -52 19 -52 52z" />
    <glyph glyph-name="Gcommaaccent" unicode="&#x122;" horiz-adv-x="727" 
d="M398 276v80h269v-269c-62 -62 -175 -97 -262 -97c-218 0 -355 142 -355 360c0 201 135 360 344 360c95 0 163 -23 220 -68l-37 -68c-41 37 -106 56 -173 56c-156 0 -264 -111 -264 -280c0 -170 108 -280 267 -280c66 0 143 26 180 62v144h-189zM351 -65l75 19
c16 -4 29 -21 29 -49c0 -63 -52 -98 -103 -109l-23 36c33 13 46 33 46 62c0 22 -10 35 -24 41z" />
    <glyph glyph-name="gcommaaccent" unicode="&#x123;" horiz-adv-x="494" 
d="M10 -65c0 73 58 119 144 137c-8 10 -11 24 -11 37c0 14 4 28 12 38c-64 26 -101 82 -101 148c0 90 71 165 184 165c44 0 83 -12 114 -33l132 32l2 -65l-85 -21c14 -23 21 -50 21 -78c0 -90 -73 -162 -184 -162c-10 0 -20 0 -30 1c-4 -8 -5 -17 -5 -25c0 -11 3 -22 9 -30
c9 0 18 1 27 1c131 0 229 -47 229 -145c0 -96 -98 -143 -229 -143s-229 45 -229 143zM85 -65c0 -50 61 -78 154 -78s154 27 154 78c0 50 -58 80 -154 80s-154 -30 -154 -80zM129 295c0 -56 43 -97 109 -97c63 0 109 39 109 97c0 56 -42 100 -109 100
c-66 0 -109 -44 -109 -100zM285 562l-75 -19c-16 4 -29 21 -29 49c0 63 52 98 103 109l23 -36c-33 -13 -46 -33 -46 -62c0 -22 10 -35 24 -41z" />
    <glyph glyph-name="Hcircumflex" unicode="&#x124;" horiz-adv-x="765" 
d="M575 0v317h-385v-317h-85v700h85v-303h385v303h85v-700h-85zM209 778l171 104h4l174 -103l-33 -46l-143 76l-144 -76z" />
    <glyph glyph-name="hcircumflex" unicode="&#x125;" horiz-adv-x="549" 
d="M72 0v700h80v-302c33 34 90 60 147 60c117 0 187 -59 187 -200v-258h-80v247c0 90 -43 136 -126 136c-50 0 -100 -25 -128 -57v-326h-80zM-17 778l171 104h4l174 -103l-33 -46l-143 76l-144 -76z" />
    <glyph glyph-name="Hbar" unicode="&#x126;" horiz-adv-x="775" 
d="M25 514v75h85v111h85v-111h385v111h85v-111h85v-75h-85v-514h-85v317h-385v-317h-85v514h-85zM195 397h385v117h-385v-117z" />
    <glyph glyph-name="hbar" unicode="&#x127;" horiz-adv-x="574" 
d="M-20 520v75h117v105h80v-105h162v-75h-162v-122c33 34 90 60 147 60c117 0 187 -59 187 -200v-258h-80v247c0 90 -43 136 -126 136c-50 0 -100 -25 -128 -57v-326h-80v520h-117z" />
    <glyph glyph-name="Imacron" unicode="&#x12a;" horiz-adv-x="335" 
d="M125 0v700h85v-700h-85zM18 770v65h304v-65h-304z" />
    <glyph glyph-name="imacron" unicode="&#x12b;" horiz-adv-x="268" 
d="M94 0v450h80v-450h-80zM2 580v65h264v-65h-264z" />
    <glyph glyph-name="Iogonek" unicode="&#x12e;" horiz-adv-x="335" 
d="M195 -126l24 -49c-17 -14 -52 -25 -86 -25c-58 0 -122 23 -122 92c0 58 51 96 114 113v695h85v-700h-5c-60 -2 -114 -38 -114 -82c0 -42 37 -53 60 -53c14 0 27 1 44 9z" />
    <glyph glyph-name="iogonek" unicode="&#x12f;" horiz-adv-x="268" 
d="M158 -126l24 -49c-17 -14 -52 -25 -86 -25c-58 0 -122 23 -122 92c0 60 55 98 120 114v444h80v-450h-6c-60 -2 -114 -38 -114 -82c0 -42 37 -53 60 -53c14 0 27 1 44 9zM81 619c0 29 24 48 52 48c25 0 49 -19 49 -48c0 -33 -24 -52 -49 -52c-28 0 -52 19 -52 52z" />
    <glyph glyph-name="Idotaccent" unicode="&#x130;" horiz-adv-x="335" 
d="M125 0v700h85v-700h-85zM112 817c0 32 27 51 57 51c28 0 54 -19 54 -51c0 -35 -26 -54 -54 -54c-30 0 -57 19 -57 54z" />
    <glyph glyph-name="dotlessi" unicode="&#x131;" horiz-adv-x="268" 
d="M94 0v450h80v-450h-80z" />
    <glyph glyph-name="Jcircumflex" unicode="&#x134;" horiz-adv-x="374" 
d="M269 700v-541c0 -105 -45 -169 -153 -169c-47 0 -88 19 -106 37l29 65c16 -12 41 -22 66 -22c61 0 79 43 79 103v527h85zM47 778l171 104h4l174 -103l-33 -46l-143 76l-144 -76z" />
    <glyph glyph-name="jcircumflex" unicode="&#x135;" horiz-adv-x="266" 
d="M178 450v-483c0 -110 -41 -175 -141 -175c-43 0 -81 14 -100 29l23 64c16 -10 35 -18 59 -18c57 0 79 40 79 106v477h80zM141 707l139 -133l-38 -48l-104 91l-104 -90l-38 47l141 133h4z" />
    <glyph glyph-name="Kcommaaccent" unicode="&#x136;" horiz-adv-x="653" 
d="M617 700l-312 -329l328 -371h-109l-317 365l307 335h103zM105 0v700h85v-700h-85zM271 -65l75 19c16 -4 29 -21 29 -49c0 -63 -52 -98 -103 -109l-23 36c33 13 46 33 46 62c0 22 -10 35 -24 41z" />
    <glyph glyph-name="kcommaaccent" unicode="&#x137;" horiz-adv-x="491" 
d="M457 450l-191 -209l215 -241h-109l-203 235l186 215h102zM72 0v700h80v-700h-80zM185 -65l75 19c16 -4 29 -21 29 -49c0 -63 -52 -98 -103 -109l-23 36c33 13 46 33 46 62c0 22 -10 35 -24 41z" />
    <glyph glyph-name="Lacute" unicode="&#x139;" horiz-adv-x="550" 
d="M105 0v700h85v-620h345v-80h-430zM438 819l-202 -84l-23 48l195 104z" />
    <glyph glyph-name="lacute" unicode="&#x13a;" horiz-adv-x="290" 
d="M72 120v580h80v-544c0 -61 15 -89 53 -89c22 0 42 10 57 20l18 -61c-24 -19 -59 -34 -106 -34c-68 0 -102 41 -102 128zM295 819l-202 -84l-23 48l195 104z" />
    <glyph glyph-name="Lcommaaccent" unicode="&#x13b;" horiz-adv-x="550" 
d="M105 0v700h85v-620h345v-80h-430zM261 -65l75 19c16 -4 29 -21 29 -49c0 -63 -52 -98 -103 -109l-23 36c33 13 46 33 46 62c0 22 -10 35 -24 41z" />
    <glyph glyph-name="lcommaaccent" unicode="&#x13c;" horiz-adv-x="290" 
d="M72 120v580h80v-544c0 -61 15 -89 53 -89c22 0 42 10 57 20l18 -61c-24 -19 -59 -34 -106 -34c-68 0 -102 41 -102 128zM118 -65l75 19c16 -4 29 -21 29 -49c0 -63 -52 -98 -103 -109l-23 36c33 13 46 33 46 62c0 22 -10 35 -24 41z" />
    <glyph glyph-name="Lcaron" unicode="&#x13d;" horiz-adv-x="550" 
d="M105 0v700h85v-620h345v-80h-430zM356 700h78c5 -10 8 -24 8 -38c0 -81 -44 -131 -86 -153l-36 35c28 24 47 64 47 109c0 20 -4 34 -11 47z" />
    <glyph glyph-name="lcaron" unicode="&#x13e;" horiz-adv-x="290" 
d="M72 120v580h80v-544c0 -61 15 -89 53 -89c22 0 42 10 57 20l18 -61c-24 -19 -59 -34 -106 -34c-68 0 -102 41 -102 128zM246 700h78c5 -10 8 -24 8 -38c0 -81 -44 -131 -86 -153l-36 35c28 24 47 64 47 109c0 20 -4 34 -11 47z" />
    <glyph glyph-name="Ldot" unicode="&#x13f;" horiz-adv-x="550" 
d="M105 0v700h85v-620h345v-80h-430zM368 374c0 26 22 53 57 53c31 0 53 -27 53 -53c0 -30 -22 -57 -53 -57c-35 0 -57 27 -57 57z" />
    <glyph glyph-name="ldot" unicode="&#x140;" horiz-adv-x="324" 
d="M72 120v580h80v-544c0 -61 15 -89 53 -89c22 0 42 10 57 20l18 -61c-24 -19 -59 -34 -106 -34c-68 0 -102 41 -102 128zM226 326c0 29 24 48 52 48c25 0 49 -19 49 -48c0 -33 -24 -52 -49 -52c-28 0 -52 19 -52 52z" />
    <glyph glyph-name="Lslash" unicode="&#x141;" horiz-adv-x="560" 
d="M25 219v83l90 43v355h85v-314l176 86v-82l-176 -86v-224h345v-80h-430v263z" />
    <glyph glyph-name="lslash" unicode="&#x142;" horiz-adv-x="320" 
d="M15 222v83l77 37v358h80v-320l105 51v-82l-105 -51v-142c0 -61 15 -89 53 -89c22 0 42 10 57 20l18 -61c-24 -19 -59 -34 -106 -34c-68 0 -102 41 -102 128v139z" />
    <glyph glyph-name="Nacute" unicode="&#x143;" horiz-adv-x="795" 
d="M690 0h-68l-437 550v-550h-80v700h68l437 -552v552h80v-700zM563 819l-202 -84l-23 48l195 104z" />
    <glyph glyph-name="nacute" unicode="&#x144;" horiz-adv-x="549" 
d="M72 0v450h80v-55c31 34 88 63 147 63c117 0 187 -57 187 -198v-260h-80v245c0 94 -43 138 -127 138c-51 0 -98 -25 -127 -58v-325h-80zM391 674l-120 -143l-48 34l106 157z" />
    <glyph glyph-name="Ncommaaccent" unicode="&#x145;" horiz-adv-x="795" 
d="M690 0h-68l-437 550v-550h-80v700h68l437 -552v552h80v-700zM346 -65l75 19c16 -4 29 -21 29 -49c0 -63 -52 -98 -103 -109l-23 36c33 13 46 33 46 62c0 22 -10 35 -24 41z" />
    <glyph glyph-name="ncommaaccent" unicode="&#x146;" horiz-adv-x="549" 
d="M72 0v450h80v-55c31 34 88 63 147 63c117 0 187 -57 187 -198v-260h-80v245c0 94 -43 138 -127 138c-51 0 -98 -25 -127 -58v-325h-80zM224 -65l75 19c16 -4 29 -21 29 -49c0 -63 -52 -98 -103 -109l-23 36c33 13 46 33 46 62c0 22 -10 35 -24 41z" />
    <glyph glyph-name="Ncaron" unicode="&#x147;" horiz-adv-x="795" 
d="M690 0h-68l-437 550v-550h-80v700h68l437 -552v552h80v-700zM397 738l-175 103l33 46l144 -81l143 81l30 -45l-171 -104h-4z" />
    <glyph glyph-name="ncaron" unicode="&#x148;" horiz-adv-x="549" 
d="M72 0v450h80v-55c31 34 88 63 147 63c117 0 187 -57 187 -198v-260h-80v245c0 94 -43 138 -127 138c-51 0 -98 -25 -127 -58v-325h-80zM271 529l-140 133l39 48l104 -103l104 102l37 -47l-140 -133h-4z" />
    <glyph glyph-name="Omacron" unicode="&#x14c;" horiz-adv-x="814" 
d="M50 350c0 203 149 360 357 360c203 0 357 -147 357 -360c0 -208 -154 -360 -357 -360s-357 147 -357 360zM140 350c0 -159 117 -280 267 -280c160 0 267 122 267 280c0 163 -117 280 -267 280c-152 0 -267 -117 -267 -280zM260 770v65h304v-65h-304z" />
    <glyph glyph-name="omacron" unicode="&#x14d;" horiz-adv-x="565" 
d="M42 225c0 135 96 235 240 235s240 -100 240 -235s-96 -235 -240 -235s-240 100 -240 235zM127 225c0 -94 65 -160 155 -160s155 64 155 160c0 94 -65 160 -155 160c-88 0 -155 -65 -155 -160zM155 580v65h264v-65h-264z" />
    <glyph glyph-name="Ohungarumlaut" unicode="&#x150;" horiz-adv-x="814" 
d="M50 350c0 203 149 360 357 360c203 0 357 -147 357 -360c0 -208 -154 -360 -357 -360s-357 147 -357 360zM140 350c0 -159 117 -280 267 -280c160 0 267 122 267 280c0 163 -117 280 -267 280c-152 0 -267 -117 -267 -280zM662 836l-179 -101l-33 35l157 117zM467 851
l-161 -116l-34 32l128 120z" />
    <glyph glyph-name="ohungarumlaut" unicode="&#x151;" horiz-adv-x="565" 
d="M42 225c0 135 96 235 240 235s240 -100 240 -235s-96 -235 -240 -235s-240 100 -240 235zM127 225c0 -94 65 -160 155 -160s155 64 155 160c0 94 -65 160 -155 160c-88 0 -155 -65 -155 -160zM485 671l-125 -140l-48 34l114 151zM318 680l-113 -149l-48 34l103 158z" />
    <glyph glyph-name="OE" unicode="&#x152;" horiz-adv-x="1042" 
d="M572 0v28c-45 -24 -105 -38 -167 -38c-210 0 -355 142 -355 360c0 201 130 360 349 360c68 0 127 -15 173 -40v30h395v-80h-310v-226h280v-80h-280v-234h320v-80h-405zM413 70c60 0 114 16 159 46v462c-46 34 -100 52 -172 52c-152 0 -260 -114 -260 -280
c0 -167 111 -280 273 -280z" />
    <glyph glyph-name="oe" unicode="&#x153;" horiz-adv-x="837" 
d="M744 112l25 -63c-43 -40 -108 -59 -168 -59c-65 0 -120 18 -161 51c-41 -33 -94 -51 -158 -51c-144 0 -240 100 -240 235s96 235 240 235c62 0 116 -19 156 -52c39 32 90 52 154 52c116 0 208 -82 208 -206c0 -22 -2 -40 -5 -54h-345c6 -85 68 -135 157 -135
c58 0 108 20 137 47zM282 65c43 0 81 14 107 37c-19 34 -29 76 -29 123c0 45 10 87 29 123c-26 22 -62 37 -107 37c-89 0 -155 -65 -155 -160c0 -94 65 -160 155 -160zM587 385c-82 0 -133 -51 -142 -120h273c-5 74 -53 120 -131 120z" />
    <glyph glyph-name="Racute" unicode="&#x154;" horiz-adv-x="643" 
d="M190 0h-85v700c39 0 168 2 188 2c191 0 249 -95 249 -208c0 -109 -75 -178 -152 -198l233 -296h-104l-215 280h-114v-280zM288 622c-22 0 -65 -1 -98 -2v-260h103c81 0 159 50 159 133c0 72 -40 129 -164 129zM433 819l-202 -84l-23 48l195 104z" />
    <glyph glyph-name="racute" unicode="&#x155;" horiz-adv-x="340" 
d="M72 0v450h80v-53c23 34 56 61 113 61c37 0 55 -6 70 -17l-28 -75c-22 13 -34 17 -61 17c-52 0 -77 -31 -94 -64v-319h-80zM305 674l-120 -143l-48 34l106 157z" />
    <glyph glyph-name="Rcommaaccent" unicode="&#x156;" horiz-adv-x="643" 
d="M190 0h-85v700c39 0 168 2 188 2c191 0 249 -95 249 -208c0 -109 -75 -178 -152 -198l233 -296h-104l-215 280h-114v-280zM288 622c-22 0 -65 -1 -98 -2v-260h103c81 0 159 50 159 133c0 72 -40 129 -164 129zM266 -65l75 19c16 -4 29 -21 29 -49
c0 -63 -52 -98 -103 -109l-23 36c33 13 46 33 46 62c0 22 -10 35 -24 41z" />
    <glyph glyph-name="rcommaaccent" unicode="&#x157;" horiz-adv-x="340" 
d="M72 0v450h80v-53c23 34 56 61 113 61c37 0 55 -6 70 -17l-28 -75c-22 13 -34 17 -61 17c-52 0 -77 -31 -94 -64v-319h-80zM109 -65l75 19c16 -4 29 -21 29 -49c0 -63 -52 -98 -103 -109l-23 36c33 13 46 33 46 62c0 22 -10 35 -24 41z" />
    <glyph glyph-name="Rcaron" unicode="&#x158;" horiz-adv-x="643" 
d="M190 0h-85v700c39 0 168 2 188 2c191 0 249 -95 249 -208c0 -109 -75 -178 -152 -198l233 -296h-104l-215 280h-114v-280zM288 622c-22 0 -65 -1 -98 -2v-260h103c81 0 159 50 159 133c0 72 -40 129 -164 129zM290 738l-175 103l33 46l144 -81l143 81l30 -45l-171 -104
h-4z" />
    <glyph glyph-name="rcaron" unicode="&#x159;" horiz-adv-x="340" 
d="M72 0v450h80v-53c23 34 56 61 113 61c37 0 55 -6 70 -17l-28 -75c-22 13 -34 17 -61 17c-52 0 -77 -31 -94 -64v-319h-80zM191 529l-140 133l39 48l104 -103l104 102l37 -47l-140 -133h-4z" />
    <glyph glyph-name="Sacute" unicode="&#x15a;" horiz-adv-x="549" 
d="M409 179c0 171 -342 116 -342 348c0 101 78 183 211 183c81 0 153 -29 193 -73l-46 -64c-37 37 -81 57 -142 57c-78 0 -126 -41 -126 -103c0 -173 342 -108 342 -347c0 -115 -101 -190 -228 -190c-86 0 -186 39 -221 105l49 58c41 -54 114 -83 173 -83
c73 0 137 38 137 109zM441 819l-202 -84l-23 48l195 104z" />
    <glyph glyph-name="sacute" unicode="&#x15b;" horiz-adv-x="430" 
d="M300 122c0 91 -243 46 -243 211c0 79 64 127 153 127c74 0 128 -27 155 -53l-38 -61c-27 24 -66 44 -113 44c-45 0 -72 -26 -72 -56c0 -95 243 -50 243 -208c0 -95 -84 -136 -174 -136c-73 0 -145 38 -166 70l45 57c26 -30 85 -57 130 -57c42 0 80 21 80 62zM326 674
l-120 -143l-48 34l106 157z" />
    <glyph glyph-name="Scircumflex" unicode="&#x15c;" horiz-adv-x="549" 
d="M409 179c0 171 -342 116 -342 348c0 101 78 183 211 183c81 0 153 -29 193 -73l-46 -64c-37 37 -81 57 -142 57c-78 0 -126 -41 -126 -103c0 -173 342 -108 342 -347c0 -115 -101 -190 -228 -190c-86 0 -186 39 -221 105l49 58c41 -54 114 -83 173 -83
c73 0 137 38 137 109zM99 778l171 104h4l174 -103l-33 -46l-143 76l-144 -76z" />
    <glyph glyph-name="scircumflex" unicode="&#x15d;" horiz-adv-x="430" 
d="M300 122c0 91 -243 46 -243 211c0 79 64 127 153 127c74 0 128 -27 155 -53l-38 -61c-27 24 -66 44 -113 44c-45 0 -72 -26 -72 -56c0 -95 243 -50 243 -208c0 -95 -84 -136 -174 -136c-73 0 -145 38 -166 70l45 57c26 -30 85 -57 130 -57c42 0 80 21 80 62zM219 707
l139 -133l-38 -48l-104 91l-104 -90l-38 47l141 133h4z" />
    <glyph glyph-name="Scedilla" unicode="&#x15e;" horiz-adv-x="549" 
d="M152 -169l26 42c20 -14 50 -28 74 -28c32 0 56 13 56 36c0 24 -16 39 -58 39h-6v71c-79 7 -163 45 -194 104l49 58c41 -54 114 -83 173 -83c73 0 137 38 137 109c0 171 -342 116 -342 348c0 101 78 183 211 183c81 0 153 -29 193 -73l-46 -64c-37 37 -81 57 -142 57
c-78 0 -126 -41 -126 -103c0 -173 342 -108 342 -347c0 -110 -93 -183 -212 -189v-34c74 -4 106 -33 106 -80c0 -48 -46 -82 -123 -82c-59 0 -94 20 -118 36z" />
    <glyph glyph-name="scedilla" unicode="&#x15f;" horiz-adv-x="430" 
d="M94 -171l24 39c20 -13 47 -23 71 -23c32 0 56 13 56 36c0 24 -16 39 -58 39h-6v72c-62 8 -118 40 -136 68l45 57c26 -30 85 -57 130 -57c42 0 80 21 80 62c0 91 -243 46 -243 211c0 79 64 127 153 127c74 0 128 -27 155 -53l-38 -61c-27 24 -66 44 -113 44
c-45 0 -72 -26 -72 -56c0 -95 243 -50 243 -208c0 -91 -76 -132 -161 -136v-33c68 -4 101 -33 101 -80c0 -48 -45 -82 -126 -82c-51 0 -81 18 -105 34z" />
    <glyph glyph-name="Scaron" unicode="&#x160;" horiz-adv-x="549" 
d="M409 179c0 171 -342 116 -342 348c0 101 78 183 211 183c81 0 153 -29 193 -73l-46 -64c-37 37 -81 57 -142 57c-78 0 -126 -41 -126 -103c0 -173 342 -108 342 -347c0 -115 -101 -190 -228 -190c-86 0 -186 39 -221 105l49 58c41 -54 114 -83 173 -83
c73 0 137 38 137 109zM278 738l-175 103l33 46l144 -81l143 81l30 -45l-171 -104h-4z" />
    <glyph glyph-name="scaron" unicode="&#x161;" horiz-adv-x="430" 
d="M300 122c0 91 -243 46 -243 211c0 79 64 127 153 127c74 0 128 -27 155 -53l-38 -61c-27 24 -66 44 -113 44c-45 0 -72 -26 -72 -56c0 -95 243 -50 243 -208c0 -95 -84 -136 -174 -136c-73 0 -145 38 -166 70l45 57c26 -30 85 -57 130 -57c42 0 80 21 80 62zM212 529
l-140 133l39 48l104 -103l104 102l37 -47l-140 -133h-4z" />
    <glyph glyph-name="Tcedilla" unicode="&#x162;" horiz-adv-x="595" 
d="M184 -169l26 42c20 -14 50 -28 74 -28c32 0 56 13 56 36c0 24 -16 39 -58 39h-6v80h-21v620h-245v80h575v-80h-245v-620h-21v-43c74 -4 106 -33 106 -80c0 -48 -46 -82 -123 -82c-59 0 -94 20 -118 36z" />
    <glyph glyph-name="tcedilla" unicode="&#x163;" horiz-adv-x="353" 
d="M67 -171l24 39c20 -13 47 -23 71 -23c32 0 56 13 56 36c0 24 -16 39 -58 39h-6v79c-65 18 -92 78 -92 172v404h80v-125h165v-75h-165v-196c0 -71 23 -112 80 -112c31 0 55 13 71 25l25 -62c-24 -20 -65 -38 -115 -38h-6v-35c68 -4 101 -33 101 -80
c0 -48 -45 -82 -126 -82c-51 0 -81 18 -105 34z" />
    <glyph glyph-name="Tcaron" unicode="&#x164;" horiz-adv-x="595" 
d="M10 620v80h575v-80h-245v-620h-85v620h-245zM294 738l-175 103l33 46l144 -81l143 81l30 -45l-171 -104h-4z" />
    <glyph glyph-name="tcaron" unicode="&#x165;" horiz-adv-x="353" 
d="M62 171v404h80v-125h165v-75h-165v-196c0 -71 23 -112 80 -112c31 0 55 13 71 25l25 -62c-24 -20 -65 -38 -115 -38c-101 0 -141 64 -141 179zM246 700h78c5 -10 8 -24 8 -38c0 -81 -44 -131 -86 -153l-36 35c28 24 47 64 47 109c0 20 -4 34 -11 47z" />
    <glyph glyph-name="Umacron" unicode="&#x16a;" horiz-adv-x="751" 
d="M656 700v-408c0 -214 -128 -301 -271 -301c-168 0 -290 103 -290 308v401h85v-385c0 -152 74 -244 205 -244c115 0 186 79 186 238v391h85zM228 770v65h304v-65h-304z" />
    <glyph glyph-name="umacron" unicode="&#x16b;" horiz-adv-x="540" 
d="M467 450v-450h-80v64c-31 -38 -88 -74 -159 -74c-100 0 -166 60 -166 192v268h80v-250c0 -85 34 -135 116 -135c52 0 101 31 129 67v318h80zM135 580v65h264v-65h-264z" />
    <glyph glyph-name="Ubreve" unicode="&#x16c;" horiz-adv-x="751" 
d="M656 700v-408c0 -214 -128 -301 -271 -301c-168 0 -290 103 -290 308v401h85v-385c0 -152 74 -244 205 -244c115 0 186 79 186 238v391h85zM198 838l36 42c23 -26 67 -65 143 -65c66 0 113 33 140 65l31 -42c-31 -48 -94 -93 -171 -93c-89 0 -154 54 -179 93z" />
    <glyph glyph-name="ubreve" unicode="&#x16d;" horiz-adv-x="540" 
d="M467 450v-450h-80v64c-31 -38 -88 -74 -159 -74c-100 0 -166 60 -166 192v268h80v-250c0 -85 34 -135 116 -135c52 0 101 31 129 67v318h80zM119 640l37 41c20 -24 54 -61 114 -61c52 0 91 31 115 60l29 -39c-28 -39 -70 -86 -147 -86c-83 0 -130 57 -148 85z" />
    <glyph glyph-name="Uring" unicode="&#x16e;" horiz-adv-x="751" 
d="M656 700v-408c0 -214 -128 -301 -271 -301c-168 0 -290 103 -290 308v401h85v-385c0 -152 74 -244 205 -244c115 0 186 79 186 238v391h85zM251 792c0 67 56 96 124 96c70 0 126 -29 126 -96c0 -66 -56 -100 -126 -100c-68 0 -124 34 -124 100zM311 792
c0 -37 28 -55 65 -55c36 0 65 18 65 55c0 36 -29 51 -65 51c-37 0 -65 -15 -65 -51z" />
    <glyph glyph-name="uring" unicode="&#x16f;" horiz-adv-x="540" 
d="M467 450v-450h-80v64c-31 -38 -88 -74 -159 -74c-100 0 -166 60 -166 192v268h80v-250c0 -85 34 -135 116 -135c52 0 101 31 129 67v318h80zM152 613c0 61 49 111 114 111c66 0 116 -50 116 -111s-50 -110 -116 -110c-65 0 -114 49 -114 110zM204 614
c0 -37 27 -66 63 -66s63 29 63 66c0 36 -27 65 -63 65s-63 -29 -63 -65z" />
    <glyph glyph-name="Uhungarumlaut" unicode="&#x170;" horiz-adv-x="751" 
d="M656 700v-408c0 -214 -128 -301 -271 -301c-168 0 -290 103 -290 308v401h85v-385c0 -152 74 -244 205 -244c115 0 186 79 186 238v391h85zM617 836l-179 -101l-33 35l157 117zM422 851l-161 -116l-34 32l128 120z" />
    <glyph glyph-name="uhungarumlaut" unicode="&#x171;" horiz-adv-x="540" 
d="M467 450v-450h-80v64c-31 -38 -88 -74 -159 -74c-100 0 -166 60 -166 192v268h80v-250c0 -85 34 -135 116 -135c52 0 101 31 129 67v318h80zM470 671l-125 -140l-48 34l114 151zM303 680l-113 -149l-48 34l103 158z" />
    <glyph glyph-name="Uogonek" unicode="&#x172;" horiz-adv-x="751" 
d="M656 700v-408c0 -175 -86 -266 -196 -292c-44 -21 -76 -46 -76 -82c0 -42 37 -53 60 -53c14 0 27 1 44 9l24 -49c-17 -14 -52 -25 -86 -25c-58 0 -122 23 -122 92c0 47 34 77 80 99c-167 0 -289 103 -289 308v401h85v-385c0 -152 74 -244 205 -244c115 0 186 79 186 238
v391h85z" />
    <glyph glyph-name="uogonek" unicode="&#x173;" horiz-adv-x="540" 
d="M452 -126l24 -49c-17 -14 -52 -25 -86 -25c-58 0 -122 23 -122 92c0 59 54 98 119 114v58c-31 -38 -88 -74 -159 -74c-100 0 -166 60 -166 192v268h80v-250c0 -85 34 -135 116 -135c52 0 101 31 129 67v318h80v-450h-5c-60 -2 -114 -38 -114 -82c0 -42 37 -53 60 -53
c14 0 27 1 44 9z" />
    <glyph glyph-name="Ydieresis" unicode="&#x178;" horiz-adv-x="604" 
d="M594 700l-251 -400v-300h-85v300l-248 400h98l196 -320l197 320h93zM132 813c0 28 25 45 55 45c26 0 52 -17 52 -45c0 -31 -26 -48 -52 -48c-30 0 -55 17 -55 48zM364 813c0 28 26 45 56 45c26 0 51 -16 51 -45c0 -31 -25 -48 -51 -48c-30 0 -56 17 -56 48z" />
    <glyph glyph-name="Zacute" unicode="&#x179;" horiz-adv-x="635" 
d="M60 620v80h525v-57l-430 -563h440v-80h-555v57l428 563h-408zM478 819l-202 -84l-23 48l195 104z" />
    <glyph glyph-name="zacute" unicode="&#x17a;" horiz-adv-x="485" 
d="M60 375v75h380v-56l-282 -319h277v-75h-390v56l281 319h-266zM359 674l-120 -143l-48 34l106 157z" />
    <glyph glyph-name="Zdotaccent" unicode="&#x17b;" horiz-adv-x="635" 
d="M60 620v80h525v-57l-430 -563h440v-80h-555v57l428 563h-408zM260 817c0 32 27 51 57 51c28 0 54 -19 54 -51c0 -35 -26 -54 -54 -54c-30 0 -57 19 -57 54z" />
    <glyph glyph-name="zdotaccent" unicode="&#x17c;" horiz-adv-x="485" 
d="M60 375v75h380v-56l-282 -319h277v-75h-390v56l281 319h-266zM189 619c0 29 24 48 52 48c25 0 49 -19 49 -48c0 -33 -24 -52 -49 -52c-28 0 -52 19 -52 52z" />
    <glyph glyph-name="Zcaron" unicode="&#x17d;" horiz-adv-x="635" 
d="M60 620v80h525v-57l-430 -563h440v-80h-555v57l428 563h-408zM320 738l-175 103l33 46l144 -81l143 81l30 -45l-171 -104h-4z" />
    <glyph glyph-name="zcaron" unicode="&#x17e;" horiz-adv-x="485" 
d="M60 375v75h380v-56l-282 -319h277v-75h-390v56l281 319h-266zM245 529l-140 133l39 48l104 -103l104 102l37 -47l-140 -133h-4z" />
    <glyph glyph-name="longs" unicode="&#x17f;" horiz-adv-x="255" 
d="M82 0v523c0 125 58 187 158 187c54 0 97 -18 120 -40l-28 -61c-19 16 -45 26 -79 26c-57 0 -91 -37 -91 -121v-514h-80z" />
    <glyph glyph-name="uni018F" unicode="&#x18f;" horiz-adv-x="779" 
d="M48 397h589c-17 145 -123 233 -278 233c-62 0 -126 -17 -177 -57l-34 64c51 44 135 73 230 73c209 0 351 -140 351 -358c0 -213 -135 -362 -347 -362c-211 0 -352 162 -334 407zM381 70c150 0 245 99 259 247h-504c6 -135 96 -247 245 -247z" />
    <glyph glyph-name="florin" unicode="&#x192;" 
d="M377 514l-12 -64h144v-75h-157l-72 -408c-20 -111 -57 -175 -157 -175c-43 0 -82 14 -100 29l22 64c16 -10 36 -18 59 -18c58 0 84 40 96 108l71 400h-139v75h152l13 73c24 127 69 187 169 187c54 0 98 -18 121 -40l-28 -61c-19 16 -45 26 -79 26
c-57 0 -87 -36 -103 -121z" />
    <glyph glyph-name="uni01DD" unicode="&#x1dd;" horiz-adv-x="520" 
d="M98 338l-25 62c44 40 114 60 174 60c146 0 231 -93 231 -235c0 -131 -84 -235 -229 -235c-119 0 -212 81 -212 206c0 21 2 45 5 59h346c-4 74 -59 130 -147 130c-58 0 -114 -20 -143 -47zM253 65c79 0 134 53 140 125h-273c3 -81 52 -125 133 -125z" />
    <glyph glyph-name="Scommaaccent" unicode="&#x218;" horiz-adv-x="549" 
d="M409 179c0 171 -342 116 -342 348c0 101 78 183 211 183c81 0 153 -29 193 -73l-46 -64c-37 37 -81 57 -142 57c-78 0 -126 -41 -126 -103c0 -173 342 -108 342 -347c0 -115 -101 -190 -228 -190c-86 0 -186 39 -221 105l49 58c41 -54 114 -83 173 -83
c73 0 137 38 137 109zM229 -65l75 19c16 -4 29 -21 29 -49c0 -63 -52 -98 -103 -109l-23 36c33 13 46 33 46 62c0 22 -10 35 -24 41z" />
    <glyph glyph-name="scommaaccent" unicode="&#x219;" horiz-adv-x="430" 
d="M300 122c0 91 -243 46 -243 211c0 79 64 127 153 127c74 0 128 -27 155 -53l-38 -61c-27 24 -66 44 -113 44c-45 0 -72 -26 -72 -56c0 -95 243 -50 243 -208c0 -95 -84 -136 -174 -136c-73 0 -145 38 -166 70l45 57c26 -30 85 -57 130 -57c42 0 80 21 80 62zM170 -65
l75 19c16 -4 29 -21 29 -49c0 -63 -52 -98 -103 -109l-23 36c33 13 46 33 46 62c0 22 -10 35 -24 41z" />
    <glyph glyph-name="Tcommaaccent" unicode="&#x21a;" horiz-adv-x="595" 
d="M10 620v80h575v-80h-245v-620h-85v620h-245zM246 -65l75 19c16 -4 29 -21 29 -49c0 -63 -52 -98 -103 -109l-23 36c33 13 46 33 46 62c0 22 -10 35 -24 41z" />
    <glyph glyph-name="tcommaaccent" unicode="&#x21b;" horiz-adv-x="353" 
d="M62 171v404h80v-125h165v-75h-165v-196c0 -71 23 -112 80 -112c31 0 55 13 71 25l25 -62c-24 -20 -65 -38 -115 -38c-101 0 -141 64 -141 179zM133 -65l75 19c16 -4 29 -21 29 -49c0 -63 -52 -98 -103 -109l-23 36c33 13 46 33 46 62c0 22 -10 35 -24 41z" />
    <glyph glyph-name="uni0237" unicode="&#x237;" horiz-adv-x="266" 
d="M178 450v-483c0 -110 -41 -175 -141 -175c-43 0 -81 14 -100 29l23 64c16 -10 35 -18 59 -18c57 0 79 40 79 106v477h80z" />
    <glyph glyph-name="uni0259" unicode="&#x259;" horiz-adv-x="520" 
d="M98 338l-25 62c44 40 114 60 174 60c146 0 231 -93 231 -235c0 -131 -84 -235 -229 -235c-119 0 -212 81 -212 206c0 21 2 45 5 59h346c-4 74 -59 130 -147 130c-58 0 -114 -20 -143 -47zM253 65c79 0 134 53 140 125h-273c3 -81 52 -125 133 -125z" />
    <glyph glyph-name="afii57929" unicode="&#x2bc;" horiz-adv-x="242" 
d="M86 630l67 40c17 -18 29 -50 29 -82c0 -79 -44 -126 -85 -149l-37 35c31 22 47 58 47 97c0 25 -9 47 -21 59z" />
    <glyph glyph-name="circumflex" unicode="&#x2c6;" horiz-adv-x="404" 
d="M205 707l139 -133l-38 -48l-104 91l-104 -90l-38 47l141 133h4z" />
    <glyph glyph-name="caron" unicode="&#x2c7;" horiz-adv-x="404" 
d="M200 529l-140 133l39 48l104 -103l104 102l37 -47l-140 -133h-4z" />
    <glyph glyph-name="breve" unicode="&#x2d8;" horiz-adv-x="415" 
d="M60 640l37 41c20 -24 54 -61 114 -61c52 0 91 31 115 60l29 -39c-28 -39 -70 -86 -147 -86c-83 0 -130 57 -148 85z" />
    <glyph glyph-name="dotaccent" unicode="&#x2d9;" horiz-adv-x="221" 
d="M60 619c0 29 24 48 52 48c25 0 49 -19 49 -48c0 -33 -24 -52 -49 -52c-28 0 -52 19 -52 52z" />
    <glyph glyph-name="ring" unicode="&#x2da;" horiz-adv-x="350" 
d="M60 613c0 61 49 111 114 111c66 0 116 -50 116 -111s-50 -110 -116 -110c-65 0 -114 49 -114 110zM112 614c0 -37 27 -66 63 -66s63 29 63 66c0 36 -27 65 -63 65s-63 -29 -63 -65z" />
    <glyph glyph-name="ogonek" unicode="&#x2db;" horiz-adv-x="328" 
d="M244 -126l24 -49c-17 -14 -52 -25 -86 -25c-58 0 -122 23 -122 92c0 83 107 125 199 124v-16c-62 0 -119 -37 -119 -82c0 -42 37 -53 60 -53c14 0 27 1 44 9z" />
    <glyph glyph-name="tilde" unicode="&#x2dc;" horiz-adv-x="442" 
d="M93 557l-33 37c38 43 77 60 110 60c47 0 72 -44 113 -44c26 0 42 11 71 35l28 -41c-37 -39 -74 -59 -106 -59c-44 0 -69 44 -114 44c-20 0 -44 -13 -69 -32z" />
    <glyph glyph-name="hungarumlaut" unicode="&#x2dd;" horiz-adv-x="448" 
d="M388 671l-125 -140l-48 34l114 151zM221 680l-113 -149l-48 34l103 158z" />
    <glyph glyph-name="gravecomb" unicode="&#x300;" horiz-adv-x="0" 
d="M-269 531l-121 142l63 48l107 -156z" />
    <glyph glyph-name="acutecomb" unicode="&#x301;" horiz-adv-x="0" 
d="M-153 674l-120 -143l-48 34l106 157z" />
    <glyph glyph-name="uni0394" unicode="&#x394;" horiz-adv-x="726" 
d="M30 0l303 708h53l310 -708h-666zM357 564l-204 -484h416z" />
    <glyph glyph-name="uni0394" unicode="&#x2206;" horiz-adv-x="726" 
d="M30 0l303 708h53l310 -708h-666zM357 564l-204 -484h416z" />
    <glyph glyph-name="uni03A9" unicode="&#x3a9;" horiz-adv-x="816" 
d="M68 0v80h169c-93 31 -181 144 -181 290c0 203 155 340 352 340c200 0 352 -137 352 -340c0 -152 -90 -259 -182 -290h169v-80h-286v80c127 32 209 147 209 276c0 149 -104 274 -262 274c-161 0 -262 -125 -262 -275c0 -121 80 -245 208 -275v-80h-286z" />
    <glyph glyph-name="uni03A9" unicode="&#x2126;" horiz-adv-x="816" 
d="M68 0v80h169c-93 31 -181 144 -181 290c0 203 155 340 352 340c200 0 352 -137 352 -340c0 -152 -90 -259 -182 -290h169v-80h-286v80c127 32 209 147 209 276c0 149 -104 274 -262 274c-161 0 -262 -125 -262 -275c0 -121 80 -245 208 -275v-80h-286z" />
    <glyph glyph-name="pi" unicode="&#x3c0;" horiz-adv-x="635" 
d="M46 375v75h536v-75h-90v-229c0 -56 10 -79 41 -79c19 0 39 10 54 20l18 -61c-24 -19 -59 -34 -103 -34c-59 0 -90 36 -90 118v265h-192v-61c0 -260 -67 -320 -184 -320l-6 78c59 -2 107 42 109 227l1 76h-94z" />
    <glyph glyph-name="afii10023" unicode="&#x401;" horiz-adv-x="575" 
d="M105 0v700h395v-80h-310v-226h280v-80h-280v-234h320v-80h-405zM139 813c0 28 25 45 55 45c26 0 52 -17 52 -45c0 -31 -26 -48 -52 -48c-30 0 -55 17 -55 48zM371 813c0 28 26 45 56 45c26 0 51 -16 51 -45c0 -31 -25 -48 -51 -48c-30 0 -56 17 -56 48z" />
    <glyph glyph-name="afii10051" unicode="&#x402;" horiz-adv-x="762" 
d="M712 204c0 -150 -71 -214 -174 -214c-47 0 -92 22 -105 37l29 65c16 -12 41 -22 66 -22c59 0 99 38 99 132c0 100 -50 141 -140 141c-71 0 -113 -27 -147 -48v-295h-85v620h-245v80h575v-80h-245v-247c36 24 86 50 163 50c118 0 209 -54 209 -219z" />
    <glyph glyph-name="afii10052" unicode="&#x403;" horiz-adv-x="505" 
d="M105 0v700h390v-80h-305v-620h-85zM483 819l-202 -84l-23 48l195 104z" />
    <glyph glyph-name="afii10053" unicode="&#x404;" horiz-adv-x="677" 
d="M483 397v-80h-347c15 -159 135 -247 284 -247c76 0 137 25 189 64l33 -71c-56 -45 -135 -73 -229 -73c-218 0 -363 140 -363 360c0 211 142 360 351 360c95 0 179 -29 230 -73l-39 -64c-51 40 -115 57 -177 57c-155 0 -259 -91 -277 -233h345z" />
    <glyph glyph-name="afii10054" unicode="&#x405;" horiz-adv-x="549" 
d="M409 179c0 171 -342 116 -342 348c0 101 78 183 211 183c81 0 153 -29 193 -73l-46 -64c-37 37 -81 57 -142 57c-78 0 -126 -41 -126 -103c0 -173 342 -108 342 -347c0 -115 -101 -190 -228 -190c-86 0 -186 39 -221 105l49 58c41 -54 114 -83 173 -83
c73 0 137 38 137 109z" />
    <glyph glyph-name="afii10055" unicode="&#x406;" horiz-adv-x="335" 
d="M125 0v700h85v-700h-85z" />
    <glyph glyph-name="afii10056" unicode="&#x407;" horiz-adv-x="335" 
d="M43 813c0 28 22 45 48 45c24 0 46 -17 46 -45c0 -31 -22 -48 -46 -48c-26 0 -48 17 -48 48zM199 813c0 28 22 45 48 45c24 0 46 -17 46 -45c0 -31 -22 -48 -46 -48c-26 0 -48 17 -48 48zM125 0v700h85v-700h-85z" />
    <glyph glyph-name="afii10057" unicode="&#x408;" horiz-adv-x="374" 
d="M269 700v-541c0 -105 -45 -169 -153 -169c-47 0 -88 19 -106 37l29 65c16 -12 41 -22 66 -22c61 0 79 43 79 103v527h85z" />
    <glyph glyph-name="afii10058" unicode="&#x409;" horiz-adv-x="1023" 
d="M536 0v620h-254l-12 -132c-41 -445 -135 -502 -245 -488l1 85c50 -5 134 20 166 475l10 140h419v-260c38 3 70 5 93 5c176 0 259 -84 259 -216c0 -148 -104 -231 -278 -231c-60 0 -118 2 -159 2zM708 365c-23 0 -52 -2 -87 -6v-278c27 -1 52 -3 84 -3
c115 0 178 50 178 149c0 89 -62 138 -175 138z" />
    <glyph glyph-name="afii10059" unicode="&#x40a;" horiz-adv-x="1052" 
d="M105 0v700h85v-279h375v279h85v-275c38 3 70 5 93 5c176 0 259 -82 259 -209c0 -141 -104 -223 -278 -223c-48 0 -95 2 -133 2h-26v341h-375v-341h-85zM650 344v-263c27 -1 52 -3 84 -3c115 0 178 48 178 142c0 83 -62 130 -175 130c-23 0 -52 -2 -87 -6z" />
    <glyph glyph-name="afii10060" unicode="&#x40b;" horiz-adv-x="762" 
d="M10 620v80h575v-80h-245v-247c35 25 92 50 168 50c110 0 204 -61 204 -224v-199h-85v177c0 121 -56 166 -142 166c-64 0 -110 -25 -145 -48v-295h-85v620h-245z" />
    <glyph glyph-name="afii10061" unicode="&#x40c;" horiz-adv-x="653" 
d="M617 700l-312 -329l328 -371h-109l-317 365l307 335h103zM105 0v700h85v-700h-85zM513 819l-202 -84l-23 48l195 104z" />
    <glyph glyph-name="afii10062" unicode="&#x40e;" horiz-adv-x="666" 
d="M651 700l-242 -540c-48 -107 -97 -160 -174 -160c-31 0 -66 10 -85 25l30 72c19 -13 34 -18 54 -18c40 0 67 31 86 71l12 26l-317 524h96l262 -439l192 439h86zM159 860h80c15 -41 50 -65 107 -65c52 0 93 21 103 65h80c-9 -75 -87 -125 -183 -125
c-105 0 -175 52 -187 125z" />
    <glyph glyph-name="afii10145" unicode="&#x40f;" horiz-adv-x="750" 
d="M105 0v700h85v-620h370v620h85v-700h-231v-155h-80v155h-229z" />
    <glyph glyph-name="afii10017" unicode="&#x410;" horiz-adv-x="705" 
d="M15 0l301 704h73l301 -704h-91l-90 212h-319l-89 -212h-86zM350 591l-126 -299h252z" />
    <glyph glyph-name="afii10018" unicode="&#x411;" horiz-adv-x="612" 
d="M105 0v700h396v-80h-311v-201c35 4 80 6 107 6c157 0 245 -80 245 -206c0 -145 -101 -223 -269 -223c-71 0 -127 4 -168 4zM292 345c-27 0 -65 -2 -102 -6v-259c31 -2 62 -4 96 -4c115 0 171 52 171 137c0 78 -53 132 -165 132z" />
    <glyph glyph-name="afii10019" unicode="&#x412;" horiz-adv-x="617" 
d="M105 1v698c39 1 127 4 192 4c167 0 225 -76 225 -173c0 -88 -53 -140 -120 -162v-2c87 -14 145 -70 145 -166c0 -142 -109 -203 -254 -203c-62 0 -147 2 -188 4zM303 319h-113v-238c23 -2 68 -4 108 -4c103 0 164 42 164 128c0 74 -58 114 -159 114zM295 623
c-37 0 -80 -2 -105 -3v-226h112c74 0 135 41 135 117c0 73 -49 112 -142 112z" />
    <glyph glyph-name="afii10020" unicode="&#x413;" horiz-adv-x="505" 
d="M105 0v700h390v-80h-305v-620h-85z" />
    <glyph glyph-name="afii10021" unicode="&#x414;" horiz-adv-x="749" 
d="M15 -130v210h75c29 36 100 187 115 480l7 140h412v-620h95v-210h-80v130h-544v-130h-80zM285 495c-17 -241 -75 -383 -101 -415h355v540h-245z" />
    <glyph glyph-name="afii10022" unicode="&#x415;" horiz-adv-x="575" 
d="M105 0v700h395v-80h-310v-226h280v-80h-280v-234h320v-80h-405z" />
    <glyph glyph-name="afii10024" unicode="&#x416;" horiz-adv-x="934" 
d="M903 700l-283 -334l294 -366h-99l-288 365l277 335h99zM424 0v700h85v-700h-85zM314 365l-283 335h99l277 -335l-288 -365h-99z" />
    <glyph glyph-name="afii10025" unicode="&#x417;" horiz-adv-x="578" 
d="M269 -10c-107 0 -192 54 -229 110l47 57c45 -53 120 -87 177 -87c91 0 159 47 159 134c0 69 -50 114 -137 114h-81v80h75c59 0 116 48 116 118c0 76 -55 114 -127 114c-69 0 -117 -28 -159 -78l-50 56c47 61 127 102 218 102c121 0 203 -67 203 -186
c0 -59 -33 -125 -101 -160v-3c85 -16 128 -85 128 -165c0 -129 -111 -206 -239 -206z" />
    <glyph glyph-name="afii10026" unicode="&#x418;" horiz-adv-x="795" 
d="M180 0h-75v700h85v-560l425 560h75v-700h-85v560z" />
    <glyph glyph-name="afii10027" unicode="&#x419;" horiz-adv-x="795" 
d="M180 0h-75v700h85v-560l425 560h75v-700h-85v560zM217 860h80c15 -41 50 -65 107 -65c52 0 93 21 103 65h80c-9 -75 -87 -125 -183 -125c-105 0 -175 52 -187 125z" />
    <glyph glyph-name="afii10028" unicode="&#x41a;" horiz-adv-x="653" 
d="M617 700l-312 -329l328 -371h-109l-317 365l307 335h103zM105 0v700h85v-700h-85z" />
    <glyph glyph-name="afii10029" unicode="&#x41b;" horiz-adv-x="726" 
d="M536 0v620h-254l-12 -132c-41 -445 -135 -502 -245 -488l1 85c50 -5 134 20 166 475l10 140h419v-700h-85z" />
    <glyph glyph-name="afii10030" unicode="&#x41c;" horiz-adv-x="892" 
d="M105 0v700h86l263 -359l252 359h81v-700h-85v566l-248 -348h-13l-251 345v-563h-85z" />
    <glyph glyph-name="afii10031" unicode="&#x41d;" horiz-adv-x="765" 
d="M575 0v317h-385v-317h-85v700h85v-303h385v303h85v-700h-85z" />
    <glyph glyph-name="afii10032" unicode="&#x41e;" horiz-adv-x="814" 
d="M50 350c0 203 149 360 357 360c203 0 357 -147 357 -360c0 -208 -154 -360 -357 -360s-357 147 -357 360zM140 350c0 -159 117 -280 267 -280c160 0 267 122 267 280c0 163 -117 280 -267 280c-152 0 -267 -117 -267 -280z" />
    <glyph glyph-name="afii10033" unicode="&#x41f;" horiz-adv-x="760" 
d="M570 0v620h-380v-620h-85v700h550v-700h-85z" />
    <glyph glyph-name="afii10034" unicode="&#x420;" horiz-adv-x="597" 
d="M190 0h-85v700c39 0 139 2 183 2c200 0 259 -108 259 -217c0 -114 -81 -220 -252 -220c-28 0 -70 1 -105 4v-269zM296 622c-28 0 -73 -1 -106 -2v-270c34 -3 67 -5 102 -5c103 0 165 53 165 141c0 83 -50 136 -161 136z" />
    <glyph glyph-name="afii10035" unicode="&#x421;" horiz-adv-x="656" 
d="M592 132l34 -64c-47 -48 -134 -78 -221 -78c-210 0 -355 142 -355 360c0 201 130 360 349 360c90 0 163 -25 213 -68l-39 -64c-46 34 -100 52 -173 52c-152 0 -260 -114 -260 -280c0 -167 111 -280 273 -280c67 0 131 23 179 62z" />
    <glyph glyph-name="afii10036" unicode="&#x422;" horiz-adv-x="595" 
d="M10 620v80h575v-80h-245v-620h-85v620h-245z" />
    <glyph glyph-name="afii10037" unicode="&#x423;" horiz-adv-x="666" 
d="M651 700l-242 -540c-48 -107 -97 -160 -174 -160c-31 0 -66 10 -85 25l30 72c19 -13 34 -18 54 -18c40 0 67 31 86 71l12 26l-317 524h96l262 -439l192 439h86z" />
    <glyph glyph-name="afii10038" unicode="&#x424;" horiz-adv-x="834" 
d="M373 -8v92h-1c-197 0 -332 99 -332 276c0 176 133 275 333 276v72h85v-72c202 -1 336 -102 336 -276c0 -176 -137 -276 -333 -276h-3v-92h-85zM459 557h-1v-395h2c150 0 244 67 244 198c0 123 -89 197 -245 197zM130 360c0 -130 95 -198 242 -198h1v395
c-152 0 -243 -74 -243 -197z" />
    <glyph glyph-name="afii10039" unicode="&#x425;" horiz-adv-x="664" 
d="M635 700l-248 -344l257 -356h-101l-212 291l-211 -291h-100l257 356l-246 344h100l203 -280l200 280h101z" />
    <glyph glyph-name="afii10040" unicode="&#x426;" horiz-adv-x="775" 
d="M105 0v700h85v-620h375v620h85v-620h95v-210h-80v130h-560z" />
    <glyph glyph-name="afii10041" unicode="&#x427;" horiz-adv-x="650" 
d="M545 700v-700h-85v306c-36 -26 -104 -54 -185 -54c-111 0 -210 60 -210 223v225h85v-202c0 -121 62 -166 147 -166c68 0 126 28 163 53v315h85z" />
    <glyph glyph-name="afii10042" unicode="&#x428;" horiz-adv-x="995" 
d="M105 0v700h85v-620h265v620h85v-620h265v620h85v-700h-785z" />
    <glyph glyph-name="afii10043" unicode="&#x429;" horiz-adv-x="1015" 
d="M105 0v700h85v-620h265v620h85v-620h265v620h85v-620h95v-210h-80v130h-800z" />
    <glyph glyph-name="afii10044" unicode="&#x42a;" horiz-adv-x="669" 
d="M5 620v80h252v-260c38 3 75 5 98 5c181 0 264 -84 264 -216c0 -147 -104 -231 -283 -231c-60 0 -123 2 -164 2v620h-167zM349 365c-23 0 -57 -2 -92 -6v-278c27 -1 57 -3 89 -3c115 0 183 48 183 149c0 91 -67 138 -180 138z" />
    <glyph glyph-name="afii10045" unicode="&#x42b;" horiz-adv-x="845" 
d="M655 0v700h85v-700h-85zM277 365c-23 0 -52 -2 -87 -6v-278c27 -1 52 -3 84 -3c115 0 178 50 178 149c0 89 -62 138 -175 138zM190 700v-260c38 3 70 5 93 5c176 0 259 -84 259 -216c0 -147 -104 -231 -278 -231c-60 0 -118 2 -159 2v700h85z" />
    <glyph glyph-name="afii10046" unicode="&#x42c;" horiz-adv-x="602" 
d="M282 365c-23 0 -57 -2 -92 -6v-278c27 -1 57 -3 89 -3c115 0 183 48 183 149c0 91 -67 138 -180 138zM190 700v-260c38 3 75 5 98 5c181 0 264 -84 264 -216c0 -147 -104 -231 -283 -231c-60 0 -123 2 -164 2v700h85z" />
    <glyph glyph-name="afii10047" unicode="&#x42d;" horiz-adv-x="677" 
d="M193 317v80h346c-18 146 -127 233 -283 233c-62 0 -125 -17 -177 -57l-33 64c50 44 135 73 230 73c208 0 351 -140 351 -358c0 -213 -140 -362 -359 -362c-93 0 -177 28 -233 73l37 71c52 -39 119 -64 194 -64c148 0 259 93 274 247h-347z" />
    <glyph glyph-name="afii10048" unicode="&#x42e;" horiz-adv-x="1078" 
d="M105 0v700h85v-303h151c20 180 153 313 340 313c203 0 347 -147 347 -360c0 -208 -144 -360 -347 -360c-183 0 -327 132 -341 327h-150v-317h-85zM429 350c0 -159 109 -280 254 -280c161 0 255 122 255 280c0 163 -104 280 -255 280c-147 0 -254 -117 -254 -280z" />
    <glyph glyph-name="afii10049" unicode="&#x42f;" horiz-adv-x="623" 
d="M433 0v260h-131l-181 -260h-96l194 275c-72 29 -138 96 -138 196c0 126 84 232 273 232c47 0 123 -3 164 -3v-700h-85zM292 340h141v280c-23 1 -65 3 -95 3c-109 0 -167 -64 -167 -147c0 -74 60 -126 121 -136z" />
    <glyph glyph-name="afii10065" unicode="&#x430;" horiz-adv-x="460" 
d="M96 355l-21 64c40 25 94 41 150 41c128 0 173 -67 173 -184v-276h-76v58c-27 -34 -70 -65 -144 -65c-82 0 -138 52 -138 139c0 92 73 143 170 143c35 0 82 -7 112 -29c0 84 -13 142 -102 142c-55 0 -88 -14 -124 -33zM206 65c59 0 93 31 116 58v57c-28 20 -62 30 -101 30
c-48 0 -96 -22 -96 -74c0 -43 29 -71 81 -71z" />
    <glyph glyph-name="afii10066" unicode="&#x431;" horiz-adv-x="552" 
d="M420 710l43 -63c-55 -74 -130 -45 -229 -90c-84 -38 -108 -133 -114 -217h2c29 63 102 105 178 105c129 0 209 -89 209 -224c0 -126 -94 -231 -231 -231c-146 0 -238 107 -238 280c0 133 24 303 167 363c105 45 167 17 213 77zM125 255c0 -116 62 -190 151 -190
c88 0 148 68 148 152c0 88 -51 153 -144 153c-85 0 -141 -57 -155 -115z" />
    <glyph glyph-name="afii10067" unicode="&#x432;" horiz-adv-x="494" 
d="M72 0v450c39 0 98 4 163 4c126 0 194 -35 194 -116c0 -53 -36 -95 -90 -103v-2c72 -13 105 -50 105 -106c0 -85 -67 -131 -207 -131c-56 0 -124 4 -165 4zM248 202h-96v-138c24 -1 56 -3 92 -3c74 0 115 25 115 72s-39 69 -111 69zM241 389c-36 0 -69 -2 -89 -3v-134h101
c53 0 91 26 91 70c0 49 -45 67 -103 67z" />
    <glyph glyph-name="afii10068" unicode="&#x433;" horiz-adv-x="362" 
d="M72 0v450h285v-75h-205v-375h-80z" />
    <glyph glyph-name="afii10069" unicode="&#x434;" horiz-adv-x="539" 
d="M10 -110v185h56c30 38 61 133 69 256l7 119h307v-375h75v-185h-75v110h-364v-110h-75zM212 300c-10 -115 -40 -197 -61 -225h218v300h-152z" />
    <glyph glyph-name="afii10070" unicode="&#x435;" horiz-adv-x="520" 
d="M427 112l25 -63c-44 -40 -109 -59 -169 -59c-146 0 -241 93 -241 235c0 131 84 235 232 235c116 0 209 -82 209 -206c0 -22 -2 -40 -5 -54h-346c7 -85 69 -135 157 -135c58 0 109 20 138 47zM270 385c-82 0 -134 -51 -143 -120h273c-4 74 -52 120 -130 120z" />
    <glyph glyph-name="afii10072" unicode="&#x436;" horiz-adv-x="679" 
d="M652 450l-163 -217l175 -233h-99l-167 233l155 217h99zM298 0v450h80v-450h-80zM187 233l-163 217h100l154 -217l-165 -233h-98z" />
    <glyph glyph-name="afii10073" unicode="&#x437;" horiz-adv-x="462" 
d="M221 -10c-66 0 -156 25 -186 61l41 60c38 -31 94 -49 133 -49c68 0 118 29 118 74c0 37 -33 58 -88 58h-76v65h71c45 0 78 28 78 64c0 41 -38 65 -96 65c-62 0 -105 -26 -135 -50l-31 62c37 38 107 60 178 60c110 0 169 -47 169 -121c0 -44 -22 -86 -79 -106v-2
c63 -7 94 -54 94 -106c0 -84 -80 -135 -191 -135z" />
    <glyph glyph-name="afii10074" unicode="&#x438;" horiz-adv-x="565" 
d="M152 0h-80v450h80v-335l260 335h80v-450h-80v335z" />
    <glyph glyph-name="afii10075" unicode="&#x439;" horiz-adv-x="565" 
d="M152 0h-80v450h80v-335l260 335h80v-450h-80v335zM136 680h75c4 -54 29 -79 77 -79c44 0 69 25 73 79h75c0 -79 -58 -140 -148 -140c-99 0 -152 61 -152 140z" />
    <glyph glyph-name="afii10076" unicode="&#x43a;" horiz-adv-x="498" 
d="M466 450l-197 -215l216 -235h-111l-203 230l190 220h105zM72 0v450h80v-450h-80z" />
    <glyph glyph-name="afii10077" unicode="&#x43b;" horiz-adv-x="532" 
d="M380 0v370h-158l-5 -76c-20 -256 -88 -300 -181 -300l-6 78c34 -3 98 30 109 238l8 140h313v-450h-80z" />
    <glyph glyph-name="afii10078" unicode="&#x43c;" horiz-adv-x="626" 
d="M72 0v450h73l173 -223l164 223h71v-450h-80v328l-156 -209h-3l-162 209v-328h-80z" />
    <glyph glyph-name="afii10079" unicode="&#x43d;" horiz-adv-x="555" 
d="M402 0v190h-250v-190h-80v450h80v-185h250v185h80v-450h-80z" />
    <glyph glyph-name="afii10080" unicode="&#x43e;" horiz-adv-x="565" 
d="M42 225c0 135 96 235 240 235s240 -100 240 -235s-96 -235 -240 -235s-240 100 -240 235zM127 225c0 -94 65 -160 155 -160s155 64 155 160c0 94 -65 160 -155 160c-88 0 -155 -65 -155 -160z" />
    <glyph glyph-name="afii10081" unicode="&#x43f;" horiz-adv-x="550" 
d="M397 0v375h-245v-375h-80v450h405v-450h-80z" />
    <glyph glyph-name="afii10082" unicode="&#x440;" horiz-adv-x="556" 
d="M72 -200v650h80v-53c31 36 91 63 153 63c128 0 208 -95 208 -228c0 -137 -93 -242 -234 -242c-48 0 -95 10 -127 31v-221h-80zM282 385c-53 0 -102 -27 -130 -62v-223c40 -27 77 -35 120 -35c96 0 156 69 156 164c0 91 -53 156 -146 156z" />
    <glyph glyph-name="afii10083" unicode="&#x441;" horiz-adv-x="488" 
d="M418 123l38 -58c-38 -49 -104 -75 -173 -75c-143 0 -241 93 -241 235c0 131 96 235 228 235c72 0 135 -17 177 -59l-37 -63c-38 35 -82 47 -129 47c-81 0 -154 -65 -154 -160c0 -99 73 -160 162 -160c54 0 99 24 129 58z" />
    <glyph glyph-name="afii10084" unicode="&#x442;" horiz-adv-x="440" 
d="M15 370v80h410v-80h-165v-370h-80v370h-165z" />
    <glyph glyph-name="afii10085" unicode="&#x443;" horiz-adv-x="491" 
d="M481 450l-180 -450c-66 -161 -108 -200 -172 -200c-34 0 -61 12 -85 28l26 61c15 -7 32 -15 50 -15c38 0 66 30 96 102l10 24l-216 450h96l132 -286c10 -23 18 -45 27 -68c6 22 13 45 21 69l104 285h91z" />
    <glyph glyph-name="afii10086" unicode="&#x444;" horiz-adv-x="675" 
d="M297 -200v190h-11c-155 0 -244 101 -244 235c0 122 88 235 243 235h12v240h80v-240h13c150 0 242 -103 242 -235c0 -134 -84 -235 -242 -235h-13v-190h-80zM127 225c0 -93 58 -160 162 -160h8v320h-13c-103 0 -157 -73 -157 -160zM390 385h-13v-320h9
c105 0 161 66 161 160c0 83 -55 160 -157 160z" />
    <glyph glyph-name="afii10087" unicode="&#x445;" horiz-adv-x="507" 
d="M472 450l-161 -217l171 -233h-98l-132 182l-134 -182h-93l170 229l-160 221h98l122 -170l124 170h93z" />
    <glyph glyph-name="afii10088" unicode="&#x446;" horiz-adv-x="562" 
d="M72 0v450h80v-375h240v375h80v-375h75v-185h-75v110h-400z" />
    <glyph glyph-name="afii10089" unicode="&#x447;" horiz-adv-x="482" 
d="M410 450v-450h-80v175c-30 -19 -75 -33 -125 -33c-108 0 -160 56 -160 172v136h85v-127c0 -72 36 -106 97 -106c45 0 83 14 103 28v205h80z" />
    <glyph glyph-name="afii10090" unicode="&#x448;" horiz-adv-x="715" 
d="M72 0v450h80v-375h165v375h80v-375h165v375h80v-450h-570z" />
    <glyph glyph-name="afii10091" unicode="&#x449;" horiz-adv-x="732" 
d="M72 0v450h80v-375h165v375h80v-375h165v375h80v-375h75v-185h-75v110h-570z" />
    <glyph glyph-name="afii10092" unicode="&#x44a;" horiz-adv-x="509" 
d="M5 375v75h209v-135h82c138 0 178 -75 178 -155c0 -79 -46 -160 -188 -160h-152v375h-129zM281 240h-67v-165h66c79 0 109 29 109 82c0 54 -31 83 -108 83z" />
    <glyph glyph-name="afii10093" unicode="&#x44b;" horiz-adv-x="642" 
d="M72 0v450h80v-135h74c138 0 178 -75 178 -155c0 -79 -46 -160 -187 -160h-145zM490 0v450h80v-450h-80zM211 240h-59v-165h58c80 0 109 29 109 82c0 54 -31 83 -108 83z" />
    <glyph glyph-name="afii10094" unicode="&#x44c;" horiz-adv-x="447" 
d="M72 0v450h80v-135h82c138 0 178 -75 178 -155c0 -79 -46 -160 -188 -160h-152zM219 240h-67v-165h66c79 0 109 29 109 82c0 54 -31 83 -108 83z" />
    <glyph glyph-name="afii10095" unicode="&#x44d;" horiz-adv-x="489" 
d="M142 196v65h221c-13 83 -75 124 -156 124c-56 0 -103 -18 -138 -49l-34 60c42 41 113 64 171 64c142 0 240 -92 240 -235c0 -131 -96 -235 -228 -235c-71 0 -139 16 -181 57l38 59c31 -28 87 -41 138 -41c83 0 140 48 151 131h-222z" />
    <glyph glyph-name="afii10096" unicode="&#x44e;" horiz-adv-x="760" 
d="M72 0v450h85v-180h98c18 111 104 190 227 190c141 0 235 -100 235 -235s-96 -235 -235 -235c-127 0 -214 83 -228 200h-97v-190h-85zM342 225c0 -95 60 -155 143 -155s142 61 142 155c0 92 -56 155 -142 155c-84 0 -143 -62 -143 -155z" />
    <glyph glyph-name="afii10097" unicode="&#x44f;" horiz-adv-x="482" 
d="M269 450h140v-450h-80v150h-87l-110 -150h-97l130 170c-46 11 -97 56 -97 130c0 77 51 150 201 150zM153 298c0 -46 44 -73 84 -73h92v150h-73c-75 0 -103 -35 -103 -77z" />
    <glyph glyph-name="afii10071" unicode="&#x451;" horiz-adv-x="520" 
d="M427 112l25 -63c-44 -40 -109 -59 -169 -59c-146 0 -241 93 -241 235c0 131 84 235 232 235c116 0 209 -82 209 -206c0 -22 -2 -40 -5 -54h-346c7 -85 69 -135 157 -135c58 0 109 20 138 47zM270 385c-82 0 -134 -51 -143 -120h273c-4 74 -52 120 -130 120zM121 610
c0 28 21 46 47 46c22 0 44 -18 44 -46c0 -32 -22 -50 -44 -50c-26 0 -47 18 -47 50zM324 610c0 28 22 46 48 46c22 0 44 -18 44 -46c0 -32 -22 -50 -44 -50c-26 0 -48 18 -48 50z" />
    <glyph glyph-name="afii10099" unicode="&#x452;" horiz-adv-x="596" 
d="M5 460v65h130v175h80v-175h180v-65h-180v-152c33 34 90 60 147 60c117 0 187 -59 187 -197c0 -160 -65 -303 -173 -371h-87c126 89 179 226 179 351c0 96 -43 142 -126 142c-50 0 -99 -24 -127 -57v-236h-80v460h-130z" />
    <glyph glyph-name="afii10100" unicode="&#x453;" horiz-adv-x="362" 
d="M72 0v450h285v-75h-205v-375h-80zM344 674l-120 -143l-48 34l106 157z" />
    <glyph glyph-name="afii10101" unicode="&#x454;" horiz-adv-x="489" 
d="M346 261v-65h-222c12 -88 81 -131 163 -131c45 0 101 13 132 41l33 -59c-43 -41 -110 -57 -176 -57c-138 0 -234 100 -234 235c0 143 98 235 241 235c58 0 129 -23 170 -64l-33 -60c-35 31 -82 49 -139 49c-79 0 -143 -41 -157 -124h222z" />
    <glyph glyph-name="afii10102" unicode="&#x455;" horiz-adv-x="430" 
d="M300 122c0 91 -243 46 -243 211c0 79 64 127 153 127c74 0 128 -27 155 -53l-38 -61c-27 24 -66 44 -113 44c-45 0 -72 -26 -72 -56c0 -95 243 -50 243 -208c0 -95 -84 -136 -174 -136c-73 0 -145 38 -166 70l45 57c26 -30 85 -57 130 -57c42 0 80 21 80 62z" />
    <glyph glyph-name="afii10103" unicode="&#x456;" horiz-adv-x="268" 
d="M94 0v450h80v-450h-80zM84 619c0 29 24 48 52 48c25 0 49 -19 49 -48c0 -33 -24 -52 -49 -52c-28 0 -52 19 -52 52z" />
    <glyph glyph-name="afii10104" unicode="&#x457;" horiz-adv-x="293" 
d="M35 608c0 25 20 42 44 42c20 0 40 -17 40 -42c0 -27 -20 -44 -40 -44c-24 0 -44 17 -44 44zM175 608c0 25 20 42 43 42c21 0 40 -17 40 -42c0 -27 -19 -44 -40 -44c-23 0 -43 17 -43 44zM106 0v450h80v-450h-80z" />
    <glyph glyph-name="afii10105" unicode="&#x458;" horiz-adv-x="273" 
d="M178 450v-483c0 -110 -41 -175 -141 -175c-43 0 -81 14 -100 29l23 64c16 -10 35 -18 59 -18c57 0 79 40 79 106v477h80zM87 619c0 29 24 48 52 48c25 0 49 -19 49 -48c0 -33 -24 -52 -49 -52c-28 0 -52 19 -52 52z" />
    <glyph glyph-name="afii10106" unicode="&#x459;" horiz-adv-x="742" 
d="M380 0v370h-158l-5 -76c-20 -256 -88 -300 -181 -300l-6 78c34 -3 98 30 109 238l8 140h313v-135h69c138 0 178 -75 178 -155c0 -79 -46 -160 -188 -160h-139zM514 240h-54v-165h53c79 0 109 29 109 82c0 54 -31 83 -108 83z" />
    <glyph glyph-name="afii10107" unicode="&#x45a;" horiz-adv-x="764" 
d="M72 0v450h80v-175h250v175h80v-145h69c138 0 178 -70 178 -150c0 -79 -46 -155 -187 -155h-140v200h-250v-200h-80zM536 230h-54v-155h53c80 0 109 24 109 77c0 54 -31 78 -108 78z" />
    <glyph glyph-name="afii10108" unicode="&#x45b;" horiz-adv-x="596" 
d="M5 460v65h130v175h80v-175h180v-65h-180v-152c33 34 90 60 147 60c117 0 187 -59 187 -200v-168h-80v157c0 90 -44 136 -127 136c-50 0 -99 -24 -127 -57v-236h-80v460h-130z" />
    <glyph glyph-name="afii10109" unicode="&#x45c;" horiz-adv-x="498" 
d="M466 450l-197 -215l216 -235h-111l-203 230l190 220h105zM72 0v450h80v-450h-80zM365 674l-120 -143l-48 34l106 157z" />
    <glyph glyph-name="afii10110" unicode="&#x45e;" horiz-adv-x="491" 
d="M481 450l-180 -450c-66 -161 -108 -200 -172 -200c-34 0 -61 12 -85 28l26 61c15 -7 32 -15 50 -15c38 0 66 30 96 102l10 24l-216 450h96l132 -286c10 -23 18 -45 27 -68c6 22 13 45 21 69l104 285h91zM101 680h75c4 -54 29 -79 77 -79c44 0 69 25 73 79h75
c0 -79 -58 -140 -148 -140c-99 0 -152 61 -152 140z" />
    <glyph glyph-name="afii10193" unicode="&#x45f;" horiz-adv-x="540" 
d="M72 0v450h80v-375h235v375h80v-450h-160v-125h-75v125h-160z" />
    <glyph glyph-name="afii10146" unicode="&#x462;" horiz-adv-x="639" 
d="M227 700v-100h157v-80h-157v-100c38 3 75 5 98 5c181 0 264 -74 264 -206c0 -147 -104 -221 -283 -221c-60 0 -123 2 -164 2v520h-132v80h132v100h85zM319 345c-23 0 -57 -2 -92 -6v-258c27 -1 57 -3 89 -3c115 0 183 38 183 139c0 91 -67 128 -180 128z" />
    <glyph glyph-name="afii10194" unicode="&#x463;" horiz-adv-x="506" 
d="M5 375v75h129v250h80v-250h150v-75h-150v-90h79c138 0 178 -66 178 -146c0 -79 -46 -139 -187 -139h-150v375h-129zM292 210h-78v-135h78c72 0 94 26 94 68c0 41 -24 67 -94 67z" />
    <glyph glyph-name="afii10147" unicode="&#x472;" horiz-adv-x="814" 
d="M50 350c0 203 149 360 357 360c203 0 357 -147 357 -360c0 -208 -154 -360 -357 -360s-357 147 -357 360zM287 357c-54 0 -111 -34 -142 -62c23 -131 130 -225 262 -225c151 0 254 108 265 253c-39 -26 -92 -47 -137 -47c-105 0 -151 81 -248 81zM541 351
c45 0 99 27 128 53c-23 134 -130 226 -262 226c-143 0 -253 -103 -266 -251c43 30 98 53 147 53c106 0 153 -81 253 -81z" />
    <glyph glyph-name="afii10195" unicode="&#x473;" horiz-adv-x="575" 
d="M42 225c0 135 96 235 245 235s245 -100 245 -235s-96 -235 -245 -235s-245 100 -245 235zM203 227c-25 0 -52 -9 -79 -37c14 -87 83 -135 163 -135c83 0 154 50 164 146c-28 -23 -57 -33 -82 -33c-67 0 -110 59 -166 59zM379 223c23 0 48 8 71 32
c-13 90 -82 140 -163 140c-82 0 -155 -52 -164 -148c29 24 61 35 84 35c69 0 118 -59 172 -59z" />
    <glyph glyph-name="afii10148" unicode="&#x474;" horiz-adv-x="659" 
d="M547 504l-184 -508h-63l-295 704h91l238 -575l148 427c48 139 91 174 197 146l-13 -75c-62 23 -83 -19 -119 -119z" />
    <glyph glyph-name="afii10196" unicode="&#x475;" horiz-adv-x="485" 
d="M393 288l-116 -292h-58l-214 454h94l114 -243c13 -29 26 -65 37 -98c10 33 22 69 33 100l49 128c41 107 76 139 173 110l-13 -74c-49 23 -69 -15 -99 -85z" />
    <glyph glyph-name="afii10050" unicode="&#x490;" horiz-adv-x="505" 
d="M105 0v700h310v125h80v-205h-305v-620h-85z" />
    <glyph glyph-name="afii10098" unicode="&#x491;" horiz-adv-x="362" 
d="M72 0v450h210v105h75v-180h-205v-375h-80z" />
    <glyph glyph-name="uni1E9E" unicode="&#x1e9e;" horiz-adv-x="644" 
d="M499 173c0 86 -105 156 -214 228l135 191c-19 20 -57 38 -102 38c-73 0 -128 -42 -128 -142v-490h-85v488c0 157 92 224 217 224c74 0 147 -33 202 -98l-137 -185c100 -62 202 -151 202 -266c0 -105 -89 -171 -171 -171s-127 31 -161 62l38 66c31 -26 57 -48 104 -48
c51 0 100 38 100 103z" />
    <glyph glyph-name="uni2010" unicode="&#x2010;" horiz-adv-x="389" 
d="M75 235v75h239v-75h-239z" />
    <glyph glyph-name="uni2011" unicode="&#x2011;" horiz-adv-x="389" 
d="M75 235v75h239v-75h-239z" />
    <glyph glyph-name="figuredash" unicode="&#x2012;" horiz-adv-x="594" 
d="M90 319v70h414v-70h-414z" />
    <glyph glyph-name="endash" unicode="&#x2013;" horiz-adv-x="594" 
d="M90 235v70h414v-70h-414z" />
    <glyph glyph-name="emdash" unicode="&#x2014;" horiz-adv-x="804" 
d="M90 235v70h624v-70h-624z" />
    <glyph glyph-name="afii00208" unicode="&#x2015;" horiz-adv-x="804" 
d="M90 235v70h624v-70h-624z" />
    <glyph glyph-name="quoteleft" unicode="&#x2018;" horiz-adv-x="239" 
d="M161 552l-67 -41c-17 19 -29 50 -29 82c0 80 44 127 85 150l37 -36c-31 -21 -47 -57 -47 -96c0 -26 9 -47 21 -59z" />
    <glyph glyph-name="quoteright" unicode="&#x2019;" horiz-adv-x="239" 
d="M78 700l67 40c17 -18 29 -50 29 -82c0 -79 -44 -126 -85 -149l-37 35c31 22 47 58 47 97c0 25 -9 47 -21 59z" />
    <glyph glyph-name="quotesinglbase" unicode="&#x201a;" horiz-adv-x="239" 
d="M78 35l67 40c17 -18 29 -50 29 -82c0 -79 -44 -126 -85 -149l-37 35c31 22 47 58 47 97c0 25 -9 47 -21 59z" />
    <glyph glyph-name="quotedblleft" unicode="&#x201c;" horiz-adv-x="384" 
d="M306 552l-67 -41c-17 19 -29 50 -29 82c0 80 44 127 85 150l37 -36c-31 -21 -47 -57 -47 -96c0 -26 9 -47 21 -59zM161 552l-67 -41c-17 19 -29 50 -29 82c0 80 44 127 85 150l37 -36c-31 -21 -47 -57 -47 -96c0 -26 9 -47 21 -59z" />
    <glyph glyph-name="quotedblright" unicode="&#x201d;" horiz-adv-x="384" 
d="M223 700l67 40c17 -18 29 -50 29 -82c0 -79 -44 -126 -85 -149l-37 35c31 22 47 58 47 97c0 25 -9 47 -21 59zM78 700l67 40c17 -18 29 -50 29 -82c0 -79 -44 -126 -85 -149l-37 35c31 22 47 58 47 97c0 25 -9 47 -21 59z" />
    <glyph glyph-name="quotedblbase" unicode="&#x201e;" horiz-adv-x="384" 
d="M223 35l67 40c17 -18 29 -50 29 -82c0 -79 -44 -126 -85 -149l-37 35c31 22 47 58 47 97c0 25 -9 47 -21 59zM78 35l67 40c17 -18 29 -50 29 -82c0 -79 -44 -126 -85 -149l-37 35c31 22 47 58 47 97c0 25 -9 47 -21 59z" />
    <glyph glyph-name="dagger" unicode="&#x2020;" horiz-adv-x="459" 
d="M40 410v70h152v220h75v-220h152v-70h-152v-510h-75v510h-152z" />
    <glyph glyph-name="daggerdbl" unicode="&#x2021;" horiz-adv-x="459" 
d="M40 410v70h152v220h75v-220h152v-70h-152v-190h152v-70h-152v-250h-75v250h-152v70h152v190h-152z" />
    <glyph glyph-name="bullet" unicode="&#x2022;" horiz-adv-x="230" 
d="M30 263c0 46 38 85 84 85c47 0 86 -39 86 -85s-39 -85 -86 -85c-46 0 -84 39 -84 85z" />
    <glyph glyph-name="ellipsis" unicode="&#x2026;" horiz-adv-x="850" 
d="M670 54c0 26 22 53 57 53c31 0 53 -27 53 -53c0 -30 -22 -57 -53 -57c-35 0 -57 27 -57 57zM370 54c0 26 22 53 57 53c31 0 53 -27 53 -53c0 -30 -22 -57 -53 -57c-35 0 -57 27 -57 57zM70 54c0 26 22 53 57 53c31 0 53 -27 53 -53c0 -30 -22 -57 -53 -57
c-35 0 -57 27 -57 57z" />
    <glyph glyph-name="perthousand" unicode="&#x2030;" horiz-adv-x="1300" 
d="M889 164c0 101 78 169 183 169s183 -68 183 -169s-78 -170 -183 -170s-183 69 -183 170zM964 164c0 -64 51 -105 108 -105c59 0 108 41 108 105c0 63 -50 104 -108 104c-59 0 -108 -41 -108 -104zM159 23l514 687l46 -34l-513 -686zM45 537c0 101 78 169 183 169
s183 -68 183 -169s-78 -170 -183 -170s-183 69 -183 170zM120 537c0 -64 51 -105 108 -105c59 0 108 41 108 105c0 63 -50 104 -108 104c-59 0 -108 -41 -108 -104zM466 164c0 101 78 169 183 169s183 -68 183 -169s-78 -170 -183 -170s-183 69 -183 170zM541 164
c0 -64 51 -105 108 -105c59 0 108 41 108 105c0 63 -50 104 -108 104c-59 0 -108 -41 -108 -104z" />
    <glyph glyph-name="guilsinglleft" unicode="&#x2039;" horiz-adv-x="340" 
d="M230 30l-185 218v4l188 216l52 -46l-148 -172l147 -173z" />
    <glyph glyph-name="guilsinglright" unicode="&#x203a;" horiz-adv-x="340" 
d="M295 248l-185 -218l-54 47l147 173l-148 172l52 46l188 -216v-4z" />
    <glyph glyph-name="fraction" unicode="&#x2044;" horiz-adv-x="200" 
d="M-180 23l514 687l46 -34l-513 -686z" />
    <glyph glyph-name="uni2070" unicode="&#x2070;" horiz-adv-x="384" 
d="M40 525c0 100 51 179 152 179c100 0 152 -81 152 -179c0 -100 -51 -179 -151 -179c-101 0 -153 76 -153 179zM115 525c0 -80 30 -119 78 -119c52 0 76 41 76 119s-27 119 -77 119c-51 0 -77 -42 -77 -119z" />
    <glyph glyph-name="uni2074" unicode="&#x2074;" horiz-adv-x="353" 
d="M209 350v79h-194v46l168 225h67l-163 -216h122v91h65v-91h59v-55h-59v-79h-65z" />
    <glyph glyph-name="uni2075" unicode="&#x2075;" horiz-adv-x="337" 
d="M65 512l22 188h208v-55h-159l-13 -82c10 3 29 7 49 7c77 0 128 -41 128 -106c0 -76 -61 -120 -141 -120c-62 0 -112 19 -137 58l37 38c18 -25 54 -41 88 -41c50 0 79 25 79 62c0 34 -33 59 -92 59c-24 0 -55 -3 -69 -8z" />
    <glyph glyph-name="uni2076" unicode="&#x2076;" horiz-adv-x="380" 
d="M37 480c0 123 110 217 239 225l14 -48c-86 -11 -156 -59 -177 -135c19 24 57 45 104 45c78 0 128 -43 128 -107c0 -68 -64 -116 -145 -116c-108 0 -163 59 -163 136zM112 471c1 -36 30 -72 88 -72c41 0 70 27 70 59c0 33 -25 59 -74 59c-43 0 -72 -25 -84 -46z" />
    <glyph glyph-name="uni2077" unicode="&#x2077;" horiz-adv-x="313" 
d="M17 640v60h278v-42l-157 -308h-76l152 290h-197z" />
    <glyph glyph-name="uni2078" unicode="&#x2078;" horiz-adv-x="393" 
d="M190 555h14c34 0 61 21 61 47c0 30 -30 48 -69 48c-38 0 -68 -18 -68 -48c0 -27 29 -47 62 -47zM203 505h-11c-43 0 -77 -22 -77 -52c0 -32 32 -54 81 -54c47 0 82 21 82 54s-33 52 -75 52zM197 344c-87 0 -152 37 -152 97c0 45 30 76 75 88v2c-36 11 -62 41 -62 83
c0 55 59 91 138 91c80 0 139 -36 139 -91c0 -34 -21 -68 -66 -83v-1c46 -8 79 -39 79 -84c0 -65 -64 -102 -151 -102z" />
    <glyph glyph-name="uni2079" unicode="&#x2079;" horiz-adv-x="380" 
d="M343 561c0 -129 -102 -212 -244 -217l-10 50c100 10 174 64 178 133c-19 -28 -57 -50 -104 -50c-78 0 -128 48 -128 110c0 70 64 118 145 118c108 0 163 -58 163 -144zM268 574c-2 41 -30 76 -88 76c-41 0 -70 -26 -70 -58c0 -33 25 -65 74 -65c43 0 72 25 84 47z" />
    <glyph glyph-name="uni207A" unicode="&#x207a;" horiz-adv-x="360" 
d="M45 502v55h106v105h55v-105h109v-55h-109v-105h-55v105h-106z" />
    <glyph glyph-name="uni207B" unicode="&#x207b;" horiz-adv-x="360" 
d="M45 502v55h270v-55h-270z" />
    <glyph glyph-name="uni207C" unicode="&#x207c;" horiz-adv-x="360" 
d="M45 432v55h270v-55h-270zM45 572v55h270v-55h-270z" />
    <glyph glyph-name="uni207D" unicode="&#x207d;" horiz-adv-x="212" 
d="M202 348l-41 -41c-98 52 -131 142 -131 216c0 73 36 154 132 215l37 -40c-68 -46 -99 -102 -99 -175c0 -74 40 -136 102 -175z" />
    <glyph glyph-name="uni207E" unicode="&#x207e;" horiz-adv-x="212" 
d="M10 697l41 41c98 -52 131 -142 131 -216c0 -73 -36 -155 -132 -215l-37 40c68 45 99 102 99 175c0 74 -40 135 -102 175z" />
    <glyph glyph-name="uni2080" unicode="&#x2080;" horiz-adv-x="384" 
d="M40 175c0 100 51 179 152 179c100 0 152 -81 152 -179c0 -100 -51 -179 -151 -179c-101 0 -153 76 -153 179zM115 175c0 -80 30 -119 78 -119c52 0 76 41 76 119s-27 119 -77 119c-51 0 -77 -42 -77 -119z" />
    <glyph glyph-name="uni2081" unicode="&#x2081;" horiz-adv-x="252" 
d="M22 280l105 71h50v-351h-70v269l-58 -37z" />
    <glyph glyph-name="uni2082" unicode="&#x2082;" horiz-adv-x="349" 
d="M35 0v51c72 48 192 121 192 188c0 31 -21 55 -61 55c-32 0 -64 -24 -69 -58l-59 21c10 61 65 97 135 97c86 0 128 -47 128 -107c0 -93 -129 -165 -174 -187h192v-60h-284z" />
    <glyph glyph-name="uni2083" unicode="&#x2083;" horiz-adv-x="350" 
d="M169 -6c-61 0 -118 22 -144 70l41 38c16 -31 55 -50 92 -50c50 0 77 23 77 53c0 27 -25 47 -71 47h-34v50h30c35 0 62 22 62 51c0 28 -25 45 -63 45c-45 0 -73 -22 -89 -45l-34 38c20 36 65 64 137 64c74 0 124 -33 124 -88c0 -41 -28 -72 -74 -84v-1
c57 -4 87 -42 87 -83c0 -65 -64 -105 -141 -105z" />
    <glyph glyph-name="uni2084" unicode="&#x2084;" horiz-adv-x="353" 
d="M209 0v79h-194v46l168 225h67l-163 -216h122v91h65v-91h59v-55h-59v-79h-65z" />
    <glyph glyph-name="uni2085" unicode="&#x2085;" horiz-adv-x="337" 
d="M65 162l22 188h208v-55h-159l-13 -82c10 3 29 7 49 7c77 0 128 -41 128 -106c0 -76 -61 -120 -141 -120c-62 0 -112 19 -137 58l37 38c18 -25 54 -41 88 -41c50 0 79 25 79 62c0 34 -33 59 -92 59c-24 0 -55 -3 -69 -8z" />
    <glyph glyph-name="uni2086" unicode="&#x2086;" horiz-adv-x="380" 
d="M37 130c0 123 110 217 239 225l14 -48c-86 -11 -156 -59 -177 -135c19 24 57 45 104 45c78 0 128 -43 128 -107c0 -68 -64 -116 -145 -116c-108 0 -163 59 -163 136zM112 121c1 -36 30 -72 88 -72c41 0 70 27 70 59c0 33 -25 59 -74 59c-43 0 -72 -25 -84 -46z" />
    <glyph glyph-name="uni2087" unicode="&#x2087;" horiz-adv-x="313" 
d="M17 290v60h278v-42l-157 -308h-76l152 290h-197z" />
    <glyph glyph-name="uni2088" unicode="&#x2088;" horiz-adv-x="393" 
d="M190 205h14c34 0 61 21 61 47c0 30 -30 48 -69 48c-38 0 -68 -18 -68 -48c0 -27 29 -47 62 -47zM203 155h-11c-43 0 -77 -22 -77 -52c0 -32 32 -54 81 -54c47 0 82 21 82 54s-33 52 -75 52zM197 -6c-87 0 -152 37 -152 97c0 45 30 76 75 88v2c-36 11 -62 41 -62 83
c0 55 59 91 138 91c80 0 139 -36 139 -91c0 -34 -21 -68 -66 -83v-1c46 -8 79 -39 79 -84c0 -65 -64 -102 -151 -102z" />
    <glyph glyph-name="uni2089" unicode="&#x2089;" horiz-adv-x="380" 
d="M343 211c0 -129 -102 -212 -244 -217l-10 50c100 10 174 64 178 133c-19 -28 -57 -50 -104 -50c-78 0 -128 48 -128 110c0 70 64 118 145 118c108 0 163 -58 163 -144zM268 224c-2 41 -30 76 -88 76c-41 0 -70 -26 -70 -58c0 -33 25 -65 74 -65c43 0 72 25 84 47z" />
    <glyph glyph-name="uni208A" unicode="&#x208a;" horiz-adv-x="360" 
d="M45 152v55h106v105h55v-105h109v-55h-109v-105h-55v105h-106z" />
    <glyph glyph-name="uni208B" unicode="&#x208b;" horiz-adv-x="360" 
d="M45 152v55h270v-55h-270z" />
    <glyph glyph-name="uni208C" unicode="&#x208c;" horiz-adv-x="360" 
d="M45 82v55h270v-55h-270zM45 222v55h270v-55h-270z" />
    <glyph glyph-name="uni208D" unicode="&#x208d;" horiz-adv-x="212" 
d="M202 -2l-41 -41c-98 52 -131 142 -131 216c0 73 36 154 132 215l37 -40c-68 -46 -99 -102 -99 -175c0 -74 40 -136 102 -175z" />
    <glyph glyph-name="uni208E" unicode="&#x208e;" horiz-adv-x="212" 
d="M10 347l41 41c98 -52 131 -142 131 -216c0 -73 -36 -155 -132 -215l-37 40c68 45 99 102 99 175c0 74 -40 135 -102 175z" />
    <glyph glyph-name="Euro" unicode="&#x20ac;" 
d="M18 410l26 65h74c42 138 158 235 324 235c50 0 105 -13 135 -29l-31 -73c-27 13 -64 22 -104 22c-105 0 -191 -58 -230 -155h299l-24 -65h-292c-3 -19 -5 -39 -5 -60c0 -16 1 -31 3 -45h266l-21 -65h-230c38 -105 131 -170 248 -170c41 0 75 7 96 18l14 -77
c-23 -12 -72 -21 -117 -21c-167 0 -295 95 -336 250h-94l25 65h58c-1 14 -2 29 -2 45c0 20 1 40 4 60h-86z" />
    <glyph glyph-name="uni20B4" unicode="&#x20b4;" horiz-adv-x="600" 
d="M73 412v65h305c10 13 16 41 16 69c0 41 -24 84 -93 84c-56 0 -98 -18 -133 -52l-41 60c40 47 106 72 177 72c110 0 178 -64 178 -152c0 -30 -11 -63 -26 -81h71v-65h-112c-42 -43 -96 -67 -137 -105h249v-65h-308c-17 -19 -29 -44 -29 -75c0 -63 58 -97 125 -97
c51 0 106 21 145 69l43 -54c-42 -61 -114 -95 -200 -95c-97 0 -193 58 -193 164c0 33 12 64 30 88h-67v65h114c40 39 95 66 139 105h-253z" />
    <glyph glyph-name="uni20B6" unicode="&#x20b6;" horiz-adv-x="600" 
d="M19 308v65h106v327c39 0 139 2 183 2c200 0 259 -90 259 -199c0 -113 -81 -195 -252 -195h-105v-105h173v-65h-173v-138h-85v138h-106v65h106v105h-106zM316 622c-28 0 -73 -1 -106 -2v-247h102c103 0 165 40 165 124c0 83 -50 125 -161 125z" />
    <glyph glyph-name="uni20B6" unicode="&#x20cf;" horiz-adv-x="600" 
d="M19 308v65h106v327c39 0 139 2 183 2c200 0 259 -90 259 -199c0 -113 -81 -195 -252 -195h-105v-105h173v-65h-173v-138h-85v138h-106v65h106v105h-106zM316 622c-28 0 -73 -1 -106 -2v-247h102c103 0 165 40 165 124c0 83 -50 125 -161 125z" />
    <glyph glyph-name="uni20B6" unicode="&#x20ce;" horiz-adv-x="600" 
d="M19 308v65h106v327c39 0 139 2 183 2c200 0 259 -90 259 -199c0 -113 -81 -195 -252 -195h-105v-105h173v-65h-173v-138h-85v138h-106v65h106v105h-106zM316 622c-28 0 -73 -1 -106 -2v-247h102c103 0 165 40 165 124c0 83 -50 125 -161 125z" />
    <glyph glyph-name="uni20B6" unicode="&#x20cd;" horiz-adv-x="600" 
d="M19 308v65h106v327c39 0 139 2 183 2c200 0 259 -90 259 -199c0 -113 -81 -195 -252 -195h-105v-105h173v-65h-173v-138h-85v138h-106v65h106v105h-106zM316 622c-28 0 -73 -1 -106 -2v-247h102c103 0 165 40 165 124c0 83 -50 125 -161 125z" />
    <glyph glyph-name="uni20B6" unicode="&#x20cc;" horiz-adv-x="600" 
d="M19 308v65h106v327c39 0 139 2 183 2c200 0 259 -90 259 -199c0 -113 -81 -195 -252 -195h-105v-105h173v-65h-173v-138h-85v138h-106v65h106v105h-106zM316 622c-28 0 -73 -1 -106 -2v-247h102c103 0 165 40 165 124c0 83 -50 125 -161 125z" />
    <glyph glyph-name="uni20B6" unicode="&#x20cb;" horiz-adv-x="600" 
d="M19 308v65h106v327c39 0 139 2 183 2c200 0 259 -90 259 -199c0 -113 -81 -195 -252 -195h-105v-105h173v-65h-173v-138h-85v138h-106v65h106v105h-106zM316 622c-28 0 -73 -1 -106 -2v-247h102c103 0 165 40 165 124c0 83 -50 125 -161 125z" />
    <glyph glyph-name="uni20B6" unicode="&#x20ca;" horiz-adv-x="600" 
d="M19 308v65h106v327c39 0 139 2 183 2c200 0 259 -90 259 -199c0 -113 -81 -195 -252 -195h-105v-105h173v-65h-173v-138h-85v138h-106v65h106v105h-106zM316 622c-28 0 -73 -1 -106 -2v-247h102c103 0 165 40 165 124c0 83 -50 125 -161 125z" />
    <glyph glyph-name="uni20B6" unicode="&#x20c9;" horiz-adv-x="600" 
d="M19 308v65h106v327c39 0 139 2 183 2c200 0 259 -90 259 -199c0 -113 -81 -195 -252 -195h-105v-105h173v-65h-173v-138h-85v138h-106v65h106v105h-106zM316 622c-28 0 -73 -1 -106 -2v-247h102c103 0 165 40 165 124c0 83 -50 125 -161 125z" />
    <glyph glyph-name="uni20B6" unicode="&#x20c8;" horiz-adv-x="600" 
d="M19 308v65h106v327c39 0 139 2 183 2c200 0 259 -90 259 -199c0 -113 -81 -195 -252 -195h-105v-105h173v-65h-173v-138h-85v138h-106v65h106v105h-106zM316 622c-28 0 -73 -1 -106 -2v-247h102c103 0 165 40 165 124c0 83 -50 125 -161 125z" />
    <glyph glyph-name="uni20B6" unicode="&#x20c7;" horiz-adv-x="600" 
d="M19 308v65h106v327c39 0 139 2 183 2c200 0 259 -90 259 -199c0 -113 -81 -195 -252 -195h-105v-105h173v-65h-173v-138h-85v138h-106v65h106v105h-106zM316 622c-28 0 -73 -1 -106 -2v-247h102c103 0 165 40 165 124c0 83 -50 125 -161 125z" />
    <glyph glyph-name="uni20B6" unicode="&#x20c6;" horiz-adv-x="600" 
d="M19 308v65h106v327c39 0 139 2 183 2c200 0 259 -90 259 -199c0 -113 -81 -195 -252 -195h-105v-105h173v-65h-173v-138h-85v138h-106v65h106v105h-106zM316 622c-28 0 -73 -1 -106 -2v-247h102c103 0 165 40 165 124c0 83 -50 125 -161 125z" />
    <glyph glyph-name="uni20B6" unicode="&#x20c5;" horiz-adv-x="600" 
d="M19 308v65h106v327c39 0 139 2 183 2c200 0 259 -90 259 -199c0 -113 -81 -195 -252 -195h-105v-105h173v-65h-173v-138h-85v138h-106v65h106v105h-106zM316 622c-28 0 -73 -1 -106 -2v-247h102c103 0 165 40 165 124c0 83 -50 125 -161 125z" />
    <glyph glyph-name="uni20B6" unicode="&#x20c4;" horiz-adv-x="600" 
d="M19 308v65h106v327c39 0 139 2 183 2c200 0 259 -90 259 -199c0 -113 -81 -195 -252 -195h-105v-105h173v-65h-173v-138h-85v138h-106v65h106v105h-106zM316 622c-28 0 -73 -1 -106 -2v-247h102c103 0 165 40 165 124c0 83 -50 125 -161 125z" />
    <glyph glyph-name="uni20B6" unicode="&#x20c3;" horiz-adv-x="600" 
d="M19 308v65h106v327c39 0 139 2 183 2c200 0 259 -90 259 -199c0 -113 -81 -195 -252 -195h-105v-105h173v-65h-173v-138h-85v138h-106v65h106v105h-106zM316 622c-28 0 -73 -1 -106 -2v-247h102c103 0 165 40 165 124c0 83 -50 125 -161 125z" />
    <glyph glyph-name="uni20B6" unicode="&#x20c2;" horiz-adv-x="600" 
d="M19 308v65h106v327c39 0 139 2 183 2c200 0 259 -90 259 -199c0 -113 -81 -195 -252 -195h-105v-105h173v-65h-173v-138h-85v138h-106v65h106v105h-106zM316 622c-28 0 -73 -1 -106 -2v-247h102c103 0 165 40 165 124c0 83 -50 125 -161 125z" />
    <glyph glyph-name="uni20B6" unicode="&#x20c1;" horiz-adv-x="600" 
d="M19 308v65h106v327c39 0 139 2 183 2c200 0 259 -90 259 -199c0 -113 -81 -195 -252 -195h-105v-105h173v-65h-173v-138h-85v138h-106v65h106v105h-106zM316 622c-28 0 -73 -1 -106 -2v-247h102c103 0 165 40 165 124c0 83 -50 125 -161 125z" />
    <glyph glyph-name="uni20B6" unicode="&#x20c0;" horiz-adv-x="600" 
d="M19 308v65h106v327c39 0 139 2 183 2c200 0 259 -90 259 -199c0 -113 -81 -195 -252 -195h-105v-105h173v-65h-173v-138h-85v138h-106v65h106v105h-106zM316 622c-28 0 -73 -1 -106 -2v-247h102c103 0 165 40 165 124c0 83 -50 125 -161 125z" />
    <glyph glyph-name="uni20B6" unicode="&#x20bf;" horiz-adv-x="600" 
d="M19 308v65h106v327c39 0 139 2 183 2c200 0 259 -90 259 -199c0 -113 -81 -195 -252 -195h-105v-105h173v-65h-173v-138h-85v138h-106v65h106v105h-106zM316 622c-28 0 -73 -1 -106 -2v-247h102c103 0 165 40 165 124c0 83 -50 125 -161 125z" />
    <glyph glyph-name="uni20B6" unicode="&#x20be;" horiz-adv-x="600" 
d="M19 308v65h106v327c39 0 139 2 183 2c200 0 259 -90 259 -199c0 -113 -81 -195 -252 -195h-105v-105h173v-65h-173v-138h-85v138h-106v65h106v105h-106zM316 622c-28 0 -73 -1 -106 -2v-247h102c103 0 165 40 165 124c0 83 -50 125 -161 125z" />
    <glyph glyph-name="uni20B6" unicode="&#x20bd;" horiz-adv-x="600" 
d="M19 308v65h106v327c39 0 139 2 183 2c200 0 259 -90 259 -199c0 -113 -81 -195 -252 -195h-105v-105h173v-65h-173v-138h-85v138h-106v65h106v105h-106zM316 622c-28 0 -73 -1 -106 -2v-247h102c103 0 165 40 165 124c0 83 -50 125 -161 125z" />
    <glyph glyph-name="uni20B6" unicode="&#x20bc;" horiz-adv-x="600" 
d="M19 308v65h106v327c39 0 139 2 183 2c200 0 259 -90 259 -199c0 -113 -81 -195 -252 -195h-105v-105h173v-65h-173v-138h-85v138h-106v65h106v105h-106zM316 622c-28 0 -73 -1 -106 -2v-247h102c103 0 165 40 165 124c0 83 -50 125 -161 125z" />
    <glyph glyph-name="uni20B6" unicode="&#x20bb;" horiz-adv-x="600" 
d="M19 308v65h106v327c39 0 139 2 183 2c200 0 259 -90 259 -199c0 -113 -81 -195 -252 -195h-105v-105h173v-65h-173v-138h-85v138h-106v65h106v105h-106zM316 622c-28 0 -73 -1 -106 -2v-247h102c103 0 165 40 165 124c0 83 -50 125 -161 125z" />
    <glyph glyph-name="uni20B6" unicode="&#x20ba;" horiz-adv-x="600" 
d="M19 308v65h106v327c39 0 139 2 183 2c200 0 259 -90 259 -199c0 -113 -81 -195 -252 -195h-105v-105h173v-65h-173v-138h-85v138h-106v65h106v105h-106zM316 622c-28 0 -73 -1 -106 -2v-247h102c103 0 165 40 165 124c0 83 -50 125 -161 125z" />
    <glyph glyph-name="uni20B6" unicode="&#x20b9;" horiz-adv-x="600" 
d="M19 308v65h106v327c39 0 139 2 183 2c200 0 259 -90 259 -199c0 -113 -81 -195 -252 -195h-105v-105h173v-65h-173v-138h-85v138h-106v65h106v105h-106zM316 622c-28 0 -73 -1 -106 -2v-247h102c103 0 165 40 165 124c0 83 -50 125 -161 125z" />
    <glyph glyph-name="uni20B6" unicode="&#x20b7;" horiz-adv-x="600" 
d="M19 308v65h106v327c39 0 139 2 183 2c200 0 259 -90 259 -199c0 -113 -81 -195 -252 -195h-105v-105h173v-65h-173v-138h-85v138h-106v65h106v105h-106zM316 622c-28 0 -73 -1 -106 -2v-247h102c103 0 165 40 165 124c0 83 -50 125 -161 125z" />
    <glyph glyph-name="afii61352" unicode="&#x2116;" horiz-adv-x="1176" 
d="M670 0h-68l-417 550v-550h-80v700h68l417 -552v552h80v-700zM740 489c0 101 78 169 183 169s183 -68 183 -169s-78 -170 -183 -170s-183 69 -183 170zM815 489c0 -64 51 -105 108 -105c59 0 108 41 108 105c0 63 -50 104 -108 104c-59 0 -108 -41 -108 -104zM775 185v75
h296v-75h-296z" />
    <glyph glyph-name="trademark" unicode="&#x2122;" horiz-adv-x="847" 
d="M380 385v315h69l133 -140l126 140h66v-315h-75v219l-119 -132h-2l-122 132v-219h-76zM15 627v73h318v-73h-122v-242h-75v242h-121z" />
    <glyph glyph-name="arrowleft" unicode="&#x2190;" horiz-adv-x="643" 
d="M323 555l56 -56l-186 -186h410v-80h-411l187 -187l-56 -56l-283 283z" />
    <glyph glyph-name="arrowup" unicode="&#x2191;" horiz-adv-x="645" 
d="M96 223l-56 57l282 283l283 -283l-56 -57l-187 187v-410h-80v409z" />
    <glyph glyph-name="arrowright" unicode="&#x2192;" horiz-adv-x="643" 
d="M263 499l57 56l283 -282l-283 -283l-57 56l187 187h-410v80h409z" />
    <glyph glyph-name="arrowdown" unicode="&#x2193;" horiz-adv-x="645" 
d="M40 263l56 56l186 -186v410h80v-411l187 187l56 -56l-283 -283z" />
    <glyph glyph-name="partialdiff" unicode="&#x2202;" horiz-adv-x="588" 
d="M42 202c0 138 101 258 248 258c93 0 149 -49 170 -91c0 143 -76 257 -260 269l12 72c211 -8 333 -134 333 -345c0 -195 -97 -375 -285 -375c-131 0 -218 92 -218 212zM127 209c0 -78 55 -144 142 -144c109 0 174 112 185 226c-29 49 -77 94 -160 94
c-95 0 -167 -81 -167 -176z" />
    <glyph glyph-name="product" unicode="&#x220f;" horiz-adv-x="880" 
d="M690 -200v820h-500v-820h-85v900h670v-900h-85z" />
    <glyph glyph-name="summation" unicode="&#x2211;" horiz-adv-x="635" 
d="M340 250l-300 393v57h555v-80h-435l278 -370l-283 -370h440v-80h-555v57z" />
    <glyph glyph-name="minus" unicode="&#x2212;" 
d="M69 325v70h454v-70h-454z" />
    <glyph glyph-name="uni2215" unicode="&#x2215;" horiz-adv-x="335" 
d="M-30 -185l333 895l62 -23l-332 -895z" />
    <glyph glyph-name="radical" unicode="&#x221a;" horiz-adv-x="603" 
d="M5 370v80h161l168 -315l131 565h278v-80h-208l-148 -624h-68l-208 374h-106z" />
    <glyph glyph-name="infinity" unicode="&#x221e;" horiz-adv-x="746" 
d="M547 183c-79 0 -132 48 -175 102c-40 -54 -87 -102 -165 -102c-76 0 -157 59 -157 158c0 84 63 160 160 160c72 0 120 -50 162 -104c39 54 86 104 174 104c92 0 150 -69 150 -164c0 -77 -55 -154 -149 -154zM532 431c-52 0 -86 -40 -120 -88c37 -49 75 -90 127 -90
c53 0 82 44 82 86c0 49 -31 92 -89 92zM215 253c54 0 86 38 117 84c-37 51 -71 94 -116 94c-56 0 -91 -41 -91 -90c0 -57 47 -88 90 -88z" />
    <glyph glyph-name="integral" unicode="&#x222b;" horiz-adv-x="330" 
d="M162 -17c0 -109 -27 -180 -119 -189c-15 -2 -31 -1 -47 0c-32 3 -60 15 -75 27l22 64c16 -10 36 -18 59 -18c64 0 80 49 80 121v535c0 114 50 176 135 184c16 2 32 2 49 0c44 -4 75 -20 94 -37l-28 -61c-16 12 -34 22 -64 24c-20 1 -39 -1 -54 -8
c-31 -13 -52 -48 -52 -111v-531z" />
    <glyph glyph-name="approxequal" unicode="&#x2248;" 
d="M86 217l-36 51c42 45 91 72 136 72c82 0 154 -71 232 -71c31 0 64 18 91 45l32 -55c-38 -36 -82 -60 -124 -60c-80 0 -154 71 -227 71c-39 0 -75 -25 -104 -53zM86 397l-36 51c42 45 91 72 136 72c82 0 154 -71 232 -71c31 0 64 18 91 45l32 -55
c-38 -36 -82 -60 -124 -60c-80 0 -154 71 -227 71c-39 0 -75 -25 -104 -53z" />
    <glyph glyph-name="notequal" unicode="&#x2260;" 
d="M69 415v70h235l84 225l62 -23l-75 -202h148v-70h-174l-41 -110h215v-70h-241l-91 -245l-63 23l83 222h-142v70h168l41 110h-209z" />
    <glyph glyph-name="lessequal" unicode="&#x2264;" 
d="M57 255v74l440 -263v-77zM497 169l-440 266v34l440 264v-87l-329 -194l329 -196v-87z" />
    <glyph glyph-name="greaterequal" unicode="&#x2265;" 
d="M534 329v-74l-439 -266v77zM534 435l-439 -266v87l329 196l-329 194v87l439 -264v-34z" />
    <glyph glyph-name="lozenge" unicode="&#x25ca;" horiz-adv-x="478" 
d="M207 -4l-167 253l168 267h63l167 -256l-168 -264h-63zM121 250l118 -179l118 189l-118 177z" />
    <glyph glyph-name="spade" unicode="&#x2660;" horiz-adv-x="632" 
d="M316 510c105 -66 256 -220 256 -311c0 -51 -35 -104 -117 -104c-63 0 -103 33 -131 72c17 -72 46 -130 107 -167h-230c51 36 85 93 105 164c-28 -38 -68 -69 -129 -69c-82 0 -117 53 -117 105c0 90 151 244 256 310z" />
    <glyph glyph-name="club" unicode="&#x2663;" horiz-adv-x="612" 
d="M177 381c0 71 58 129 129 129s129 -58 129 -129c0 -6 -1 -13 -2 -19c66 -5 119 -61 119 -128c0 -71 -58 -129 -129 -129c-43 0 -81 21 -104 53c17 -63 46 -124 102 -158h-230c46 32 80 95 100 156c-23 -29 -62 -51 -102 -51c-71 0 -129 58 -129 129c0 67 52 123 118 128
c-1 6 -1 13 -1 19z" />
    <glyph glyph-name="heart" unicode="&#x2665;" horiz-adv-x="649" 
d="M325 0c-109 82 -265 259 -265 370c0 64 36 130 121 130c71 0 115 -50 144 -104c28 54 72 104 143 104c85 0 121 -66 121 -129c0 -112 -156 -289 -264 -371z" />
    <glyph glyph-name="diamond" unicode="&#x2666;" horiz-adv-x="583" 
d="M523 249c-85 -85 -160 -175 -232 -268c-70 92 -147 181 -231 268c85 89 160 179 231 269c73 -93 149 -183 232 -269z" />
    <glyph glyph-name="uniF350" unicode="&#xf350;" horiz-adv-x="590" 
d="M12 0l246 528h74l246 -528h-91l-64 140h-261l-64 -140h-86zM293 426l-95 -206h189z" />
    <glyph glyph-name="uniF351" unicode="&#xf351;" horiz-adv-x="521" 
d="M84 0v525h347v-80h-262v-125c25 3 65 4 92 4c131 0 204 -56 204 -157c0 -116 -82 -171 -222 -171c-63 0 -125 4 -159 4zM252 245c-22 0 -55 -1 -83 -4v-162c25 -1 51 -3 83 -3c89 0 128 31 128 87c0 52 -38 82 -128 82z" />
    <glyph glyph-name="uniF352" unicode="&#xf352;" horiz-adv-x="524" 
d="M84 1v523c32 1 121 4 177 4c138 0 188 -58 188 -130c0 -63 -40 -107 -97 -123v-1c74 -10 116 -50 116 -121c0 -108 -91 -156 -212 -156c-52 0 -138 2 -172 4zM267 228h-98v-147c16 -2 62 -4 93 -4c77 0 121 25 121 79c0 47 -42 72 -116 72zM260 448c-27 0 -72 -2 -91 -3
v-142h96c54 0 99 26 99 73s-32 72 -104 72z" />
    <glyph glyph-name="uniF353" unicode="&#xf353;" horiz-adv-x="427" 
d="M84 0v525h333v-80h-248v-445h-85z" />
    <glyph glyph-name="uniF354" unicode="&#xf354;" horiz-adv-x="621" 
d="M11 -95v175h63c24 27 80 139 91 340l6 105h349v-445h78v-175h-80v95h-427v-95h-80zM245 362c-14 -165 -57 -259 -78 -282h268v365h-182z" />
    <glyph glyph-name="uniF355" unicode="&#xf355;" horiz-adv-x="488" 
d="M84 0v525h340v-80h-255v-140h230v-80h-230v-145h263v-80h-348z" />
    <glyph glyph-name="uniF356" unicode="&#xf356;" horiz-adv-x="784" 
d="M760 525l-223 -249l231 -276h-103l-223 274l214 251h104zM350 0v525h85v-525h-85zM247 274l-223 251h104l215 -251l-224 -274h-104z" />
    <glyph glyph-name="uniF357" unicode="&#xf357;" horiz-adv-x="495" 
d="M234 -9c-97 0 -173 45 -203 87l47 57c36 -38 94 -64 156 -64c76 0 120 31 120 83c0 44 -34 73 -108 73h-78v80h74c46 0 89 30 89 73c0 48 -38 72 -94 72c-59 0 -106 -19 -140 -57l-49 57c38 47 106 80 191 80c102 0 177 -51 177 -143c0 -48 -25 -96 -75 -116v-3
c65 -11 98 -64 98 -124c0 -97 -85 -155 -205 -155z" />
    <glyph glyph-name="uniF358" unicode="&#xf358;" horiz-adv-x="656" 
d="M159 0h-75v525h85v-390l328 390h75v-525h-85v390z" />
    <glyph glyph-name="uniF359" unicode="&#xf359;" horiz-adv-x="656" 
d="M159 0h-75v525h85v-390l328 390h75v-525h-85v390zM175 680h75c0 -44 29 -65 77 -65c44 0 73 21 73 65h75c0 -79 -58 -125 -148 -125c-99 0 -152 46 -152 125z" />
    <glyph glyph-name="uniF35A" unicode="&#xf35a;" horiz-adv-x="554" 
d="M526 525l-246 -245l259 -280h-116l-247 274l239 251h111zM84 0v525h85v-525h-85z" />
    <glyph glyph-name="uniF35B" unicode="&#xf35b;" horiz-adv-x="601" 
d="M432 0v445h-192l-10 -99c-31 -312 -109 -360 -211 -346l2 82c43 -5 107 16 133 338l8 105h355v-525h-85z" />
    <glyph glyph-name="uniF35C" unicode="&#xf35c;" horiz-adv-x="740" 
d="M84 0v525h86l207 -251l198 251h81v-525h-85v396l-194 -240h-12l-196 237v-393h-85z" />
    <glyph glyph-name="uniF35D" unicode="&#xf35d;" horiz-adv-x="640" 
d="M471 0v228h-302v-228h-85v525h85v-217h302v217h85v-525h-85z" />
    <glyph glyph-name="uniF35E" unicode="&#xf35e;" horiz-adv-x="655" 
d="M40 262c0 152 118 270 288 270c164 0 287 -108 287 -270c0 -158 -123 -271 -287 -271c-165 0 -288 108 -288 271zM130 262c0 -109 87 -191 198 -191c122 0 197 83 197 191c0 112 -86 190 -197 190c-113 0 -198 -78 -198 -190z" />
    <glyph glyph-name="uniF35F" unicode="&#xf35f;" horiz-adv-x="639" 
d="M470 0v445h-301v-445h-85v525h471v-525h-85z" />
    <glyph glyph-name="uniF360" unicode="&#xf360;" horiz-adv-x="499" 
d="M169 0h-85v525c32 0 119 2 157 2c167 0 218 -83 218 -175c0 -97 -70 -177 -209 -177c-20 0 -54 1 -81 3v-178zM249 447c-22 0 -58 -1 -80 -2v-186c26 -2 52 -4 78 -4c78 0 122 37 122 97c0 57 -35 95 -120 95z" />
    <glyph glyph-name="uniF361" unicode="&#xf361;" horiz-adv-x="542" 
d="M481 114l33 -64c-37 -36 -110 -59 -183 -59c-175 0 -291 107 -291 271c0 146 100 270 287 270c75 0 136 -21 176 -52l-39 -64c-37 22 -78 36 -137 36c-116 0 -197 -74 -197 -190c0 -114 82 -191 209 -191c52 0 103 15 142 43z" />
    <glyph glyph-name="uniF362" unicode="&#xf362;" horiz-adv-x="492" 
d="M8 445v80h476v-80h-196v-445h-85v445h-195z" />
    <glyph glyph-name="uniF363" unicode="&#xf363;" horiz-adv-x="546" 
d="M536 525l-197 -401c-40 -81 -84 -124 -152 -124c-28 0 -54 9 -69 20l30 72c15 -9 27 -13 43 -13c31 0 48 24 61 48l10 18l-251 380h106l189 -296l143 296h87z" />
    <glyph glyph-name="uniF364" unicode="&#xf364;" horiz-adv-x="690" 
d="M301 -6v60c-161 0 -270 78 -270 216c0 136 109 214 270 216v45h85v-45c163 -1 273 -76 273 -216c0 -137 -111 -216 -272 -216h-1v-60h-85zM569 270c0 77 -64 137 -183 138v-277c116 0 183 54 183 139zM121 270c0 -84 68 -139 180 -139v277c-116 -1 -180 -62 -180 -138z
" />
    <glyph glyph-name="uniF365" unicode="&#xf365;" horiz-adv-x="550" 
d="M529 525l-199 -258l207 -267h-105l-158 202l-156 -202h-106l207 267l-198 258h106l149 -194l148 194h105z" />
    <glyph glyph-name="uniF366" unicode="&#xf366;" horiz-adv-x="648" 
d="M84 0v525h85v-445h292v445h85v-445h79v-175h-80v95h-461z" />
    <glyph glyph-name="uniF367" unicode="&#xf367;" horiz-adv-x="548" 
d="M464 525v-525h-85v219c-29 -19 -81 -37 -146 -37c-89 0 -179 43 -179 167v176h85v-146c0 -84 46 -117 112 -117c55 0 98 16 128 35v228h85z" />
    <glyph glyph-name="uniF368" unicode="&#xf368;" horiz-adv-x="822" 
d="M84 0v525h85v-445h199v445h85v-445h200v445h85v-525h-654z" />
    <glyph glyph-name="uniF369" unicode="&#xf369;" horiz-adv-x="840" 
d="M84 0v525h85v-445h199v445h85v-445h200v445h85v-445h79v-175h-80v95h-653z" />
    <glyph glyph-name="uniF36A" unicode="&#xf36a;" horiz-adv-x="553" 
d="M5 445v80h217v-183c29 2 56 3 74 3c150 0 218 -65 218 -168c0 -111 -86 -179 -236 -179c-53 0 -107 2 -141 2v445h-132zM290 265c-18 0 -42 -1 -68 -3v-182c21 -1 46 -2 71 -2c80 0 131 30 131 97c0 60 -48 90 -134 90z" />
    <glyph glyph-name="uniF36B" unicode="&#xf36b;" horiz-adv-x="706" 
d="M537 0v525h85v-525h-85zM233 265c-17 0 -38 -1 -64 -3v-182c20 -1 39 -2 62 -2c85 0 131 32 131 97c0 59 -46 90 -129 90zM169 525v-183c28 2 53 3 71 3c144 0 212 -65 212 -168c0 -111 -86 -179 -231 -179c-52 0 -103 2 -137 2v525h85z" />
    <glyph glyph-name="uniF36C" unicode="&#xf36c;" horiz-adv-x="500" 
d="M236 265c-17 0 -41 -1 -67 -3v-182c20 -1 42 -2 65 -2c85 0 137 30 137 97c0 60 -48 90 -135 90zM169 525v-183c28 2 56 3 74 3c149 0 218 -65 218 -168c0 -111 -87 -179 -237 -179c-52 0 -106 2 -140 2v525h85z" />
    <glyph glyph-name="uniF36D" unicode="&#xf36d;" horiz-adv-x="557" 
d="M157 228v80h272c-18 93 -91 145 -205 145c-65 0 -116 -12 -157 -41l-34 64c42 32 112 57 195 57c170 0 290 -106 290 -270c0 -163 -117 -271 -299 -271c-79 0 -150 22 -193 55l37 71c39 -27 93 -46 166 -46c109 0 187 54 201 156h-273z" />
    <glyph glyph-name="uniF36E" unicode="&#xf36e;" horiz-adv-x="871" 
d="M84 0v525h85v-217h112c18 129 119 225 271 225c170 0 279 -108 279 -270c0 -158 -109 -271 -279 -271c-147 0 -257 93 -272 236h-111v-228h-85zM368 263c0 -109 75 -191 186 -191c118 0 187 83 187 191c0 112 -74 190 -187 190c-109 0 -186 -78 -186 -190z" />
    <glyph glyph-name="uniF36F" unicode="&#xf36f;" horiz-adv-x="534" 
d="M365 0v180h-112l-134 -180h-101l149 197c-55 25 -103 75 -103 148c0 97 68 183 226 183c58 0 126 -3 160 -3v-525h-85zM245 260h120v185c-17 1 -53 3 -83 3c-86 0 -128 -43 -128 -98c0 -48 44 -83 91 -90z" />
    <glyph glyph-name="uniF371" unicode="&#xf371;" horiz-adv-x="488" 
d="M84 0v525h340v-80h-255v-140h230v-80h-230v-145h263v-80h-348zM119 654c0 26 22 43 48 43c21 0 43 -17 43 -43c0 -29 -22 -46 -43 -46c-26 0 -48 17 -48 46zM297 654c0 26 22 43 46 43c23 0 44 -17 44 -43c0 -29 -21 -46 -44 -46c-24 0 -46 17 -46 46z" />
    <glyph glyph-name="uniF372" unicode="&#xf372;" horiz-adv-x="630" 
d="M590 158c0 -116 -58 -166 -145 -166c-42 0 -80 18 -92 31l28 65c13 -9 34 -16 53 -16c43 0 71 22 71 82c0 61 -37 88 -103 88c-54 0 -87 -20 -114 -34v-208h-85v445h-195v80h476v-80h-196v-155c32 15 69 32 130 32c96 0 172 -44 172 -164z" />
    <glyph glyph-name="uniF373" unicode="&#xf373;" horiz-adv-x="427" 
d="M84 0v525h333v-80h-248v-445h-85zM362 705l-135 -125l-40 44l126 142z" />
    <glyph glyph-name="uniF374" unicode="&#xf374;" horiz-adv-x="558" 
d="M401 306v-80h-274c16 -103 102 -154 214 -154c69 0 119 19 159 46l32 -71c-43 -33 -111 -55 -190 -55c-182 0 -302 104 -302 271c0 160 119 270 290 270c84 0 153 -25 194 -57l-38 -64c-41 29 -104 41 -153 41c-124 0 -190 -55 -205 -147h273z" />
    <glyph glyph-name="uniF375" unicode="&#xf375;" horiz-adv-x="485" 
d="M355 143c0 109 -302 67 -302 246c0 78 59 143 199 143c62 0 147 -28 183 -67l-39 -63c-38 31 -103 50 -148 50c-65 0 -105 -25 -105 -67c0 -104 302 -59 302 -247c0 -89 -85 -147 -197 -147c-86 0 -175 32 -214 83l49 58c36 -35 105 -61 170 -61c53 0 102 24 102 72z" />
    <glyph glyph-name="uniF376" unicode="&#xf376;" horiz-adv-x="281" 
d="M98 0v525h85v-525h-85z" />
    <glyph glyph-name="uniF377" unicode="&#xf377;" horiz-adv-x="297" 
d="M38 653c0 25 19 42 43 42c20 0 40 -17 40 -42c0 -27 -20 -44 -40 -44c-24 0 -43 17 -43 44zM177 653c0 25 20 42 44 42c20 0 40 -17 40 -42c0 -27 -20 -44 -40 -44c-24 0 -44 17 -44 44zM106 0v525h85v-525h-85z" />
    <glyph glyph-name="uniF378" unicode="&#xf378;" horiz-adv-x="315" 
d="M231 525v-402c0 -83 -41 -131 -132 -131c-41 0 -78 16 -93 31l29 65c13 -9 33 -16 52 -16c45 0 59 26 59 65v388h85z" />
    <glyph glyph-name="uniF379" unicode="&#xf379;" horiz-adv-x="839" 
d="M432 0v445h-190l-11 -99c-34 -312 -110 -360 -212 -346l2 85c43 -5 107 13 133 335l8 105h355v-183c28 2 52 3 70 3c144 0 212 -65 212 -168c0 -112 -85 -179 -231 -179c-52 0 -103 2 -136 2zM580 265c-17 0 -38 -1 -63 -3v-182c19 -1 38 -2 61 -2c85 0 131 32 131 97
c0 59 -46 90 -129 90z" />
    <glyph glyph-name="uniF37A" unicode="&#xf37a;" horiz-adv-x="870" 
d="M84 0v525h85v-200h294v200h85v-196c28 2 52 3 70 3c144 0 213 -64 213 -161c0 -106 -86 -173 -231 -173c-52 0 -104 2 -137 2v245h-294v-245h-85zM548 249v-169c20 -1 38 -2 62 -2c85 0 131 32 131 91c0 53 -47 84 -129 84c-18 0 -38 -1 -64 -4z" />
    <glyph glyph-name="uniF37B" unicode="&#xf37b;" horiz-adv-x="630" 
d="M8 445v80h476v-80h-196v-161c29 18 77 33 132 33c89 0 170 -43 170 -168v-149h-85v126c0 80 -41 111 -104 111c-50 0 -86 -14 -113 -31v-206h-85v445h-195z" />
    <glyph glyph-name="uniF37C" unicode="&#xf37c;" horiz-adv-x="554" 
d="M526 525l-246 -245l259 -280h-116l-247 274l239 251h111zM84 0v525h85v-525h-85zM392 705l-135 -125l-40 44l126 142z" />
    <glyph glyph-name="uniF37E" unicode="&#xf37e;" horiz-adv-x="546" 
d="M536 525l-197 -401c-40 -81 -84 -124 -152 -124c-28 0 -54 9 -69 20l30 72c15 -9 27 -13 43 -13c31 0 48 24 61 48l10 18l-251 380h106l189 -296l143 296h87zM128 680h75c0 -44 29 -65 77 -65c44 0 73 21 73 65h75c0 -79 -58 -125 -148 -125c-99 0 -152 46 -152 125z" />
    <glyph glyph-name="uniF37F" unicode="&#xf37f;" horiz-adv-x="631" 
d="M84 0v525h85v-445h293v445h85v-525h-192v-115h-80v115h-191z" />
    <glyph glyph-name="uniF381" unicode="&#xf381;" horiz-adv-x="515" 
d="M5 387v70h94v68h85v-68h130v-70h-130v-65c28 2 56 3 74 3c149 0 218 -55 218 -158c0 -111 -87 -169 -237 -169c-52 0 -106 2 -140 2v387h-94zM251 250c-17 0 -41 -1 -67 -3v-172c20 -1 42 -2 65 -2c85 0 137 28 137 92c0 57 -48 85 -135 85z" />
    <glyph glyph-name="uniF389" unicode="&#xf389;" horiz-adv-x="655" 
d="M40 262c0 152 118 270 288 270c164 0 287 -108 287 -270c0 -158 -123 -271 -287 -271c-165 0 -288 108 -288 271zM224 268c-34 0 -64 -14 -92 -39c16 -92 96 -158 196 -158c101 0 171 58 191 139c-27 -19 -56 -28 -83 -28c-85 0 -142 86 -212 86zM443 257
c26 0 56 12 80 33c-14 97 -94 162 -195 162c-95 0 -170 -55 -192 -139c29 20 61 30 89 30c90 0 144 -86 218 -86z" />
    <glyph glyph-name="uniF38A" unicode="&#xf38a;" horiz-adv-x="541" 
d="M455 369l-149 -371h-64l-241 527h96l180 -410l108 290c41 111 84 143 176 119v-69c-48 14 -78 -15 -106 -86z" />
    <glyph glyph-name="uniF393" unicode="&#xf393;" horiz-adv-x="432" 
d="M84 0v525h258v90h80v-170h-253v-445h-85z" />
    <glyph glyph-name="uniF3CF" unicode="&#xf3cf;" horiz-adv-x="976" 
d="M555 0h-68l-323 386v-386h-80v525h68l323 -387v387h80v-525zM607 367c0 79 66 132 156 132c91 0 157 -53 157 -132s-66 -133 -157 -133c-90 0 -156 54 -156 133zM682 367c0 -42 37 -68 81 -68c46 0 82 26 82 68c0 41 -37 67 -82 67s-81 -26 -81 -67zM637 116v75h253v-75
h-253z" />
    <glyph glyph-name="uniF3D0" unicode="&#xf3d0;" horiz-adv-x="420" 
d="M60 680h75c0 -44 29 -65 77 -65c44 0 73 21 73 65h75c0 -79 -58 -125 -148 -125c-99 0 -152 46 -152 125z" />
    <glyph glyph-name="uniF400" unicode="&#xf400;" horiz-adv-x="0" 
d="M-153 674l-120 -143l-48 34l106 157z" />
    <glyph glyph-name="uniF401" unicode="&#xf401;" horiz-adv-x="0" 
d="M-269 819l-202 -84l-23 48l195 104z" />
    <glyph glyph-name="uniF406" unicode="&#xf406;" horiz-adv-x="470" 
d="M60 838l36 42c23 -26 67 -65 143 -65c66 0 113 33 140 65l31 -42c-31 -48 -94 -93 -171 -93c-89 0 -154 54 -179 93z" />
    <glyph glyph-name="uniF407" unicode="&#xf407;" horiz-adv-x="361" 
d="M60 -169l26 42c20 -14 50 -28 74 -28c32 0 56 13 56 36c0 24 -16 39 -58 39h-6v80h43v-43c74 -4 106 -33 106 -80c0 -48 -46 -82 -123 -82c-59 0 -94 20 -118 36z" />
    <glyph glyph-name="uniF408" unicode="&#xf408;" horiz-adv-x="469" 
d="M60 778l171 104h4l174 -103l-33 -46l-143 76l-144 -76z" />
    <glyph glyph-name="uniF409" unicode="&#xf409;" horiz-adv-x="246" 
d="M82 -65l75 19c16 -4 29 -21 29 -49c0 -63 -52 -98 -103 -109l-23 36c33 13 46 33 46 62c0 22 -10 35 -24 41z" />
    <glyph glyph-name="uniF40A" unicode="&#xf40a;" horiz-adv-x="242" 
d="M86 718l67 40c17 -18 29 -50 29 -82c0 -79 -44 -126 -85 -149l-37 35c31 22 47 58 47 97c0 25 -9 47 -21 59z" />
    <glyph glyph-name="uniF40B" unicode="&#xf40b;" horiz-adv-x="231" 
d="M60 817c0 32 27 51 57 51c28 0 54 -19 54 -51c0 -35 -26 -54 -54 -54c-30 0 -57 19 -57 54z" />
    <glyph glyph-name="uniF40C" unicode="&#xf40c;" horiz-adv-x="370" 
d="M60 792c0 67 56 96 124 96c70 0 126 -29 126 -96c0 -66 -56 -100 -126 -100c-68 0 -124 34 -124 100zM120 792c0 -37 28 -55 65 -55c36 0 65 18 65 55c0 36 -29 51 -65 51c-37 0 -65 -15 -65 -51z" />
    <glyph glyph-name="uniF40D" unicode="&#xf40d;" horiz-adv-x="467" 
d="M86 761l-26 50c28 30 66 47 100 47c60 0 96 -40 150 -40c23 0 50 5 75 32l22 -50c-28 -37 -62 -52 -102 -52c-54 0 -96 40 -153 40c-21 0 -43 -8 -66 -27z" />
    <glyph glyph-name="uniF40E" unicode="&#xf40e;" horiz-adv-x="328" 
d="M244 -126l24 -49c-17 -14 -52 -25 -86 -25c-58 0 -122 23 -122 92c0 83 107 125 199 124v-16c-62 0 -119 -37 -119 -82c0 -42 37 -53 60 -53c14 0 27 1 44 9z" />
    <glyph glyph-name="uniF410" unicode="&#xf410;" horiz-adv-x="0" 
d="M-332 735l-202 84l30 68l195 -104z" />
    <glyph glyph-name="uniF416" unicode="&#xf416;" horiz-adv-x="246" 
d="M82 -65l75 19c16 -4 29 -21 29 -49c0 -63 -52 -98 -103 -109l-23 36c33 13 46 33 46 62c0 22 -10 35 -24 41z" />
    <glyph glyph-name="uniF418" unicode="&#xf418;" horiz-adv-x="242" 
d="M86 524l67 40c17 -18 29 -50 29 -82c0 -79 -44 -126 -85 -149l-37 35c31 22 47 58 47 97c0 25 -9 47 -21 59z" />
    <glyph glyph-name="uniF447" unicode="&#xf447;" horiz-adv-x="492" 
d="M136 -171l24 39c20 -13 47 -23 71 -23c32 0 56 13 56 36c0 24 -16 39 -58 39h-6v80h-20v445h-195v80h476v-80h-196v-445h-22v-43c68 -4 101 -33 101 -80c0 -48 -45 -82 -126 -82c-51 0 -81 18 -105 34z" />
    <glyph glyph-name="uniF44E" unicode="&#xf44e;" horiz-adv-x="623" 
d="M39 307h453c-13 91 -90 145 -197 145c-60 0 -101 -12 -142 -41l-33 64c41 32 101 57 184 57c171 0 280 -106 280 -270c0 -163 -113 -271 -279 -271c-174 0 -285 121 -266 316zM304 71c120 0 183 65 191 156h-368c1 -85 68 -156 177 -156z" />
    <glyph glyph-name="uniF639" unicode="&#xf639;" 
d="M69 350c0 210 69 358 227 358s227 -148 227 -358c0 -211 -67 -358 -225 -358s-229 147 -229 358zM154 350c0 -180 45 -283 144 -283c102 0 140 102 140 283s-40 283 -142 283s-142 -104 -142 -283z" />
    <glyph glyph-name="uniF63A" unicode="&#xf63a;" 
d="M84 0v65c114 112 313 301 313 450c0 62 -38 113 -114 113c-56 0 -111 -37 -125 -112l-68 28c17 104 102 164 200 164c131 0 192 -90 192 -177c0 -196 -238 -407 -294 -456h323v-75h-427z" />
    <glyph glyph-name="uniF63B" unicode="&#xf63b;" 
d="M289 -10c-97 0 -176 42 -212 120l46 57c35 -65 98 -97 163 -97c87 0 138 55 138 126c0 75 -59 122 -143 122h-55v80h50c62 0 121 49 121 121c0 69 -43 111 -114 111c-69 0 -113 -33 -144 -87l-45 55c32 71 104 112 195 112c117 0 193 -67 193 -177
c0 -76 -38 -138 -109 -168v-3c87 -14 136 -87 136 -169c0 -125 -95 -203 -220 -203z" />
    <glyph glyph-name="uniF63C" unicode="&#xf63c;" 
d="M372 0v175h-323v57l290 468h92l-277 -445h218v195h80v-195h97v-80h-97v-175h-80z" />
    <glyph glyph-name="uniF63D" unicode="&#xf63d;" 
d="M135 348l44 352h316v-80h-246l-26 -189c15 4 36 7 56 7c127 0 221 -84 221 -217c0 -145 -104 -231 -228 -231c-75 0 -159 33 -201 106l46 59c34 -55 100 -85 157 -85c80 0 141 62 141 148c0 84 -66 148 -170 148c-42 0 -87 -9 -110 -18z" />
    <glyph glyph-name="uniF63E" unicode="&#xf63e;" 
d="M60 248c0 257 186 426 340 462l33 -61c-124 -32 -248 -138 -279 -311c28 53 82 93 165 93c115 0 200 -88 200 -215c0 -138 -107 -226 -216 -226c-156 0 -243 119 -243 258zM145 248c0 -95 52 -178 157 -178c77 0 132 65 132 140c0 81 -48 146 -142 146
c-82 0 -131 -59 -147 -108z" />
    <glyph glyph-name="uniF63F" unicode="&#xf63f;" 
d="M93 620v80h420v-52l-258 -648h-88l249 620h-323z" />
    <glyph glyph-name="uniF640" unicode="&#xf640;" 
d="M284 400h26c59 0 112 51 112 115c0 73 -59 115 -127 115c-69 0 -124 -45 -124 -115c0 -64 53 -115 113 -115zM309 320h-22c-74 0 -138 -51 -138 -124s62 -126 147 -126c90 0 148 51 148 126c-1 79 -62 124 -135 124zM297 -10c-126 0 -233 72 -233 191
c0 87 54 155 132 177v3c-61 21 -110 88 -110 166c0 110 94 183 210 183s211 -73 211 -183c0 -68 -43 -137 -115 -165v-3c77 -13 137 -79 137 -172c0 -125 -106 -197 -232 -197z" />
    <glyph glyph-name="uniF641" unicode="&#xf641;" 
d="M529 447c0 -265 -153 -432 -350 -457l-27 63c156 30 261 137 283 303c-28 -52 -82 -87 -158 -87c-122 0 -209 94 -209 215c0 138 114 226 223 226c156 0 238 -114 238 -263zM444 447c0 95 -47 183 -152 183c-77 0 -139 -65 -139 -140c0 -76 50 -146 144 -146
c82 0 131 53 147 103z" />
    <glyph glyph-name="uniF643" unicode="&#xf643;" 
d="M36 250c0 135 96 260 260 260s260 -125 260 -260s-96 -260 -260 -260s-260 125 -260 260zM121 250c0 -97 66 -180 175 -180c111 0 175 83 175 180c0 100 -67 180 -175 180s-175 -80 -175 -180z" />
    <glyph glyph-name="uniF644" unicode="&#xf644;" 
d="M134 405l162 103h55v-508h-85v405l-105 -71z" />
    <glyph glyph-name="uniF645" unicode="&#xf645;" 
d="M84 0v60c112 46 313 140 313 261c0 63 -38 110 -111 110c-56 0 -116 -32 -136 -106l-53 49c23 86 109 137 191 137c133 0 189 -78 189 -172c0 -136 -144 -233 -208 -259h242v-80h-427z" />
    <glyph glyph-name="uniF646" unicode="&#xf646;" horiz-adv-x="532" 
d="M247 -210c-97 0 -176 42 -212 120l46 57c35 -65 98 -97 163 -97c87 0 138 55 138 126c0 75 -59 122 -143 122h-55v80h50c62 0 121 49 121 121c0 69 -43 111 -114 111c-69 0 -113 -33 -144 -87l-45 55c32 71 104 112 195 112c117 0 193 -67 193 -177
c0 -76 -38 -138 -109 -168v-3c87 -14 136 -87 136 -169c0 -125 -95 -203 -220 -203z" />
    <glyph glyph-name="uniF647" unicode="&#xf647;" 
d="M372 -200v200h-323v57l277 443h92l-264 -420h218v195h80v-195h97v-80h-97v-200h-80z" />
    <glyph glyph-name="uniF648" unicode="&#xf648;" 
d="M135 148l44 352h316v-80h-246l-26 -189c15 4 36 7 56 7c127 0 221 -84 221 -217c0 -145 -104 -231 -228 -231c-75 0 -159 33 -201 106l46 59c34 -55 100 -85 157 -85c80 0 141 62 141 148c0 84 -66 148 -170 148c-42 0 -87 -9 -110 -18z" />
    <glyph glyph-name="uniF649" unicode="&#xf649;" 
d="M60 248c0 257 186 426 340 462l33 -61c-124 -32 -248 -138 -279 -311c28 53 82 93 165 93c115 0 200 -88 200 -215c0 -138 -107 -226 -216 -226c-156 0 -243 119 -243 258zM145 248c0 -95 52 -178 157 -178c77 0 132 65 132 140c0 81 -48 146 -142 146
c-82 0 -131 -59 -147 -108z" />
    <glyph glyph-name="uniF64A" unicode="&#xf64a;" 
d="M93 420v80h420v-52l-258 -648h-88l249 620h-323z" />
    <glyph glyph-name="uniF64B" unicode="&#xf64b;" 
d="M284 400h26c59 0 112 51 112 115c0 73 -59 115 -127 115c-69 0 -124 -45 -124 -115c0 -64 53 -115 113 -115zM309 320h-22c-74 0 -138 -51 -138 -124s62 -126 147 -126c90 0 148 51 148 126c-1 79 -62 124 -135 124zM297 -10c-126 0 -233 72 -233 191
c0 87 54 155 132 177v3c-61 21 -110 88 -110 166c0 110 94 183 210 183s211 -73 211 -183c0 -68 -43 -137 -115 -165v-3c77 -13 137 -79 137 -172c0 -125 -106 -197 -232 -197z" />
    <glyph glyph-name="uniF64C" unicode="&#xf64c;" 
d="M529 247c0 -265 -153 -432 -350 -457l-27 63c156 30 261 137 283 303c-28 -52 -82 -87 -158 -87c-122 0 -209 94 -209 215c0 138 114 226 223 226c156 0 238 -114 238 -263zM444 247c0 95 -47 183 -152 183c-77 0 -139 -65 -139 -140c0 -76 50 -146 144 -146
c82 0 131 53 147 103z" />
    <glyph glyph-name="uniF66D" unicode="&#xf66d;" horiz-adv-x="590" 
d="M12 0l246 528h74l246 -528h-91l-64 140h-261l-64 -140h-86zM293 426l-95 -206h189zM147 685l37 41c20 -24 54 -61 114 -61c52 0 91 31 115 60l29 -39c-28 -39 -70 -86 -147 -86c-83 0 -130 57 -148 85z" />
    <glyph glyph-name="uniF66E" unicode="&#xf66e;" horiz-adv-x="590" 
d="M12 0l246 528h74l246 -528h-91l-64 140h-261l-64 -140h-86zM293 426l-95 -206h189zM163 625v65h264v-65h-264z" />
    <glyph glyph-name="uniF66F" unicode="&#xf66f;" horiz-adv-x="590" 
d="M547 -126l24 -49c-17 -14 -52 -25 -86 -25c-58 0 -122 23 -122 92c0 60 55 98 121 114l-61 134h-261l-64 -140h-86l246 528h74l246 -528h-16c-62 0 -119 -37 -119 -82c0 -42 37 -53 60 -53c14 0 27 1 44 9zM293 426l-95 -206h189z" />
    <glyph glyph-name="uniF671" unicode="&#xf671;" horiz-adv-x="542" 
d="M481 114l33 -64c-37 -36 -110 -59 -183 -59c-175 0 -291 107 -291 271c0 146 100 270 287 270c75 0 136 -21 176 -52l-39 -64c-37 22 -78 36 -137 36c-116 0 -197 -74 -197 -190c0 -114 82 -191 209 -191c52 0 103 15 142 43zM428 705l-135 -125l-40 44l126 142z" />
    <glyph glyph-name="uniF672" unicode="&#xf672;" horiz-adv-x="542" 
d="M481 114l33 -64c-37 -36 -110 -59 -183 -59c-175 0 -291 107 -291 271c0 146 100 270 287 270c75 0 136 -21 176 -52l-39 -64c-37 22 -78 36 -137 36c-116 0 -197 -74 -197 -190c0 -114 82 -191 209 -191c52 0 103 15 142 43zM310 579l-145 118l39 48l109 -89l109 88
l37 -47l-145 -118h-4z" />
    <glyph glyph-name="uniF673" unicode="&#xf673;" horiz-adv-x="542" 
d="M481 114l33 -64c-37 -36 -110 -59 -183 -59c-175 0 -291 107 -291 271c0 146 100 270 287 270c75 0 136 -21 176 -52l-39 -64c-37 22 -78 36 -137 36c-116 0 -197 -74 -197 -190c0 -114 82 -191 209 -191c52 0 103 15 142 43zM316 742l149 -118l-38 -48l-113 89l-115 -88
l-38 47l151 118h4z" />
    <glyph glyph-name="uniF674" unicode="&#xf674;" horiz-adv-x="542" 
d="M481 114l33 -64c-37 -36 -110 -59 -183 -59c-175 0 -291 107 -291 271c0 146 100 270 287 270c75 0 136 -21 176 -52l-39 -64c-37 22 -78 36 -137 36c-116 0 -197 -74 -197 -190c0 -114 82 -191 209 -191c52 0 103 15 142 43zM258 664c0 29 24 48 52 48
c25 0 49 -19 49 -48c0 -33 -24 -52 -49 -52c-28 0 -52 19 -52 52z" />
    <glyph glyph-name="uniF675" unicode="&#xf675;" horiz-adv-x="611" 
d="M84 0v525h10c37 0 108 2 153 2c231 0 324 -114 324 -259c0 -154 -110 -270 -330 -270c-37 0 -96 2 -147 2h-10zM246 447c-30 0 -51 -1 -77 -2v-365c33 -1 63 -2 75 -2c152 0 237 74 237 190c0 108 -76 179 -235 179zM274 579l-145 118l39 48l109 -89l109 88l37 -47
l-145 -118h-4z" />
    <glyph glyph-name="uniF676" unicode="&#xf676;" horiz-adv-x="621" 
d="M8 229v75h85v221h10c37 0 109 2 164 2c221 0 314 -120 314 -259c0 -148 -111 -270 -315 -270c-53 0 -112 2 -163 2h-10v229h-85zM269 447c-36 0 -65 -2 -91 -3v-140h151v-75h-151v-149c33 -1 70 -2 82 -2c149 0 231 77 231 190c0 108 -76 179 -222 179z" />
    <glyph glyph-name="uniF678" unicode="&#xf678;" horiz-adv-x="488" 
d="M84 0v525h340v-80h-255v-140h230v-80h-230v-145h263v-80h-348zM254 579l-145 118l39 48l109 -89l109 88l37 -47l-145 -118h-4z" />
    <glyph glyph-name="uniF679" unicode="&#xf679;" horiz-adv-x="488" 
d="M84 0v525h340v-80h-255v-140h230v-80h-230v-145h263v-80h-348zM202 664c0 29 24 48 52 48c25 0 49 -19 49 -48c0 -33 -24 -52 -49 -52c-28 0 -52 19 -52 52z" />
    <glyph glyph-name="uniF67A" unicode="&#xf67a;" horiz-adv-x="488" 
d="M84 0v525h340v-80h-255v-140h230v-80h-230v-145h263v-80h-348zM119 625v65h264v-65h-264z" />
    <glyph glyph-name="uniF67C" unicode="&#xf67c;" horiz-adv-x="488" 
d="M84 0v525h340v-80h-255v-140h230v-80h-230v-145h263v-80h-8c-60 -2 -114 -38 -114 -82c0 -42 37 -53 60 -53c14 0 27 1 44 9l24 -49c-17 -14 -52 -25 -86 -25c-58 0 -122 23 -122 92c0 53 43 89 98 108h-244z" />
    <glyph glyph-name="uniF67D" unicode="&#xf67d;" horiz-adv-x="601" 
d="M325 203v75h228v-214c-51 -46 -144 -73 -216 -73c-184 0 -297 107 -297 271c0 150 112 270 286 270c81 0 136 -19 184 -52l-37 -67c-34 24 -84 39 -137 39c-120 0 -206 -71 -206 -190c0 -117 84 -191 209 -191c49 0 103 14 134 39v93h-148zM165 685l37 41
c20 -24 54 -61 114 -61c52 0 91 31 115 60l29 -39c-28 -39 -70 -86 -147 -86c-83 0 -130 57 -148 85z" />
    <glyph glyph-name="uniF67E" unicode="&#xf67e;" horiz-adv-x="601" 
d="M325 203v75h228v-214c-51 -46 -144 -73 -216 -73c-184 0 -297 107 -297 271c0 150 112 270 286 270c81 0 136 -19 184 -52l-37 -67c-34 24 -84 39 -137 39c-120 0 -206 -71 -206 -190c0 -117 84 -191 209 -191c49 0 103 14 134 39v93h-148zM326 742l149 -118l-38 -48
l-113 89l-115 -88l-38 47l151 118h4z" />
    <glyph glyph-name="uniF67F" unicode="&#xf67f;" horiz-adv-x="601" 
d="M325 203v75h228v-214c-51 -46 -144 -73 -216 -73c-184 0 -297 107 -297 271c0 150 112 270 286 270c81 0 136 -19 184 -52l-37 -67c-34 24 -84 39 -137 39c-120 0 -206 -71 -206 -190c0 -117 84 -191 209 -191c49 0 103 14 134 39v93h-148zM277 -65l75 19
c16 -4 29 -21 29 -49c0 -63 -52 -98 -103 -109l-23 36c33 13 46 33 46 62c0 22 -10 35 -24 41z" />
    <glyph glyph-name="uniF680" unicode="&#xf680;" horiz-adv-x="601" 
d="M325 203v75h228v-214c-51 -46 -144 -73 -216 -73c-184 0 -297 107 -297 271c0 150 112 270 286 270c81 0 136 -19 184 -52l-37 -67c-34 24 -84 39 -137 39c-120 0 -206 -71 -206 -190c0 -117 84 -191 209 -191c49 0 103 14 134 39v93h-148zM268 664c0 29 24 48 52 48
c25 0 49 -19 49 -48c0 -33 -24 -52 -49 -52c-28 0 -52 19 -52 52z" />
    <glyph glyph-name="uniF681" unicode="&#xf681;" horiz-adv-x="640" 
d="M30 382v75h54v68h85v-68h302v68h85v-68h54v-75h-54v-382h-85v228h-302v-228h-85v382h-54zM169 308h302v74h-302v-74z" />
    <glyph glyph-name="uniF682" unicode="&#xf682;" horiz-adv-x="640" 
d="M471 0v228h-302v-228h-85v525h85v-217h302v217h85v-525h-85zM322 742l149 -118l-38 -48l-113 89l-115 -88l-38 47l151 118h4z" />
    <glyph glyph-name="uniF685" unicode="&#xf685;" horiz-adv-x="281" 
d="M98 0v525h85v-525h-85zM8 625v65h264v-65h-264z" />
    <glyph glyph-name="uniF686" unicode="&#xf686;" horiz-adv-x="281" 
d="M162 -126l24 -49c-17 -14 -52 -25 -86 -25c-58 0 -122 23 -122 92c0 60 55 98 120 114v519h85v-525h-6c-62 0 -119 -37 -119 -82c0 -42 37 -53 60 -53c14 0 27 1 44 9z" />
    <glyph glyph-name="uniF688" unicode="&#xf688;" horiz-adv-x="315" 
d="M231 525v-402c0 -83 -41 -131 -132 -131c-41 0 -78 16 -93 31l29 65c13 -9 33 -16 52 -16c45 0 59 26 59 65v388h85zM185 742l149 -118l-38 -48l-113 89l-115 -88l-38 47l151 118h4z" />
    <glyph glyph-name="uniF689" unicode="&#xf689;" horiz-adv-x="554" 
d="M526 525l-246 -245l259 -280h-116l-247 274l239 251h111zM84 0v525h85v-525h-85zM216 -65l75 19c16 -4 29 -21 29 -49c0 -63 -52 -98 -103 -109l-23 36c33 13 46 33 46 62c0 22 -10 35 -24 41z" />
    <glyph glyph-name="uniF68A" unicode="&#xf68a;" horiz-adv-x="459" 
d="M84 0v525h85v-440h272v-85h-357zM327 705l-135 -125l-40 44l126 142z" />
    <glyph glyph-name="uniF68B" unicode="&#xf68b;" horiz-adv-x="459" 
d="M84 0v525h85v-440h272v-85h-357zM301 525h78c5 -10 8 -24 8 -38c0 -81 -44 -131 -86 -153l-36 35c28 24 47 64 47 109c0 20 -4 34 -11 47z" />
    <glyph glyph-name="uniF68C" unicode="&#xf68c;" horiz-adv-x="459" 
d="M84 0v525h85v-440h272v-85h-357zM216 -65l75 19c16 -4 29 -21 29 -49c0 -63 -52 -98 -103 -109l-23 36c33 13 46 33 46 62c0 22 -10 35 -24 41z" />
    <glyph glyph-name="uniF68D" unicode="&#xf68d;" horiz-adv-x="459" 
d="M84 0v525h85v-440h272v-85h-357zM302 299c0 26 22 53 57 53c31 0 53 -27 53 -53c0 -30 -22 -57 -53 -57c-35 0 -57 27 -57 57z" />
    <glyph glyph-name="uniF68E" unicode="&#xf68e;" horiz-adv-x="656" 
d="M572 0h-69l-339 386v-386h-80v525h68l340 -387v387h80v-525zM452 705l-135 -125l-40 44l126 142z" />
    <glyph glyph-name="uniF68F" unicode="&#xf68f;" horiz-adv-x="656" 
d="M572 0h-69l-339 386v-386h-80v525h68l340 -387v387h80v-525zM325 579l-145 118l39 48l109 -89l109 88l37 -47l-145 -118h-4z" />
    <glyph glyph-name="uniF690" unicode="&#xf690;" horiz-adv-x="656" 
d="M572 0h-69l-339 386v-386h-80v525h68l340 -387v387h80v-525zM271 -65l75 19c16 -4 29 -21 29 -49c0 -63 -52 -98 -103 -109l-23 36c33 13 46 33 46 62c0 22 -10 35 -24 41z" />
    <glyph glyph-name="uniF692" unicode="&#xf692;" horiz-adv-x="655" 
d="M40 262c0 152 118 270 288 270c164 0 287 -108 287 -270c0 -158 -123 -271 -287 -271c-165 0 -288 108 -288 271zM130 262c0 -109 87 -191 198 -191c122 0 197 83 197 191c0 112 -86 190 -197 190c-113 0 -198 -78 -198 -190zM531 716l-142 -134l-37 29l120 150zM364 725
l-119 -143l-42 28l103 158z" />
    <glyph glyph-name="uniF693" unicode="&#xf693;" horiz-adv-x="655" 
d="M40 262c0 152 118 270 288 270c164 0 287 -108 287 -270c0 -158 -123 -271 -287 -271c-165 0 -288 108 -288 271zM130 262c0 -109 87 -191 198 -191c122 0 197 83 197 191c0 112 -86 190 -197 190c-113 0 -198 -78 -198 -190zM196 625v65h264v-65h-264z" />
    <glyph glyph-name="uniF695" unicode="&#xf695;" horiz-adv-x="534" 
d="M169 0h-85v525c32 0 113 2 156 2c167 0 216 -75 216 -166c0 -88 -55 -136 -112 -151l170 -210h-108l-149 190h-88v-190zM244 447c-18 0 -57 -1 -75 -2v-175h81c62 0 116 34 116 90c0 45 -29 87 -122 87zM367 705l-135 -125l-40 44l126 142z" />
    <glyph glyph-name="uniF696" unicode="&#xf696;" horiz-adv-x="534" 
d="M169 0h-85v525c32 0 113 2 156 2c167 0 216 -75 216 -166c0 -88 -55 -136 -112 -151l170 -210h-108l-149 190h-88v-190zM244 447c-18 0 -57 -1 -75 -2v-175h81c62 0 116 34 116 90c0 45 -29 87 -122 87zM239 579l-145 118l39 48l109 -89l109 88l37 -47l-145 -118h-4z" />
    <glyph glyph-name="uniF697" unicode="&#xf697;" horiz-adv-x="534" 
d="M169 0h-85v525c32 0 113 2 156 2c167 0 216 -75 216 -166c0 -88 -55 -136 -112 -151l170 -210h-108l-149 190h-88v-190zM244 447c-18 0 -57 -1 -75 -2v-175h81c62 0 116 34 116 90c0 45 -29 87 -122 87zM216 -65l75 19c16 -4 29 -21 29 -49c0 -63 -52 -98 -103 -109
l-23 36c33 13 46 33 46 62c0 22 -10 35 -24 41z" />
    <glyph glyph-name="uniF698" unicode="&#xf698;" horiz-adv-x="485" 
d="M355 143c0 109 -302 67 -302 246c0 78 59 143 199 143c62 0 147 -28 183 -67l-39 -63c-38 31 -103 50 -148 50c-65 0 -105 -25 -105 -67c0 -104 302 -59 302 -247c0 -89 -85 -147 -197 -147c-86 0 -175 32 -214 83l49 58c36 -35 105 -61 170 -61c53 0 102 24 102 72z
M372 705l-135 -125l-40 44l126 142z" />
    <glyph glyph-name="uniF699" unicode="&#xf699;" horiz-adv-x="485" 
d="M132 -171l24 39c20 -13 47 -23 71 -23c32 0 56 13 56 36c0 24 -16 39 -58 39h-6v72c-77 6 -151 36 -185 82l49 58c36 -35 105 -61 170 -61c53 0 102 24 102 72c0 109 -302 67 -302 246c0 78 59 143 199 143c62 0 147 -28 183 -67l-39 -63c-38 31 -103 50 -148 50
c-65 0 -105 -25 -105 -67c0 -104 302 -59 302 -247c0 -85 -78 -142 -183 -146v-35c68 -4 101 -33 101 -80c0 -48 -45 -82 -126 -82c-51 0 -81 18 -105 34z" />
    <glyph glyph-name="uniF69A" unicode="&#xf69a;" horiz-adv-x="485" 
d="M355 143c0 109 -302 67 -302 246c0 78 59 143 199 143c62 0 147 -28 183 -67l-39 -63c-38 31 -103 50 -148 50c-65 0 -105 -25 -105 -67c0 -104 302 -59 302 -247c0 -89 -85 -147 -197 -147c-86 0 -175 32 -214 83l49 58c36 -35 105 -61 170 -61c53 0 102 24 102 72z
M245 742l149 -118l-38 -48l-113 89l-115 -88l-38 47l151 118h4z" />
    <glyph glyph-name="uniF69B" unicode="&#xf69b;" horiz-adv-x="485" 
d="M355 143c0 109 -302 67 -302 246c0 78 59 143 199 143c62 0 147 -28 183 -67l-39 -63c-38 31 -103 50 -148 50c-65 0 -105 -25 -105 -67c0 -104 302 -59 302 -247c0 -89 -85 -147 -197 -147c-86 0 -175 32 -214 83l49 58c36 -35 105 -61 170 -61c53 0 102 24 102 72z
M201 -65l75 19c16 -4 29 -21 29 -49c0 -63 -52 -98 -103 -109l-23 36c33 13 46 33 46 62c0 22 -10 35 -24 41z" />
    <glyph glyph-name="uniF69D" unicode="&#xf69d;" horiz-adv-x="492" 
d="M8 445v80h476v-80h-196v-445h-85v445h-195zM244 579l-145 118l39 48l109 -89l109 88l37 -47l-145 -118h-4z" />
    <glyph glyph-name="uniF69E" unicode="&#xf69e;" horiz-adv-x="492" 
d="M8 445v80h476v-80h-196v-445h-85v445h-195zM201 -65l75 19c16 -4 29 -21 29 -49c0 -63 -52 -98 -103 -109l-23 36c33 13 46 33 46 62c0 22 -10 35 -24 41z" />
    <glyph glyph-name="uniF69F" unicode="&#xf69f;" horiz-adv-x="620" 
d="M544 525v-307c0 -160 -107 -226 -227 -226c-140 0 -242 78 -242 231v302h85v-285c0 -101 54 -168 157 -168c92 0 142 57 142 163v290h85zM162 685l37 41c20 -24 54 -61 114 -61c52 0 91 31 115 60l29 -39c-28 -39 -70 -86 -147 -86c-83 0 -130 57 -148 85z" />
    <glyph glyph-name="uniF6A0" unicode="&#xf6a0;" horiz-adv-x="620" 
d="M544 525v-307c0 -160 -107 -226 -227 -226c-140 0 -242 78 -242 231v302h85v-285c0 -101 54 -168 157 -168c92 0 142 57 142 163v290h85zM515 716l-142 -134l-37 29l120 150zM348 725l-119 -143l-42 28l103 158z" />
    <glyph glyph-name="uniF6A1" unicode="&#xf6a1;" horiz-adv-x="620" 
d="M544 525v-307c0 -160 -107 -226 -227 -226c-140 0 -242 78 -242 231v302h85v-285c0 -101 54 -168 157 -168c92 0 142 57 142 163v290h85zM178 625v65h264v-65h-264z" />
    <glyph glyph-name="uniF6A2" unicode="&#xf6a2;" horiz-adv-x="620" 
d="M544 525v-307c0 -116 -56 -182 -132 -210c-46 -27 -77 -55 -77 -90c0 -42 37 -53 60 -53c14 0 27 1 44 9l24 -49c-17 -14 -52 -25 -86 -25c-58 0 -122 23 -122 92c0 52 41 79 89 101c-9 -1 -18 -1 -27 -1c-140 0 -242 78 -242 231v302h85v-285c0 -101 54 -168 157 -168
c92 0 142 57 142 163v290h85z" />
    <glyph glyph-name="uniF6A3" unicode="&#xf6a3;" horiz-adv-x="620" 
d="M544 525v-307c0 -160 -107 -226 -227 -226c-140 0 -242 78 -242 231v302h85v-285c0 -101 54 -168 157 -168c92 0 142 57 142 163v290h85zM195 653c0 61 49 111 114 111c66 0 116 -50 116 -111c0 -60 -50 -109 -116 -109c-65 0 -114 49 -114 109zM247 654
c0 -36 27 -65 63 -65s63 29 63 65s-27 65 -63 65s-63 -29 -63 -65z" />
    <glyph glyph-name="uniF6AB" unicode="&#xf6ab;" horiz-adv-x="526" 
d="M49 445v80h436v-58l-328 -387h336v-80h-460v58l327 387h-311zM387 705l-135 -125l-40 44l126 142z" />
    <glyph glyph-name="uniF6AC" unicode="&#xf6ac;" horiz-adv-x="526" 
d="M49 445v80h436v-58l-328 -387h336v-80h-460v58l327 387h-311zM212 664c0 29 24 48 52 48c25 0 49 -19 49 -48c0 -33 -24 -52 -49 -52c-28 0 -52 19 -52 52z" />
    <glyph glyph-name="uniF6AD" unicode="&#xf6ad;" horiz-adv-x="281" 
d="M98 0v525h85v-525h-85zM90 664c0 29 24 48 52 48c25 0 49 -19 49 -48c0 -33 -24 -52 -49 -52c-28 0 -52 19 -52 52z" />
    <glyph glyph-name="uniF6BA" unicode="&#xf6ba;" horiz-adv-x="389" 
d="M75 316v75h239v-75h-239z" />
    <glyph glyph-name="uniF6BB" unicode="&#xf6bb;" horiz-adv-x="594" 
d="M90 319v70h414v-70h-414z" />
    <glyph glyph-name="uniF6BC" unicode="&#xf6bc;" horiz-adv-x="804" 
d="M90 319v70h624v-70h-624z" />
    <glyph glyph-name="uniF6C3" unicode="&#xf6c3;" horiz-adv-x="246" 
d="M82 -65l75 19c16 -4 29 -21 29 -49c0 -63 -52 -98 -103 -109l-23 36c33 13 46 33 46 62c0 22 -10 35 -24 41z" />
    <glyph glyph-name="uniF6C9" unicode="&#xf6c9;" horiz-adv-x="345" 
d="M285 819l-202 -84l-23 48l195 104z" />
    <glyph glyph-name="uniF6CA" unicode="&#xf6ca;" horiz-adv-x="470" 
d="M235 738l-175 103l33 46l144 -81l143 81l30 -45l-171 -104h-4z" />
    <glyph glyph-name="uniF6CB" unicode="&#xf6cb;" horiz-adv-x="459" 
d="M60 813c0 28 25 45 55 45c26 0 52 -17 52 -45c0 -31 -26 -48 -52 -48c-30 0 -55 17 -55 48zM292 813c0 28 26 45 56 45c26 0 51 -16 51 -45c0 -31 -25 -48 -51 -48c-30 0 -56 17 -56 48z" />
    <glyph glyph-name="uniF6CE" unicode="&#xf6ce;" horiz-adv-x="345" 
d="M262 735l-202 84l30 68l195 -104z" />
    <glyph glyph-name="uniF6CF" unicode="&#xf6cf;" horiz-adv-x="510" 
d="M450 836l-179 -101l-33 35l157 117zM255 851l-161 -116l-34 32l128 120z" />
    <glyph glyph-name="uniF6D0" unicode="&#xf6d0;" horiz-adv-x="424" 
d="M60 770v65h304v-65h-304z" />
    <glyph glyph-name="uniF6D1" unicode="&#xf6d1;" horiz-adv-x="490" 
d="M60 860h80c15 -41 50 -65 107 -65c52 0 93 21 103 65h80c-9 -75 -87 -125 -183 -125c-105 0 -175 52 -187 125z" />
    <glyph glyph-name="uniF6D4" unicode="&#xf6d4;" horiz-adv-x="420" 
d="M60 680h75c4 -54 29 -79 77 -79c44 0 69 25 73 79h75c0 -79 -58 -140 -148 -140c-99 0 -152 61 -152 140z" />
    <glyph glyph-name="uniF6DC" unicode="&#xf6dc;" 
d="M134 574l168 130h56v-704h-80v589l-102 -80z" />
    <glyph glyph-name="uniF6DE" unicode="&#xf6de;" horiz-adv-x="603" 
d="M67 235v70h468v-70h-468z" />
    <glyph glyph-name="uniF6F4" unicode="&#xf6f4;" horiz-adv-x="415" 
d="M60 685l37 41c20 -24 54 -61 114 -61c52 0 91 31 115 60l29 -39c-28 -39 -70 -86 -147 -86c-83 0 -130 57 -148 85z" />
    <glyph glyph-name="uniF6F5" unicode="&#xf6f5;" horiz-adv-x="414" 
d="M205 579l-145 118l39 48l109 -89l109 88l37 -47l-145 -118h-4z" />
    <glyph glyph-name="uniF6F6" unicode="&#xf6f6;" horiz-adv-x="424" 
d="M215 742l149 -118l-38 -48l-113 89l-115 -88l-38 47l151 118h4z" />
    <glyph glyph-name="uniF6F7" unicode="&#xf6f7;" horiz-adv-x="221" 
d="M60 664c0 29 24 48 52 48c25 0 49 -19 49 -48c0 -33 -24 -52 -49 -52c-28 0 -52 19 -52 52z" />
    <glyph glyph-name="uniF6F8" unicode="&#xf6f8;" horiz-adv-x="448" 
d="M388 716l-142 -134l-37 29l120 150zM221 725l-119 -143l-42 28l103 158z" />
    <glyph glyph-name="uniF6F9" unicode="&#xf6f9;" horiz-adv-x="459" 
d="M20 154v83l64 30v258h85v-217l111 53v-82l-111 -53v-141h272v-85h-357v185z" />
    <glyph glyph-name="uniF6FA" unicode="&#xf6fa;" horiz-adv-x="861" 
d="M457 0v24c-36 -19 -82 -33 -136 -33c-166 0 -282 107 -282 271c0 150 102 270 281 270c57 0 101 -13 137 -32v25h340v-80h-255v-140h230v-80h-230v-145h263v-80h-348zM328 71c54 0 95 15 129 39v303c-33 25 -74 39 -131 39c-116 0 -197 -74 -197 -190
c0 -114 82 -191 199 -191z" />
    <glyph glyph-name="uniF6FB" unicode="&#xf6fb;" horiz-adv-x="328" 
d="M244 -126l24 -49c-17 -14 -52 -25 -86 -25c-58 0 -122 23 -122 92c0 83 107 125 199 124v-16c-62 0 -119 -37 -119 -82c0 -42 37 -53 60 -53c14 0 27 1 44 9z" />
    <glyph glyph-name="uniF6FC" unicode="&#xf6fc;" horiz-adv-x="350" 
d="M60 653c0 61 49 111 114 111c66 0 116 -50 116 -111c0 -60 -50 -109 -116 -109c-65 0 -114 49 -114 109zM112 654c0 -36 27 -65 63 -65s63 29 63 65s-27 65 -63 65s-63 -29 -63 -65z" />
    <glyph glyph-name="uniF6FD" unicode="&#xf6fd;" horiz-adv-x="485" 
d="M355 143c0 109 -302 67 -302 246c0 78 59 143 199 143c62 0 147 -28 183 -67l-39 -63c-38 31 -103 50 -148 50c-65 0 -105 -25 -105 -67c0 -104 302 -59 302 -247c0 -89 -85 -147 -197 -147c-86 0 -175 32 -214 83l49 58c36 -35 105 -61 170 -61c53 0 102 24 102 72z
M239 579l-145 118l39 48l109 -89l109 88l37 -47l-145 -118h-4z" />
    <glyph glyph-name="uniF6FE" unicode="&#xf6fe;" horiz-adv-x="442" 
d="M93 602l-33 37c38 43 77 60 110 60c47 0 72 -44 113 -44c26 0 42 11 71 35l28 -41c-37 -39 -74 -59 -106 -59c-44 0 -69 44 -114 44c-20 0 -44 -13 -69 -32z" />
    <glyph glyph-name="uniF6FF" unicode="&#xf6ff;" horiz-adv-x="526" 
d="M49 445v80h436v-58l-328 -387h336v-80h-460v58l327 387h-311zM259 579l-145 118l39 48l109 -89l109 88l37 -47l-145 -118h-4z" />
    <glyph glyph-name="uniF730" unicode="&#xf730;" horiz-adv-x="620" 
d="M50 250c0 135 96 260 260 260s260 -125 260 -260s-96 -260 -260 -260s-260 125 -260 260zM135 250c0 -97 66 -180 175 -180c111 0 175 83 175 180c0 100 -67 180 -175 180s-175 -80 -175 -180z" />
    <glyph glyph-name="uniF731" unicode="&#xf731;" horiz-adv-x="372" 
d="M40 405l162 103h55v-508h-85v405l-105 -71z" />
    <glyph glyph-name="uniF732" unicode="&#xf732;" horiz-adv-x="522" 
d="M45 0v60c112 46 313 140 313 261c0 63 -38 110 -111 110c-56 0 -116 -32 -136 -106l-53 49c23 86 109 137 191 137c133 0 189 -78 189 -172c0 -136 -144 -233 -208 -259h242v-80h-427z" />
    <glyph glyph-name="uniF733" unicode="&#xf733;" horiz-adv-x="532" 
d="M247 -210c-97 0 -176 42 -212 120l46 57c35 -65 98 -97 163 -97c87 0 138 55 138 126c0 75 -59 122 -143 122h-55v80h50c62 0 121 49 121 121c0 69 -43 111 -114 111c-69 0 -113 -33 -144 -87l-45 55c32 71 104 112 195 112c117 0 193 -67 193 -177
c0 -76 -38 -138 -109 -168v-3c87 -14 136 -87 136 -169c0 -125 -95 -203 -220 -203z" />
    <glyph glyph-name="uniF734" unicode="&#xf734;" horiz-adv-x="550" 
d="M343 -200v200h-323v57l277 443h92l-264 -420h218v195h80v-195h97v-80h-97v-200h-80z" />
    <glyph glyph-name="uniF735" unicode="&#xf735;" horiz-adv-x="516" 
d="M99 148l44 352h316v-80h-246l-26 -189c15 4 36 7 56 7c127 0 221 -84 221 -217c0 -145 -104 -231 -228 -231c-75 0 -159 33 -201 106l46 59c34 -55 100 -85 157 -85c80 0 141 62 141 148c0 84 -66 148 -170 148c-42 0 -87 -9 -110 -18z" />
    <glyph glyph-name="uniF736" unicode="&#xf736;" horiz-adv-x="554" 
d="M50 248c0 257 186 426 340 462l33 -61c-124 -32 -248 -138 -279 -311c28 53 82 93 165 93c115 0 200 -88 200 -215c0 -138 -107 -226 -216 -226c-156 0 -243 119 -243 258zM135 248c0 -95 52 -178 157 -178c77 0 132 65 132 140c0 81 -48 146 -142 146
c-82 0 -131 -59 -147 -108z" />
    <glyph glyph-name="uniF737" unicode="&#xf737;" horiz-adv-x="485" 
d="M30 420v80h420v-52l-258 -648h-88l249 620h-323z" />
    <glyph glyph-name="uniF738" unicode="&#xf738;" horiz-adv-x="595" 
d="M285 400h26c59 0 112 51 112 115c0 73 -59 115 -127 115c-69 0 -124 -45 -124 -115c0 -64 53 -115 113 -115zM310 320h-22c-74 0 -138 -51 -138 -124s62 -126 147 -126c90 0 148 51 148 126c-1 79 -62 124 -135 124zM298 -10c-126 0 -233 72 -233 191
c0 87 54 155 132 177v3c-61 21 -110 88 -110 166c0 110 94 183 210 183s211 -73 211 -183c0 -68 -43 -137 -115 -165v-3c77 -13 137 -79 137 -172c0 -125 -106 -197 -232 -197z" />
    <glyph glyph-name="uniF739" unicode="&#xf739;" horiz-adv-x="551" 
d="M501 247c0 -265 -153 -432 -350 -457l-27 63c156 30 261 137 283 303c-28 -52 -82 -87 -158 -87c-122 0 -209 94 -209 215c0 138 114 226 223 226c156 0 238 -114 238 -263zM416 247c0 95 -47 183 -152 183c-77 0 -139 -65 -139 -140c0 -76 50 -146 144 -146
c82 0 131 53 147 103z" />
    <glyph glyph-name="uniF760" unicode="&#xf760;" horiz-adv-x="295" 
d="M196 580l-136 125l50 61l125 -142z" />
    <glyph glyph-name="uniF761" unicode="&#xf761;" horiz-adv-x="590" 
d="M12 0l246 528h74l246 -528h-91l-64 140h-261l-64 -140h-86zM293 426l-95 -206h189z" />
    <glyph glyph-name="uniF762" unicode="&#xf762;" horiz-adv-x="524" 
d="M84 1v523c32 1 121 4 177 4c138 0 188 -58 188 -130c0 -63 -40 -107 -97 -123v-1c74 -10 116 -50 116 -121c0 -108 -91 -156 -212 -156c-52 0 -138 2 -172 4zM267 228h-98v-147c16 -2 62 -4 93 -4c77 0 121 25 121 79c0 47 -42 72 -116 72zM260 448c-27 0 -72 -2 -91 -3
v-142h96c54 0 99 26 99 73s-32 72 -104 72z" />
    <glyph glyph-name="uniF763" unicode="&#xf763;" horiz-adv-x="542" 
d="M481 114l33 -64c-37 -36 -110 -59 -183 -59c-175 0 -291 107 -291 271c0 146 100 270 287 270c75 0 136 -21 176 -52l-39 -64c-37 22 -78 36 -137 36c-116 0 -197 -74 -197 -190c0 -114 82 -191 209 -191c52 0 103 15 142 43z" />
    <glyph glyph-name="uniF764" unicode="&#xf764;" horiz-adv-x="611" 
d="M84 0v525h10c37 0 108 2 153 2c231 0 324 -114 324 -259c0 -154 -110 -270 -330 -270c-37 0 -96 2 -147 2h-10zM246 447c-30 0 -51 -1 -77 -2v-365c33 -1 63 -2 75 -2c152 0 237 74 237 190c0 108 -76 179 -235 179z" />
    <glyph glyph-name="uniF765" unicode="&#xf765;" horiz-adv-x="488" 
d="M84 0v525h340v-80h-255v-140h230v-80h-230v-145h263v-80h-348z" />
    <glyph glyph-name="uniF766" unicode="&#xf766;" horiz-adv-x="454" 
d="M84 0v525h337v-80h-252v-157h228v-80h-228v-208h-85z" />
    <glyph glyph-name="uniF767" unicode="&#xf767;" horiz-adv-x="601" 
d="M325 203v75h228v-214c-51 -46 -144 -73 -216 -73c-184 0 -297 107 -297 271c0 150 112 270 286 270c81 0 136 -19 184 -52l-37 -67c-34 24 -84 39 -137 39c-120 0 -206 -71 -206 -190c0 -117 84 -191 209 -191c49 0 103 14 134 39v93h-148z" />
    <glyph glyph-name="uniF768" unicode="&#xf768;" horiz-adv-x="640" 
d="M471 0v228h-302v-228h-85v525h85v-217h302v217h85v-525h-85z" />
    <glyph glyph-name="uniF769" unicode="&#xf769;" horiz-adv-x="281" 
d="M98 0v525h85v-525h-85z" />
    <glyph glyph-name="uniF76A" unicode="&#xf76a;" horiz-adv-x="315" 
d="M231 525v-402c0 -83 -41 -131 -132 -131c-41 0 -78 16 -93 31l29 65c13 -9 33 -16 52 -16c45 0 59 26 59 65v388h85z" />
    <glyph glyph-name="uniF76B" unicode="&#xf76b;" horiz-adv-x="554" 
d="M526 525l-246 -245l259 -280h-116l-247 274l239 251h111zM84 0v525h85v-525h-85z" />
    <glyph glyph-name="uniF76C" unicode="&#xf76c;" horiz-adv-x="459" 
d="M84 0v525h85v-440h272v-85h-357z" />
    <glyph glyph-name="uniF76D" unicode="&#xf76d;" horiz-adv-x="740" 
d="M84 0v525h86l207 -251l198 251h81v-525h-85v396l-194 -240h-12l-196 237v-393h-85z" />
    <glyph glyph-name="uniF76E" unicode="&#xf76e;" horiz-adv-x="656" 
d="M572 0h-69l-339 386v-386h-80v525h68l340 -387v387h80v-525z" />
    <glyph glyph-name="uniF76F" unicode="&#xf76f;" horiz-adv-x="655" 
d="M40 262c0 152 118 270 288 270c164 0 287 -108 287 -270c0 -158 -123 -271 -287 -271c-165 0 -288 108 -288 271zM130 262c0 -109 87 -191 198 -191c122 0 197 83 197 191c0 112 -86 190 -197 190c-113 0 -198 -78 -198 -190z" />
    <glyph glyph-name="uniF770" unicode="&#xf770;" horiz-adv-x="499" 
d="M169 0h-85v525c32 0 119 2 157 2c167 0 218 -83 218 -175c0 -97 -70 -177 -209 -177c-20 0 -54 1 -81 3v-178zM249 447c-22 0 -58 -1 -80 -2v-186c26 -2 52 -4 78 -4c78 0 122 37 122 97c0 57 -35 95 -120 95z" />
    <glyph glyph-name="uniF771" unicode="&#xf771;" horiz-adv-x="655" 
d="M40 262c0 152 118 270 288 270c164 0 287 -108 287 -270c0 -75 -28 -139 -74 -187l68 -75h-99l-28 30c-44 -25 -96 -39 -154 -39c-165 0 -288 108 -288 271zM130 262c0 -109 87 -191 198 -191c37 0 70 8 97 21l-46 51l56 51l49 -55c26 33 41 75 41 123
c0 112 -86 190 -197 190c-113 0 -198 -78 -198 -190z" />
    <glyph glyph-name="uniF772" unicode="&#xf772;" horiz-adv-x="534" 
d="M169 0h-85v525c32 0 113 2 156 2c167 0 216 -75 216 -166c0 -88 -55 -136 -112 -151l170 -210h-108l-149 190h-88v-190zM244 447c-18 0 -57 -1 -75 -2v-175h81c62 0 116 34 116 90c0 45 -29 87 -122 87z" />
    <glyph glyph-name="uniF773" unicode="&#xf773;" horiz-adv-x="485" 
d="M355 143c0 109 -302 67 -302 246c0 78 59 143 199 143c62 0 147 -28 183 -67l-39 -63c-38 31 -103 50 -148 50c-65 0 -105 -25 -105 -67c0 -104 302 -59 302 -247c0 -89 -85 -147 -197 -147c-86 0 -175 32 -214 83l49 58c36 -35 105 -61 170 -61c53 0 102 24 102 72z" />
    <glyph glyph-name="uniF774" unicode="&#xf774;" horiz-adv-x="492" 
d="M8 445v80h476v-80h-196v-445h-85v445h-195z" />
    <glyph glyph-name="uniF775" unicode="&#xf775;" horiz-adv-x="620" 
d="M544 525v-307c0 -160 -107 -226 -227 -226c-140 0 -242 78 -242 231v302h85v-285c0 -101 54 -168 157 -168c92 0 142 57 142 163v290h85z" />
    <glyph glyph-name="uniF776" unicode="&#xf776;" horiz-adv-x="542" 
d="M540 525l-234 -527h-64l-241 527h96l180 -410l172 410h91z" />
    <glyph glyph-name="uniF777" unicode="&#xf777;" horiz-adv-x="806" 
d="M800 525l-166 -525h-79l-148 390l-145 -390h-82l-174 525h96l126 -395l139 395h84l143 -395l121 395h85z" />
    <glyph glyph-name="uniF778" unicode="&#xf778;" horiz-adv-x="550" 
d="M529 525l-199 -258l207 -267h-105l-158 202l-156 -202h-106l207 267l-198 258h106l149 -194l148 194h105z" />
    <glyph glyph-name="uniF779" unicode="&#xf779;" horiz-adv-x="508" 
d="M502 525l-206 -304v-221h-85v221l-205 304h103l148 -224l148 224h97z" />
    <glyph glyph-name="uniF77A" unicode="&#xf77a;" horiz-adv-x="526" 
d="M49 445v80h436v-58l-328 -387h336v-80h-460v58l327 387h-311z" />
    <glyph glyph-name="uniF7A8" unicode="&#xf7a8;" horiz-adv-x="388" 
d="M60 654c0 26 22 43 48 43c21 0 43 -17 43 -43c0 -29 -22 -46 -43 -46c-26 0 -48 17 -48 46zM238 654c0 26 22 43 46 43c23 0 44 -17 44 -43c0 -29 -21 -46 -44 -46c-24 0 -46 17 -46 46z" />
    <glyph glyph-name="uniF7AF" unicode="&#xf7af;" horiz-adv-x="384" 
d="M60 625v65h264v-65h-264z" />
    <glyph glyph-name="uniF7B4" unicode="&#xf7b4;" horiz-adv-x="295" 
d="M235 705l-135 -125l-40 44l126 142z" />
    <glyph glyph-name="uniF7B8" unicode="&#xf7b8;" horiz-adv-x="351" 
d="M60 -171l24 39c20 -13 47 -23 71 -23c32 0 56 13 56 36c0 24 -16 39 -58 39h-6v80h43v-43c68 -4 101 -33 101 -80c0 -48 -45 -82 -126 -82c-51 0 -81 18 -105 34z" />
    <glyph glyph-name="uniF7E0" unicode="&#xf7e0;" horiz-adv-x="590" 
d="M12 0l246 528h74l246 -528h-91l-64 140h-261l-64 -140h-86zM293 426l-95 -206h189zM320 580l-136 125l50 61l125 -142z" />
    <glyph glyph-name="uniF7E1" unicode="&#xf7e1;" horiz-adv-x="590" 
d="M12 0l246 528h74l246 -528h-91l-64 140h-261l-64 -140h-86zM293 426l-95 -206h189zM409 705l-135 -125l-40 44l126 142z" />
    <glyph glyph-name="uniF7E2" unicode="&#xf7e2;" horiz-adv-x="590" 
d="M12 0l246 528h74l246 -528h-91l-64 140h-261l-64 -140h-86zM293 426l-95 -206h189zM298 742l149 -118l-38 -48l-113 89l-115 -88l-38 47l151 118h4z" />
    <glyph glyph-name="uniF7E3" unicode="&#xf7e3;" horiz-adv-x="590" 
d="M12 0l246 528h74l246 -528h-91l-64 140h-261l-64 -140h-86zM293 426l-95 -206h189zM167 602l-33 37c38 43 77 60 110 60c47 0 72 -44 113 -44c26 0 42 11 71 35l28 -41c-37 -39 -74 -59 -106 -59c-44 0 -69 44 -114 44c-20 0 -44 -13 -69 -32z" />
    <glyph glyph-name="uniF7E4" unicode="&#xf7e4;" horiz-adv-x="590" 
d="M12 0l246 528h74l246 -528h-91l-64 140h-261l-64 -140h-86zM293 426l-95 -206h189zM161 654c0 26 22 43 48 43c21 0 43 -17 43 -43c0 -29 -22 -46 -43 -46c-26 0 -48 17 -48 46zM339 654c0 26 22 43 46 43c23 0 44 -17 44 -43c0 -29 -21 -46 -44 -46c-24 0 -46 17 -46 46
z" />
    <glyph glyph-name="uniF7E5" unicode="&#xf7e5;" horiz-adv-x="590" 
d="M12 0l246 528h74l246 -528h-91l-64 140h-261l-64 -140h-86zM293 426l-95 -206h189zM180 659c0 61 49 111 114 111c66 0 116 -50 116 -111c0 -60 -50 -109 -116 -109c-65 0 -114 49 -114 109zM232 660c0 -36 27 -65 63 -65s63 29 63 65s-27 65 -63 65s-63 -29 -63 -65z
" />
    <glyph glyph-name="uniF7E6" unicode="&#xf7e6;" horiz-adv-x="790" 
d="M396 0v142h-206l-109 -142h-99l170 215l245 310h328v-80h-244v-140h220v-80h-220v-145h253v-80h-338zM396 404l-142 -182h142v182z" />
    <glyph glyph-name="uniF7E7" unicode="&#xf7e7;" horiz-adv-x="541" 
d="M197 -171l24 39c20 -13 47 -23 71 -23c32 0 56 13 56 36c0 24 -16 39 -58 39h-6v74c-149 17 -245 119 -245 268c0 146 100 270 287 270c75 0 136 -21 176 -52l-39 -64c-37 22 -78 36 -137 36c-116 0 -197 -74 -197 -190c0 -114 82 -191 209 -191c52 0 103 15 142 43
l33 -64c-37 -36 -110 -59 -183 -59h-3v-34c68 -4 101 -33 101 -80c0 -48 -45 -82 -126 -82c-51 0 -81 18 -105 34z" />
    <glyph glyph-name="uniF7E8" unicode="&#xf7e8;" horiz-adv-x="488" 
d="M84 0v525h340v-80h-255v-140h230v-80h-230v-145h263v-80h-348zM283 580l-136 125l50 61l125 -142z" />
    <glyph glyph-name="uniF7E9" unicode="&#xf7e9;" horiz-adv-x="488" 
d="M84 0v525h340v-80h-255v-140h230v-80h-230v-145h263v-80h-348zM367 705l-135 -125l-40 44l126 142z" />
    <glyph glyph-name="uniF7EA" unicode="&#xf7ea;" horiz-adv-x="488" 
d="M84 0v525h340v-80h-255v-140h230v-80h-230v-145h263v-80h-348zM257 742l149 -118l-38 -48l-113 89l-115 -88l-38 47l151 118h4z" />
    <glyph glyph-name="uniF7EB" unicode="&#xf7eb;" horiz-adv-x="488" 
d="M84 0v525h340v-80h-255v-140h230v-80h-230v-145h263v-80h-348zM120 654c0 26 22 43 48 43c21 0 43 -17 43 -43c0 -29 -22 -46 -43 -46c-26 0 -48 17 -48 46zM298 654c0 26 22 43 46 43c23 0 44 -17 44 -43c0 -29 -21 -46 -44 -46c-24 0 -46 17 -46 46z" />
    <glyph glyph-name="uniF7EC" unicode="&#xf7ec;" horiz-adv-x="281" 
d="M98 0v525h85v-525h-85zM163 580l-136 125l50 61l125 -142z" />
    <glyph glyph-name="uniF7ED" unicode="&#xf7ed;" horiz-adv-x="281" 
d="M98 0v525h85v-525h-85zM267 705l-135 -125l-40 44l126 142z" />
    <glyph glyph-name="uniF7EE" unicode="&#xf7ee;" horiz-adv-x="281" 
d="M98 0v525h85v-525h-85zM143 742l149 -118l-38 -48l-113 89l-115 -88l-38 47l151 118h4z" />
    <glyph glyph-name="uniF7EF" unicode="&#xf7ef;" horiz-adv-x="281" 
d="M98 0v525h85v-525h-85zM6 654c0 26 22 43 48 43c21 0 43 -17 43 -43c0 -29 -22 -46 -43 -46c-26 0 -48 17 -48 46zM184 654c0 26 22 43 46 43c23 0 44 -17 44 -43c0 -29 -21 -46 -44 -46c-24 0 -46 17 -46 46z" />
    <glyph glyph-name="uniF7F0" unicode="&#xf7f0;" horiz-adv-x="621" 
d="M8 229v75h85v221h10c37 0 109 2 164 2c221 0 314 -120 314 -259c0 -148 -111 -270 -315 -270c-53 0 -112 2 -163 2h-10v229h-85zM269 447c-36 0 -65 -2 -91 -3v-140h151v-75h-151v-149c33 -1 70 -2 82 -2c149 0 231 77 231 190c0 108 -76 179 -222 179z" />
    <glyph glyph-name="uniF7F1" unicode="&#xf7f1;" horiz-adv-x="656" 
d="M572 0h-69l-339 386v-386h-80v525h68l340 -387v387h80v-525zM194 602l-33 37c38 43 77 60 110 60c47 0 72 -44 113 -44c26 0 42 11 71 35l28 -41c-37 -39 -74 -59 -106 -59c-44 0 -69 44 -114 44c-20 0 -44 -13 -69 -32z" />
    <glyph glyph-name="uniF7F2" unicode="&#xf7f2;" horiz-adv-x="655" 
d="M40 262c0 152 118 270 288 270c164 0 287 -108 287 -270c0 -158 -123 -271 -287 -271c-165 0 -288 108 -288 271zM130 262c0 -109 87 -191 198 -191c122 0 197 83 197 191c0 112 -86 190 -197 190c-113 0 -198 -78 -198 -190zM344 580l-136 125l50 61l125 -142z" />
    <glyph glyph-name="uniF7F3" unicode="&#xf7f3;" horiz-adv-x="655" 
d="M40 262c0 152 118 270 288 270c164 0 287 -108 287 -270c0 -158 -123 -271 -287 -271c-165 0 -288 108 -288 271zM130 262c0 -109 87 -191 198 -191c122 0 197 83 197 191c0 112 -86 190 -197 190c-113 0 -198 -78 -198 -190zM448 705l-135 -125l-40 44l126 142z" />
    <glyph glyph-name="uniF7F4" unicode="&#xf7f4;" horiz-adv-x="655" 
d="M40 262c0 152 118 270 288 270c164 0 287 -108 287 -270c0 -158 -123 -271 -287 -271c-165 0 -288 108 -288 271zM130 262c0 -109 87 -191 198 -191c122 0 197 83 197 191c0 112 -86 190 -197 190c-113 0 -198 -78 -198 -190zM331 742l149 -118l-38 -48l-113 89l-115 -88
l-38 47l151 118h4z" />
    <glyph glyph-name="uniF7F5" unicode="&#xf7f5;" horiz-adv-x="655" 
d="M40 262c0 152 118 270 288 270c164 0 287 -108 287 -270c0 -158 -123 -271 -287 -271c-165 0 -288 108 -288 271zM130 262c0 -109 87 -191 198 -191c122 0 197 83 197 191c0 112 -86 190 -197 190c-113 0 -198 -78 -198 -190zM200 602l-33 37c38 43 77 60 110 60
c47 0 72 -44 113 -44c26 0 42 11 71 35l28 -41c-37 -39 -74 -59 -106 -59c-44 0 -69 44 -114 44c-20 0 -44 -13 -69 -32z" />
    <glyph glyph-name="uniF7F6" unicode="&#xf7f6;" horiz-adv-x="655" 
d="M40 262c0 152 118 270 288 270c164 0 287 -108 287 -270c0 -158 -123 -271 -287 -271c-165 0 -288 108 -288 271zM130 262c0 -109 87 -191 198 -191c122 0 197 83 197 191c0 112 -86 190 -197 190c-113 0 -198 -78 -198 -190zM194 654c0 26 22 43 48 43
c21 0 43 -17 43 -43c0 -29 -22 -46 -43 -46c-26 0 -48 17 -48 46zM372 654c0 26 22 43 46 43c23 0 44 -17 44 -43c0 -29 -21 -46 -44 -46c-24 0 -46 17 -46 46z" />
    </font>
</defs>
</svg>
