<?xml version="1.0" standalone="no"?>
<!DOCTYPE svg PUBLIC "-//W3C//DTD SVG 1.1//EN" "http://www.w3.org/Graphics/SVG/1.1/DTD/svg11.dtd" >
<svg xmlns="http://www.w3.org/2000/svg" xmlns:xlink="http://www.w3.org/1999/xlink" version="1.1">
<metadata>
Created by FontForge 20141024 at Fri Mar 27 11:08:22 2015
 By System Administrator
Circe is a geometric sans-serif with some humanist features in 6 weights from Thin to Extra Bold. Name of the font derives from both its geometric shapes and artificial, kinky nature. While being clean and simple in its basic form, Circe can become more intricate with its numerous decorative variations of characters, tempting and challenging the designer to use more and more of them and finally -- probably -- making him look foolish like the sailors who got to Circe's island. Its oversized character set not only allows using Circe for almost all European languages (based on Latin and Cyrillic scripts) but also contains a lot of alternates and swash variants organized in stylistic sets which make the font look in several completely different ways. Circe is good for both text setting in small point sizes and display purposes, such as magazine headlines, posters and so on. Designed by Alexandra Korolkova and released by ParaType in 2011.
</metadata>
<defs>
<font id="Circe-Thin" horiz-adv-x="641" >
  <font-face 
    font-family="Circe Thin"
    font-weight="250"
    font-stretch="normal"
    units-per-em="1000"
    panose-1="2 11 2 2 2 2 3 2 2 3"
    ascent="773"
    descent="-227"
    x-height="450"
    cap-height="700"
    bbox="-480 -330 1698 990"
    underline-thickness="50"
    underline-position="-50"
    stemh="10"
    stemv="10"
    unicode-range="U+0020-FB02"
  />
<missing-glyph horiz-adv-x="250" 
 />
    <glyph glyph-name="uniF350.var.accented" unicode="&#xf350;`" horiz-adv-x="549" 
d="M24 0l249 531h4l248 -531h-11l-97 206h-286l-96 -206h-11zM274 513l-139 -298h278zM367 740l-109 -141l-8 5l110 142z" />
    <glyph glyph-name="uniF355.var.accented" unicode="&#xf355;`" horiz-adv-x="469" 
d="M96 0v525h301v-10h-291v-242h267v-10h-267v-253h299v-10h-309zM347 740l-109 -141l-8 5l110 142z" />
    <glyph glyph-name="uniF358.var.accented" unicode="&#xf358;`" 
d="M106 0h-10v525h10v-510l429 510h10v-525h-10v510zM407 740l-109 -141l-8 5l110 142z" />
    <glyph glyph-name="uniF35E.var.accented" unicode="&#xf35e;`" horiz-adv-x="644" 
d="M48 263c0 152 119 268 274 268s274 -116 274 -268c0 -153 -119 -269 -274 -269s-274 116 -274 269zM58 263c0 -148 115 -259 264 -259c150 0 264 111 264 259c0 147 -115 258 -264 258s-264 -111 -264 -258zM417 740l-109 -141l-8 5l110 142z" />
    <glyph glyph-name="uniF363.var.accented" unicode="&#xf363;`" horiz-adv-x="506" 
d="M490 525l-198 -409c-39 -80 -69 -116 -115 -116c-18 0 -38 3 -53 14l4 9c15 -9 32 -14 48 -14c43 0 71 40 94 84l12 23l-266 409h11l260 -399l192 399h11zM347 740l-109 -141l-8 5l110 142z" />
    <glyph glyph-name="uniF36B.var.accented" unicode="&#xf36b;`" horiz-adv-x="646" 
d="M540 0v525h10v-525h-10zM207 295c-27 0 -61 -1 -101 -4v-281c29 0 57 -2 97 -2c130 0 202 52 202 150c0 85 -66 137 -198 137zM106 525v-224c40 3 74 4 99 4c143 0 210 -56 210 -148c0 -107 -84 -159 -213 -159c-40 0 -73 2 -106 2v525h10zM397 740l-109 -141l-8 5
l110 142z" />
    <glyph glyph-name="uniF36D.var.accented" unicode="&#xf36d;`" horiz-adv-x="548" 
d="M165 263v10h325c-4 152 -108 248 -270 248c-59 0 -116 -13 -161 -46l-6 7c44 35 110 49 167 49c171 0 280 -102 280 -266c0 -151 -108 -271 -275 -271c-69 0 -129 17 -185 55l6 7c54 -35 113 -52 178 -52c163 0 265 116 266 259h-325zM337 740l-109 -141l-8 5l110 142z
" />
    <glyph glyph-name="uniF36E.var.accented" unicode="&#xf36e;`" horiz-adv-x="858" 
d="M96 0v525h10v-252h173c4 147 114 258 265 258c155 0 266 -116 266 -268c0 -153 -111 -269 -266 -269c-154 0 -265 116 -265 269h-173v-263h-10zM289 263c0 -148 106 -259 255 -259c150 0 256 111 256 259c0 147 -106 258 -256 258c-149 0 -255 -111 -255 -258zM448 740
l-109 -141l-8 5l110 142z" />
    <glyph glyph-name="uniF36F.var.accented" unicode="&#xf36f;`" horiz-adv-x="484" 
d="M378 0v220h-152l-181 -220h-13l183 221c-70 12 -138 71 -138 147c0 91 67 159 197 159c39 0 81 -2 114 -2v-525h-10zM222 230h156v285c-29 0 -65 2 -105 2c-130 0 -186 -70 -186 -150c0 -70 67 -127 135 -137zM367 740l-109 -141l-8 5l110 142z" />
    <glyph glyph-name="uniF371.var.accented" unicode="&#xf371;`" horiz-adv-x="469" 
d="M96 0v525h301v-10h-291v-242h267v-10h-267v-253h299v-10h-309zM145 671c0 6 6 12 13 12c6 0 12 -6 12 -12c0 -7 -6 -13 -12 -13c-7 0 -13 6 -13 13zM319 671c0 6 6 12 13 12c6 0 12 -6 12 -12c0 -7 -6 -13 -12 -13c-7 0 -13 6 -13 13zM307 740l-109 -141l-8 5l110 142z
" />
    <glyph glyph-name="afii10017.var.accented" unicode="&#x410;`" horiz-adv-x="685" 
d="M30 0l311 708h3l311 -708h-11l-122 277h-360l-121 -277h-11zM342 688l-176 -401h352zM479 832l-154 -90l-5 7l155 91z" />
    <glyph glyph-name="afii10022.var.accented" unicode="&#x415;`" horiz-adv-x="575" 
d="M120 0v700h375v-10h-365v-328h335v-10h-335v-342h375v-10h-385zM409 832l-154 -90l-5 7l155 91z" />
    <glyph glyph-name="afii10026.var.accented" unicode="&#x418;`" horiz-adv-x="800" 
d="M130 0h-10v700h10v-685l540 685h10v-700h-10v685zM499 832l-154 -90l-5 7l155 91z" />
    <glyph glyph-name="afii10032.var.accented" unicode="&#x41e;`" horiz-adv-x="804" 
d="M60 350c0 203 149 358 342 358s342 -155 342 -358s-149 -358 -342 -358s-342 155 -342 358zM70 350c0 -198 144 -348 332 -348s332 150 332 348s-144 348 -332 348s-332 -150 -332 -348zM509 832l-154 -90l-5 7l155 91z" />
    <glyph glyph-name="afii10037.var.accented" unicode="&#x423;`" horiz-adv-x="631" 
d="M611 700l-248 -546c-48 -107 -86 -154 -143 -154c-21 0 -46 4 -65 19l4 9c19 -13 40 -19 60 -19c54 0 90 54 119 114l15 31l-333 546h11l327 -536l242 536h11zM449 832l-154 -90l-5 7l155 91z" />
    <glyph glyph-name="afii10045.var.accented" unicode="&#x42b;`" horiz-adv-x="805" 
d="M675 0v700h10v-700h-10zM257 395c-34 0 -76 -1 -127 -6v-379c36 0 72 -2 122 -2c165 0 255 70 255 202c0 115 -83 185 -250 185zM130 700v-301c51 4 93 6 125 6c179 0 262 -75 262 -196c0 -143 -104 -211 -266 -211c-49 0 -90 2 -131 2v700h10zM499 832l-154 -90l-5 7
l155 91z" />
    <glyph glyph-name="afii10047.var.accented" unicode="&#x42d;`" horiz-adv-x="684" 
d="M206 352v10h408c-4 205 -135 336 -339 336c-74 0 -146 -18 -202 -62l-6 7c54 47 137 65 208 65c214 0 349 -136 349 -354c0 -201 -135 -362 -343 -362c-86 0 -161 23 -231 73l7 7c68 -47 142 -70 223 -70c205 0 333 157 334 350h-408zM409 832l-154 -90l-5 7l155 91z" />
    <glyph glyph-name="afii10048.var.accented" unicode="&#x42e;`" horiz-adv-x="1072" 
d="M120 0v700h10v-338h218c6 197 143 346 332 346c193 0 332 -155 332 -358s-139 -358 -332 -358s-332 155 -332 358v2h-218v-352h-10zM358 350c0 -198 134 -348 322 -348s322 150 322 348s-134 348 -322 348s-322 -150 -322 -348zM659 832l-154 -90l-5 7l155 91z" />
    <glyph glyph-name="afii10049.var.accented" unicode="&#x42f;`" horiz-adv-x="603" 
d="M473 0v295h-192l-227 -295h-14l230 296c-88 15 -174 94 -174 195c0 121 84 211 246 211c49 0 100 -2 141 -2v-700h-10zM276 305h197v385c-36 0 -82 2 -132 2c-165 0 -235 -94 -235 -202c0 -95 85 -172 170 -185zM479 832l-154 -90l-5 7l155 91z" />
    <glyph glyph-name="afii10023.var.accented" unicode="&#x401;`" horiz-adv-x="575" 
d="M178 790c0 6 6 12 13 12c6 0 12 -6 12 -12c0 -7 -6 -13 -12 -13c-7 0 -13 6 -13 13zM412 790c0 6 6 12 13 12c6 0 12 -6 12 -12c0 -7 -6 -13 -12 -13c-7 0 -13 6 -13 13zM409 832l-154 -90l-5 7l155 91zM120 0v700h375v-10h-365v-328h335v-10h-335v-342h375v-10h-385z
" />
    <glyph glyph-name="afii10065.var.accented" unicode="&#x430;`" horiz-adv-x="456" 
d="M89 409l-5 8c45 28 85 41 134 41c119 0 158 -65 158 -176v-282h-10v85c-31 -43 -82 -89 -176 -89c-85 0 -140 50 -140 125c0 89 74 135 171 135c38 0 99 -7 145 -40c0 140 -3 232 -150 232c-50 0 -82 -12 -127 -39zM189 6c100 0 147 53 177 95v102c-41 29 -91 43 -147 43
c-77 0 -159 -37 -159 -124c0 -74 57 -116 129 -116zM327 700l-109 -141l-8 5l110 142z" />
    <glyph glyph-name="afii10070.var.accented" unicode="&#x435;`" horiz-adv-x="529" 
d="M446 69l6 -6c-38 -47 -103 -71 -163 -71c-135 0 -234 91 -234 233c0 131 72 233 220 233c116 0 199 -79 199 -200c0 -8 -1 -15 -1 -23h-408c0 -143 87 -233 224 -233c64 0 123 28 157 67zM271 448c-128 0 -199 -87 -206 -203h399c2 125 -76 203 -193 203zM362 700
l-109 -141l-8 5l110 142z" />
    <glyph glyph-name="afii10074.var.accented" unicode="&#x438;`" horiz-adv-x="560" 
d="M100 0h-10v450h10v-435l360 435h10v-450h-10v435zM367 700l-109 -141l-8 5l110 142z" />
    <glyph glyph-name="afii10080.var.accented" unicode="&#x43e;`" horiz-adv-x="570" 
d="M55 225c0 135 96 233 230 233s230 -98 230 -233s-96 -233 -230 -233s-230 98 -230 233zM65 225c0 -130 91 -223 220 -223s220 93 220 223s-91 223 -220 223s-220 -93 -220 -223zM372 700l-109 -141l-8 5l110 142z" />
    <glyph glyph-name="afii10085.var.accented" unicode="&#x443;`" horiz-adv-x="466" 
d="M446 450l-185 -450c-66 -161 -108 -200 -166 -200c-20 0 -41 5 -64 15l4 9c21 -9 40 -15 58 -15c56 0 98 46 148 167l10 24l-231 450h11l187 -366l38 -74l31 76l148 364h11zM347 700l-109 -141l-8 5l110 142z" />
    <glyph glyph-name="afii10093.var.accented" unicode="&#x44b;`" horiz-adv-x="590" 
d="M90 0v450h10v-175h84c138 0 178 -58 178 -138c0 -79 -43 -137 -181 -137h-91zM184 265h-84v-255h83c127 0 169 50 169 128s-45 127 -168 127zM490 0v450h10v-450h-10zM377 700l-109 -141l-8 5l110 142z" />
    <glyph glyph-name="afii10095.var.accented" unicode="&#x44d;`" horiz-adv-x="492" 
d="M166 225v10h261c-5 131 -98 213 -224 213c-64 0 -123 -28 -157 -67l-6 6c38 47 103 71 163 71c135 0 234 -91 234 -233c0 -131 -96 -233 -218 -233c-66 0 -126 13 -170 53l6 9c43 -38 101 -52 162 -52c115 0 210 97 210 223h-261zM310 700l-109 -141l-8 5l110 142z" />
    <glyph glyph-name="afii10096.var.accented" unicode="&#x44e;`" horiz-adv-x="735" 
d="M90 0v450h10v-215h140c4 130 94 223 220 223c129 0 220 -98 220 -233s-91 -233 -220 -233s-220 98 -220 233h-140v-225h-10zM250 225c0 -130 86 -223 210 -223s210 93 210 223s-86 223 -210 223s-210 -93 -210 -223zM457 700l-109 -141l-8 5l110 142z" />
    <glyph glyph-name="afii10097.var.accented" unicode="&#x44f;`" horiz-adv-x="471" 
d="M256 450h125v-450h-10v195h-149l-158 -195h-14l159 195c-63 6 -124 53 -124 124s42 131 171 131zM95 320c0 -73 72 -115 118 -115h158v235h-117c-115 0 -159 -54 -159 -120zM377 700l-109 -141l-8 5l110 142z" />
    <glyph glyph-name="afii10071.var.accented" unicode="&#x451;`" horiz-adv-x="529" 
d="M146 631c0 6 6 12 13 12c6 0 12 -6 12 -12c0 -7 -6 -13 -12 -13c-7 0 -13 6 -13 13zM360 631c0 6 6 12 13 12c6 0 12 -6 12 -12c0 -7 -6 -13 -12 -13c-7 0 -13 6 -13 13zM332 700l-109 -141l-8 5l110 142zM446 69l6 -6c-38 -47 -103 -71 -163 -71
c-135 0 -234 91 -234 233c0 131 72 233 220 233c116 0 199 -79 199 -200c0 -8 -1 -15 -1 -23h-408c0 -143 87 -233 224 -233c64 0 123 28 157 67zM271 448c-128 0 -199 -87 -206 -203h399c2 125 -76 203 -193 203z" />
    <glyph glyph-name="fi" unicode="fi" horiz-adv-x="481" 
d="M369 0v440h-249v-440h-10v523c0 125 61 185 161 185c54 0 88 -18 110 -35l-6 -9c-26 19 -55 34 -104 34c-94 0 -151 -55 -151 -184v-64h259v-450h-10z" />
    <glyph glyph-name="fl" unicode="fl" horiz-adv-x="544" 
d="M363 111v554c-26 19 -54 33 -102 33c-94 0 -141 -55 -141 -184v-64h145v-10h-145v-440h-10v523c0 125 51 185 151 185c54 0 88 -18 110 -35h2v-547c0 -80 20 -119 81 -119c29 0 58 12 74 24l6 -9c-18 -13 -47 -25 -80 -25c-66 0 -91 38 -91 114z" />
    <glyph glyph-name=".notdef" horiz-adv-x="250" 
 />
    <glyph glyph-name="space" unicode=" " horiz-adv-x="250" 
 />
    <glyph glyph-name="exclam" unicode="!" horiz-adv-x="310" 
d="M150 160v540h10v-540h-10zM142 13c0 6 6 12 13 12c6 0 12 -6 12 -12c0 -7 -6 -13 -12 -13c-7 0 -13 6 -13 13z" />
    <glyph glyph-name="quotedbl" unicode="&#x22;" horiz-adv-x="380" 
d="M250 515v185h10v-185h-10zM120 515v185h10v-185h-10z" />
    <glyph glyph-name="numbersign" unicode="#" horiz-adv-x="664" 
d="M325 -4l85 229h-249l-86 -233l-10 4l85 229h-110v10h113l86 230h-199v10h203l87 233l9 -3l-85 -230h249l87 233l9 -3l-85 -230h110v-10h-114l-85 -230h199v-10h-203l-86 -233zM250 465l-85 -230h248l86 230h-249z" />
    <glyph glyph-name="dollar" unicode="$" horiz-adv-x="584" 
d="M493 167c0 237 -392 140 -392 377c0 93 69 163 193 164v82h10v-82c70 -2 138 -29 174 -69l-7 -7c-43 45 -108 66 -177 66c-112 0 -183 -62 -183 -153c0 -231 392 -129 392 -378c0 -103 -87 -168 -199 -174v-93h-10v92h-7c-77 0 -169 38 -205 96l8 7
c42 -58 126 -93 195 -93c105 0 208 55 208 165z" />
    <glyph glyph-name="percent" unicode="%" horiz-adv-x="809" 
d="M139 -1l531 709l8 -5l-531 -711zM60 548c0 88 68 152 155 152s155 -64 155 -152s-68 -152 -155 -152s-155 64 -155 152zM70 548c0 -85 72 -142 145 -142c76 0 145 57 145 142s-70 142 -145 142s-145 -57 -145 -142zM439 152c0 88 68 152 155 152s155 -64 155 -152
s-68 -152 -155 -152s-155 64 -155 152zM449 152c0 -85 72 -142 145 -142c76 0 145 57 145 142s-70 142 -145 142s-145 -57 -145 -142z" />
    <glyph glyph-name="ampersand" unicode="&#x26;" horiz-adv-x="726" 
d="M633 0l-102 129c-53 -82 -132 -137 -234 -137c-115 0 -207 82 -207 198c0 117 106 206 187 259c-66 7 -116 61 -116 129c0 72 58 130 130 130s130 -58 130 -130s-58 -130 -130 -130l239 -302c52 87 78 200 78 304h10c0 -111 -27 -226 -81 -313l109 -137h-13zM296 2
c101 0 177 55 228 135l-242 305c-84 -57 -182 -141 -182 -251c0 -116 95 -189 196 -189zM171 578c0 -66 54 -120 120 -120s120 54 120 120s-54 120 -120 120s-120 -54 -120 -120z" />
    <glyph glyph-name="quotesingle" unicode="'" horiz-adv-x="250" 
d="M120 515v185h10v-185h-10z" />
    <glyph glyph-name="parenleft" unicode="(" horiz-adv-x="250" 
d="M250 -200l-8 -6c-152 131 -202 284 -202 431s50 293 203 431l7 -6c-151 -138 -200 -278 -200 -425s54 -300 200 -425z" />
    <glyph glyph-name="parenright" unicode=")" horiz-adv-x="250" 
d="M8 -206l-8 6c146 125 200 278 200 425s-49 287 -200 425l7 6c153 -138 203 -284 203 -431s-50 -300 -202 -431z" />
    <glyph glyph-name="asterisk" unicode="*" horiz-adv-x="432" 
d="M206 695c0 7 6 13 13 13s13 -6 13 -13s-6 -12 -13 -12s-13 5 -13 12zM205 462c0 7 6 13 13 13s12 -6 12 -13s-5 -12 -12 -12s-13 5 -13 12zM305 637c0 7 5 13 12 13s13 -6 13 -13s-6 -13 -13 -13s-12 6 -12 13zM305 528c0 7 5 13 12 13s13 -6 13 -13s-6 -12 -13 -12
s-12 5 -12 12zM102 528c0 7 6 13 13 13s12 -6 12 -13s-5 -12 -12 -12s-13 5 -13 12zM102 637c0 7 6 13 13 13s12 -6 12 -13s-5 -13 -12 -13s-13 6 -13 13z" />
    <glyph glyph-name="plus" unicode="+" horiz-adv-x="584" 
d="M75 355v10h211v211h10v-211h213v-10h-213v-213h-10v213h-211z" />
    <glyph glyph-name="comma" unicode="," horiz-adv-x="166" 
d="M69 12c0 7 7 13 16 13c18 0 41 -23 41 -68c0 -57 -40 -95 -78 -105l-3 8c31 8 71 43 71 95c0 37 -14 51 -23 56c-1 -7 -6 -11 -12 -11c-7 0 -12 6 -12 12z" />
    <glyph glyph-name="hyphen" unicode="-" horiz-adv-x="414" 
d="M100 265v10h214v-10h-214z" />
    <glyph glyph-name="period" unicode="." horiz-adv-x="145" 
d="M60 13c0 6 6 12 13 12c6 0 12 -6 12 -12c0 -7 -6 -13 -12 -13c-7 0 -13 6 -13 13z" />
    <glyph glyph-name="slash" unicode="/" horiz-adv-x="289" 
d="M-30 -204l340 912l9 -3l-339 -913z" />
    <glyph glyph-name="zero" unicode="0" horiz-adv-x="584" 
d="M80 350c0 203 59 358 212 358s212 -155 212 -358s-57 -358 -210 -358s-214 155 -214 358zM90 350c0 -198 56 -348 204 -348s200 150 200 348s-54 348 -202 348s-202 -150 -202 -348z" />
    <glyph glyph-name="one" unicode="1" horiz-adv-x="361" 
d="M60 587l146 121h5v-708h-10v691l-134 -111z" />
    <glyph glyph-name="two" unicode="2" horiz-adv-x="532" 
d="M60 0v10c114 112 358 356 358 532c0 74 -52 156 -164 156c-69 0 -159 -40 -173 -149h-10c12 109 107 159 180 159c126 0 177 -90 177 -164c0 -195 -293 -475 -354 -534h388v-10h-402z" />
    <glyph glyph-name="three" unicode="3" horiz-adv-x="535" 
d="M253 -8c-77 0 -157 31 -193 124l9 4c36 -90 118 -118 188 -118c114 0 188 79 188 185c0 97 -76 166 -166 166h-67v10h60c71 0 146 76 146 173c0 108 -68 162 -164 162c-95 0 -144 -50 -166 -111l-9 2c22 74 90 119 174 119c111 0 175 -65 175 -175
c0 -68 -41 -143 -114 -171v-3c88 -11 141 -92 141 -172c0 -119 -86 -195 -202 -195z" />
    <glyph glyph-name="four" unicode="4" horiz-adv-x="520" 
d="M358 0v200h-328v2l330 498h12l-325 -490h311v240h10v-240h112v-10h-112v-200h-10z" />
    <glyph glyph-name="five" unicode="5" horiz-adv-x="521" 
d="M135 388l40 312h286v-10h-278l-37 -288c22 7 54 14 88 14c132 0 222 -83 222 -206c0 -134 -96 -218 -200 -218c-76 0 -153 33 -196 118l9 4c41 -79 119 -112 187 -112c106 0 190 88 190 208c0 111 -86 196 -211 196c-36 0 -72 -8 -100 -18z" />
    <glyph glyph-name="six" unicode="6" horiz-adv-x="544" 
d="M60 248c0 257 175 429 332 460l5 -8c-145 -30 -305 -171 -327 -421c26 77 99 147 207 147c130 0 207 -90 207 -217c0 -120 -93 -217 -196 -217c-156 0 -228 121 -228 256zM70 249c0 -124 69 -247 216 -247c100 0 188 92 188 206s-67 208 -198 208
c-121 0 -191 -94 -206 -167z" />
    <glyph glyph-name="seven" unicode="7" horiz-adv-x="460" 
d="M40 690v10h380v-2l-279 -698h-12l276 690h-365z" />
    <glyph glyph-name="eight" unicode="8" horiz-adv-x="585" 
d="M273 365h39c71 0 156 68 156 165c0 108 -91 168 -177 168s-174 -60 -174 -168c0 -97 85 -165 156 -165zM310 355h-32c-102 0 -188 -77 -188 -174c0 -106 98 -179 202 -179s203 67 203 179c0 109 -86 174 -185 174zM293 -8c-106 0 -213 70 -213 189c0 80 58 159 157 177v3
c-76 18 -130 98 -130 166c0 110 84 181 185 181s186 -71 186 -181c0 -68 -48 -140 -130 -165v-3c93 -9 157 -84 157 -178c0 -119 -106 -189 -212 -189z" />
    <glyph glyph-name="nine" unicode="9" horiz-adv-x="544" 
d="M484 452c0 -257 -141 -431 -332 -460l-5 8c179 30 315 182 327 421c-26 -77 -99 -137 -207 -137c-130 0 -207 99 -207 212c0 120 103 212 206 212c156 0 218 -121 218 -256zM474 451c0 124 -59 247 -206 247c-100 0 -198 -87 -198 -201c0 -103 67 -203 198 -203
c121 0 191 84 206 157z" />
    <glyph glyph-name="colon" unicode=":" horiz-adv-x="325" 
d="M150 446c0 6 6 12 13 12c6 0 12 -6 12 -12c0 -7 -6 -13 -12 -13c-7 0 -13 6 -13 13zM150 13c0 6 6 12 13 12c6 0 12 -6 12 -12c0 -7 -6 -13 -12 -13c-7 0 -13 6 -13 13z" />
    <glyph glyph-name="semicolon" unicode=";" horiz-adv-x="326" 
d="M150 446c0 6 6 12 13 12c6 0 12 -6 12 -12c0 -7 -6 -13 -12 -13c-7 0 -13 6 -13 13zM149 12c0 7 7 13 16 13c18 0 41 -23 41 -68c0 -57 -40 -95 -78 -105l-3 8c31 8 71 43 71 95c0 37 -14 51 -23 56c-1 -7 -6 -11 -12 -11c-7 0 -12 6 -12 12z" />
    <glyph glyph-name="less" unicode="&#x3c;" horiz-adv-x="584" 
d="M464 104l-389 256v4l389 254v-12l-374 -244l374 -246v-12z" />
    <glyph glyph-name="equal" unicode="=" horiz-adv-x="584" 
d="M75 435v10h434v-10h-434zM75 275v10h434v-10h-434z" />
    <glyph glyph-name="greater" unicode="&#x3e;" horiz-adv-x="584" 
d="M509 360l-389 -256v12l374 246l-374 244v12l389 -254v-4z" />
    <glyph glyph-name="question" unicode="?" horiz-adv-x="451" 
d="M401 540c0 91 -73 158 -178 158c-69 0 -133 -35 -175 -93l-8 4c36 58 108 99 185 99c120 0 186 -77 186 -167c0 -186 -216 -168 -216 -322c0 -13 2 -28 5 -44l-9 -3c-4 18 -6 34 -6 48c0 155 216 145 216 320zM178 13c0 6 6 12 13 12c6 0 12 -6 12 -12
c0 -7 -6 -13 -12 -13c-7 0 -13 6 -13 13z" />
    <glyph glyph-name="at" unicode="@" horiz-adv-x="1026" 
d="M689 0v75c-35 -44 -104 -83 -172 -83c-135 0 -225 91 -225 233c0 131 106 233 243 233c62 0 119 -17 164 -46v-402h22c139 0 215 127 215 254c0 225 -178 384 -413 384c-253 0 -433 -190 -433 -423s180 -423 433 -423c38 0 74 4 108 12l5 -9c-36 -8 -74 -13 -113 -13
c-259 0 -443 194 -443 433s184 433 443 433c244 0 423 -164 423 -392c0 -131 -72 -266 -225 -266h-32zM517 2c74 0 147 50 172 87v317c-52 32 -107 42 -155 42c-126 0 -232 -97 -232 -223c0 -137 85 -223 215 -223z" />
    <glyph glyph-name="A" unicode="A" horiz-adv-x="685" 
d="M30 0l311 708h3l311 -708h-11l-122 277h-360l-121 -277h-11zM342 688l-176 -401h352z" />
    <glyph glyph-name="B" unicode="B" horiz-adv-x="617" 
d="M120 0v700c39 0 118 2 172 2c167 0 215 -75 215 -172c0 -102 -78 -158 -160 -167v-2c123 -10 190 -71 190 -172c0 -137 -104 -191 -242 -191c-56 0 -134 2 -175 2zM294 355h-164v-345c36 0 112 -2 162 -2c145 0 235 58 235 182c0 104 -83 165 -233 165zM290 692
c-53 0 -127 -1 -160 -2v-325h172c106 0 195 65 195 166c0 104 -60 161 -207 161z" />
    <glyph glyph-name="C" unicode="C" horiz-adv-x="657" 
d="M611 75l6 -8c-51 -48 -135 -75 -213 -75c-204 0 -344 140 -344 358c0 201 135 358 333 358c86 0 154 -18 211 -63l-7 -7c-54 44 -122 60 -203 60c-196 0 -324 -154 -324 -348c0 -210 137 -348 334 -348c85 0 157 30 207 73z" />
    <glyph glyph-name="D" unicode="D" horiz-adv-x="734" 
d="M120 0v700h10c56 0 83 3 151 3c280 0 393 -161 393 -341c0 -202 -134 -364 -401 -364c-57 0 -96 2 -148 2h-5zM279 693c-67 0 -98 -3 -149 -3v-680c72 0 144 -2 144 -2c262 0 390 161 390 354c0 176 -108 331 -385 331z" />
    <glyph glyph-name="E" unicode="E" horiz-adv-x="575" 
d="M120 0v700h375v-10h-365v-328h335v-10h-335v-342h375v-10h-385z" />
    <glyph glyph-name="F" unicode="F" horiz-adv-x="545" 
d="M120 0v700h385v-10h-375v-348h345v-10h-345v-332h-10z" />
    <glyph glyph-name="G" unicode="G" horiz-adv-x="727" 
d="M418 303v10h239v-226c-62 -62 -175 -95 -262 -95c-195 0 -335 140 -335 358c0 201 135 358 333 358c86 0 154 -18 211 -63l-7 -7c-54 44 -122 60 -203 60c-196 0 -324 -154 -324 -348c0 -210 134 -348 327 -348c90 0 193 33 250 89v212h-229z" />
    <glyph glyph-name="H" unicode="H" horiz-adv-x="775" 
d="M645 0v352h-515v-352h-10v700h10v-338h515v338h10v-700h-10z" />
    <glyph glyph-name="I" unicode="I" horiz-adv-x="310" 
d="M150 0v700h10v-700h-10z" />
    <glyph glyph-name="J" unicode="J" horiz-adv-x="341" 
d="M221 700v-553c0 -91 -23 -155 -121 -155c-33 0 -62 12 -80 25l6 9c16 -12 45 -24 74 -24c95 0 111 66 111 144v554h10z" />
    <glyph glyph-name="K" unicode="K" horiz-adv-x="614" 
d="M563 700l-361 -335l372 -365h-15l-372 365l362 335h14zM120 0v700h10v-700h-10z" />
    <glyph glyph-name="L" unicode="L" horiz-adv-x="555" 
d="M120 0v700h10v-690h405v-10h-415z" />
    <glyph glyph-name="M" unicode="M" horiz-adv-x="872" 
d="M120 0v700h11l310 -422l300 422h11v-700h-10v686l-300 -423h-3l-309 420v-683h-10z" />
    <glyph glyph-name="N" unicode="N" horiz-adv-x="800" 
d="M680 0h-8l-542 680v-680h-10v700h8l542 -682v682h10v-700z" />
    <glyph glyph-name="O" unicode="O" horiz-adv-x="804" 
d="M60 350c0 203 149 358 342 358s342 -155 342 -358s-149 -358 -342 -358s-342 155 -342 358zM70 350c0 -198 144 -348 332 -348s332 150 332 348s-144 348 -332 348s-332 -150 -332 -348z" />
    <glyph glyph-name="P" unicode="P" horiz-adv-x="567" 
d="M130 0h-10v700c39 0 118 2 152 2c187 0 235 -105 235 -202c0 -102 -65 -205 -245 -205c-40 0 -86 2 -132 5v-300zM273 692c-36 0 -110 -1 -143 -2v-380c46 -3 85 -5 131 -5c164 0 236 88 236 196c0 104 -60 191 -224 191z" />
    <glyph glyph-name="Q" unicode="Q" horiz-adv-x="804" 
d="M60 350c0 203 149 358 342 358s342 -155 342 -358c0 -115 -48 -214 -124 -279l60 -71h-15l-53 64c-58 -45 -130 -72 -210 -72c-193 0 -342 155 -342 358zM70 350c0 -198 144 -348 332 -348c78 0 148 25 204 70l-62 76l7 7l63 -76c74 63 120 159 120 271
c0 198 -144 348 -332 348s-332 -150 -332 -348z" />
    <glyph glyph-name="R" unicode="R" horiz-adv-x="613" 
d="M130 0h-10v700c39 0 118 2 138 2c191 0 239 -95 239 -192c0 -88 -69 -172 -186 -193l262 -317h-14l-260 315h-169v-315zM257 692c-20 0 -94 -1 -127 -2v-365h148c101 0 209 78 209 186c0 104 -60 181 -230 181z" />
    <glyph glyph-name="S" unicode="S" horiz-adv-x="541" 
d="M471 167c0 237 -392 140 -392 377c0 94 70 164 196 164c73 0 144 -27 181 -69l-7 -7c-43 45 -108 66 -177 66c-112 0 -183 -62 -183 -153c0 -231 392 -129 392 -378c0 -108 -96 -175 -216 -175c-77 0 -169 38 -205 96l8 7c42 -58 126 -93 195 -93c105 0 208 55 208 165z
" />
    <glyph glyph-name="T" unicode="T" horiz-adv-x="590" 
d="M10 690v10h570v-10h-280v-690h-10v690h-280z" />
    <glyph glyph-name="U" unicode="U" horiz-adv-x="751" 
d="M641 700v-405c0 -214 -119 -301 -256 -301c-155 0 -275 103 -275 308v398h10v-399c0 -196 116 -297 265 -297c134 0 246 87 246 294v402h10z" />
    <glyph glyph-name="V" unicode="V" horiz-adv-x="656" 
d="M636 700l-303 -708h-3l-310 708h11l301 -690l293 690h11z" />
    <glyph glyph-name="W" unicode="W" horiz-adv-x="940" 
d="M920 700l-207 -700h-3l-238 676l-232 -676h-3l-217 700h11l208 -671l231 671h4l237 -672l198 672h11z" />
    <glyph glyph-name="X" unicode="X" horiz-adv-x="654" 
d="M605 700l-271 -344l280 -356h-13l-274 348l-274 -348h-13l281 356l-270 344h13l263 -335l265 335h13z" />
    <glyph glyph-name="Y" unicode="Y" horiz-adv-x="554" 
d="M534 700l-253 -385v-315h-10v315l-251 385h13l243 -375l245 375h13z" />
    <glyph glyph-name="Z" unicode="Z" horiz-adv-x="620" 
d="M60 690v10h510v-2l-512 -688h522v-10h-540v2l511 688h-491z" />
    <glyph glyph-name="bracketleft" unicode="[" horiz-adv-x="260" 
d="M60 -200v850h200v-10h-190v-830h190v-10h-200z" />
    <glyph glyph-name="backslash" unicode="\" horiz-adv-x="289" 
d="M-21 708l340 -912l-10 -4l-339 913z" />
    <glyph glyph-name="bracketright" unicode="]" horiz-adv-x="260" 
d="M200 650v-850h-200v10h190v830h-190v10h200z" />
    <glyph glyph-name="asciicircum" unicode="^" horiz-adv-x="462" 
d="M60 450l170 258h4l168 -258h-12l-158 243l-160 -243h-12z" />
    <glyph glyph-name="underscore" unicode="_" horiz-adv-x="250" 
d="M0 -200v10h250v-10h-250z" />
    <glyph glyph-name="grave" unicode="`" horiz-adv-x="237" 
d="M169 559l-109 141l7 6l110 -142z" />
    <glyph glyph-name="a" unicode="a" horiz-adv-x="456" 
d="M89 409l-5 8c45 28 85 41 134 41c119 0 158 -65 158 -176v-282h-10v85c-31 -43 -82 -89 -176 -89c-85 0 -140 50 -140 125c0 89 74 135 171 135c38 0 99 -7 145 -40c0 140 -3 232 -150 232c-50 0 -82 -12 -127 -39zM189 6c100 0 147 53 177 95v102c-41 29 -91 43 -147 43
c-77 0 -159 -37 -159 -124c0 -74 57 -116 129 -116z" />
    <glyph glyph-name="b" unicode="b" horiz-adv-x="551" 
d="M90 48v652h10v-324c38 46 113 82 181 82c135 0 215 -93 215 -226c0 -148 -100 -240 -237 -240c-68 0 -124 17 -169 56zM281 448c-78 0 -153 -47 -181 -86v-310c56 -40 106 -50 160 -50c127 0 226 87 226 227c0 131 -75 219 -205 219z" />
    <glyph glyph-name="c" unicode="c" horiz-adv-x="492" 
d="M446 69l6 -6c-38 -47 -103 -71 -163 -71c-135 0 -234 91 -234 233c0 131 96 233 218 233c66 0 126 -13 170 -53l-6 -9c-43 38 -101 52 -162 52c-115 0 -210 -97 -210 -223c0 -137 94 -223 224 -223c64 0 123 28 157 67z" />
    <glyph glyph-name="d" unicode="d" horiz-adv-x="552" 
d="M452 0v76c-35 -44 -103 -84 -172 -84c-135 0 -225 91 -225 233c0 137 106 233 243 233c59 0 109 -14 154 -48v290h10v-700h-10zM280 2c74 0 147 52 172 89v307c-58 41 -107 50 -155 50c-131 0 -232 -92 -232 -223c0 -137 85 -223 215 -223z" />
    <glyph glyph-name="e" unicode="e" horiz-adv-x="529" 
d="M446 69l6 -6c-38 -47 -103 -71 -163 -71c-135 0 -234 91 -234 233c0 131 72 233 220 233c116 0 199 -79 199 -200c0 -8 -1 -15 -1 -23h-408c0 -143 87 -233 224 -233c64 0 123 28 157 67zM271 448c-128 0 -199 -87 -206 -203h399c2 125 -76 203 -193 203z" />
    <glyph glyph-name="f" unicode="f" horiz-adv-x="341" 
d="M110 0v523c0 125 51 185 151 185c54 0 88 -18 110 -35l-6 -9c-26 19 -55 34 -104 34c-94 0 -141 -55 -141 -184v-64h205v-10h-205v-440h-10z" />
    <glyph glyph-name="g" unicode="g" horiz-adv-x="484" 
d="M20 -71c0 70 54 115 141 131c-12 12 -18 30 -18 49c0 20 8 38 20 51c-58 24 -94 77 -94 142c0 90 69 156 169 156c45 0 84 -14 113 -37l123 37v-10l-115 -34c30 -28 48 -67 48 -112c0 -90 -69 -156 -169 -156c-24 0 -46 3 -66 10c-13 -12 -19 -28 -19 -47
c0 -18 7 -35 21 -47c20 3 42 5 65 5c131 0 219 -48 219 -138c0 -89 -88 -137 -219 -137s-219 47 -219 137zM30 -71c0 -81 87 -127 209 -127s209 45 209 127c0 81 -87 128 -209 128s-209 -47 -209 -128zM79 302c0 -84 66 -146 159 -146s159 62 159 146c0 83 -66 146 -159 146
s-159 -62 -159 -146z" />
    <glyph glyph-name="h" unicode="h" horiz-adv-x="554" 
d="M90 0v700h10v-324c38 46 115 82 183 82c130 0 191 -65 191 -206v-252h-10v249c0 135 -57 199 -181 199c-78 0 -155 -47 -183 -86v-362h-10z" />
    <glyph glyph-name="i" unicode="i" horiz-adv-x="250" 
d="M120 0v450h10v-450h-10zM113 633c0 6 6 12 13 12c6 0 12 -6 12 -12c0 -7 -6 -13 -12 -13c-7 0 -13 6 -13 13z" />
    <glyph glyph-name="j" unicode="j" horiz-adv-x="251" 
d="M131 450v-483c0 -110 -41 -175 -141 -175c-33 0 -62 12 -80 25l6 9c16 -12 45 -24 74 -24c94 0 131 59 131 164v484h10zM112 633c0 6 6 12 13 12c6 0 12 -6 12 -12c0 -7 -6 -13 -12 -13c-7 0 -13 6 -13 13z" />
    <glyph glyph-name="k" unicode="k" horiz-adv-x="445" 
d="M399 450l-237 -215l255 -235h-17l-253 235l236 215h16zM90 0v700h10v-700h-10z" />
    <glyph glyph-name="l" unicode="l" horiz-adv-x="271" 
d="M90 111v589h10v-574c0 -80 20 -119 81 -119c29 0 58 12 74 24l6 -9c-18 -13 -47 -25 -80 -25c-66 0 -91 38 -91 114z" />
    <glyph glyph-name="m" unicode="m" horiz-adv-x="808" 
d="M728 296v-296h-10v293c0 109 -50 155 -139 155c-77 0 -135 -39 -168 -91c2 -8 3 -20 3 -30v-327h-10v325c0 72 -50 123 -139 123c-76 0 -137 -45 -165 -86v-362h-10v450h10v-72c34 47 101 80 165 80c71 0 126 -32 143 -90c33 55 106 90 171 90c87 0 149 -39 149 -162z
" />
    <glyph glyph-name="n" unicode="n" horiz-adv-x="554" 
d="M90 0v450h10v-74c38 46 115 82 183 82c130 0 191 -65 191 -206v-252h-10v249c0 135 -57 199 -181 199c-78 0 -155 -47 -183 -86v-362h-10z" />
    <glyph glyph-name="o" unicode="o" horiz-adv-x="570" 
d="M55 225c0 135 96 233 230 233s230 -98 230 -233s-96 -233 -230 -233s-230 98 -230 233zM65 225c0 -130 91 -223 220 -223s220 93 220 223s-91 223 -220 223s-220 -93 -220 -223z" />
    <glyph glyph-name="p" unicode="p" horiz-adv-x="551" 
d="M90 -200v650h10v-71c38 46 113 79 181 79c135 0 215 -93 215 -226c0 -137 -90 -240 -227 -240c-64 0 -125 16 -169 50v-242h-10zM281 448c-78 0 -153 -44 -181 -83v-310c56 -41 116 -53 170 -53c127 0 216 93 216 227c0 131 -75 219 -205 219z" />
    <glyph glyph-name="q" unicode="q" horiz-adv-x="552" 
d="M452 -200v272c-35 -43 -104 -80 -172 -80c-135 0 -225 91 -225 233c0 131 106 233 243 233c62 0 119 -17 164 -46v-612h-10zM280 2c74 0 147 47 172 84v320c-52 32 -107 42 -155 42c-126 0 -232 -97 -232 -223c0 -137 85 -223 215 -223z" />
    <glyph glyph-name="r" unicode="r" horiz-adv-x="313" 
d="M90 0v450h10v-70c26 42 71 78 133 78c37 0 55 -6 70 -17l-3 -10c-22 13 -34 17 -67 17c-71 0 -108 -47 -133 -86v-362h-10z" />
    <glyph glyph-name="s" unicode="s" horiz-adv-x="401" 
d="M331 111c0 147 -258 75 -258 240c0 61 49 107 131 107c47 0 96 -18 120 -45l-7 -8c-28 29 -70 43 -115 43c-73 0 -119 -45 -119 -96c0 -156 258 -84 258 -240c0 -81 -66 -120 -144 -120c-50 0 -116 26 -137 58l9 6c24 -33 82 -54 127 -54c68 0 135 35 135 109z" />
    <glyph glyph-name="t" unicode="t" horiz-adv-x="341" 
d="M80 171v404h10v-125h205v-10h-205v-260c0 -115 37 -174 131 -174c29 0 58 12 74 24l6 -9c-18 -13 -47 -25 -80 -25c-100 0 -141 60 -141 175z" />
    <glyph glyph-name="u" unicode="u" horiz-adv-x="550" 
d="M460 450v-450h-10v83c-39 -47 -116 -91 -189 -91c-124 0 -181 65 -181 206v252h10v-249c0 -135 53 -199 173 -199c82 0 159 55 187 95v353h10z" />
    <glyph glyph-name="v" unicode="v" horiz-adv-x="466" 
d="M446 450l-209 -458h-3l-214 458h11l160 -344l45 -96l45 100l154 340h11z" />
    <glyph glyph-name="w" unicode="w" horiz-adv-x="676" 
d="M656 450l-149 -458h-3l-143 378l-22 59l-23 -63l-139 -374h-3l-154 458h11l122 -362l23 -69l26 69l135 362h4l137 -360l27 -72l25 77l115 355h11z" />
    <glyph glyph-name="x" unicode="x" horiz-adv-x="477" 
d="M427 450l-182 -219l192 -231h-13l-186 223l-185 -223h-13l192 231l-182 219h13l175 -211l176 211h13z" />
    <glyph glyph-name="y" unicode="y" horiz-adv-x="466" 
d="M446 450l-185 -450c-66 -161 -108 -200 -166 -200c-20 0 -41 5 -64 15l4 9c21 -9 40 -15 58 -15c56 0 98 46 148 167l10 24l-231 450h11l187 -366l38 -74l31 76l148 364h11z" />
    <glyph glyph-name="z" unicode="z" horiz-adv-x="475" 
d="M65 440v10h360v-2l-357 -438h352v-10h-370v2l356 438h-341z" />
    <glyph glyph-name="braceleft" unicode="{" horiz-adv-x="280" 
d="M110 -86v208c0 79 -50 99 -90 98v10c36 0 90 21 90 110v193c0 71 24 117 99 117h51v-10h-51c-64 0 -89 -35 -89 -107v-193c0 -65 -30 -108 -75 -114c42 -5 75 -37 75 -114v-198c0 -73 35 -104 95 -104h45v-10h-46c-69 0 -104 36 -104 114z" />
    <glyph glyph-name="bar" unicode="|" horiz-adv-x="310" 
d="M150 0v700h10v-700h-10z" />
    <glyph glyph-name="braceright" unicode="}" horiz-adv-x="280" 
d="M170 122v-208c0 -78 -35 -114 -104 -114h-46v10h45c60 0 95 31 95 104v198c0 77 33 109 75 114c-45 6 -75 49 -75 114v193c0 72 -25 107 -89 107h-51v10h51c75 0 99 -46 99 -117v-193c0 -89 54 -110 90 -110v-10c-40 1 -90 -19 -90 -98z" />
    <glyph glyph-name="asciitilde" unicode="~" horiz-adv-x="584" 
d="M76 345l-8 7c42 39 80 53 115 53c82 0 151 -76 229 -76c31 0 62 13 97 46l7 -7c-38 -36 -72 -49 -105 -49c-80 0 -151 76 -230 76c-33 0 -68 -14 -105 -50z" />
    <glyph glyph-name="uni00A0" unicode="&#xa0;" horiz-adv-x="250" 
 />
    <glyph glyph-name="exclamdown" unicode="&#xa1;" horiz-adv-x="310" 
d="M161 298v-540h-10v540h10zM169 445c0 -6 -6 -12 -13 -12c-6 0 -12 6 -12 12c0 7 6 13 12 13c7 0 13 -6 13 -13z" />
    <glyph glyph-name="cent" unicode="&#xa2;" horiz-adv-x="584" 
d="M486 69l6 -6c-38 -47 -103 -71 -163 -71h-3v-112h-10v112c-129 6 -221 95 -221 233c0 131 96 233 218 233h3v111h10v-111c61 -2 116 -16 157 -53l-6 -9c-43 38 -101 52 -162 52c-115 0 -210 -97 -210 -223c0 -137 94 -223 224 -223c64 0 123 28 157 67z" />
    <glyph glyph-name="sterling" unicode="&#xa3;" horiz-adv-x="584" 
d="M89 295v10h76c-20 63 -56 104 -56 209c0 94 70 194 196 194c73 0 144 -27 181 -69l-7 -7c-43 45 -108 66 -177 66c-112 0 -183 -92 -183 -183c0 -103 37 -144 57 -210h187v-10h-184c5 -21 9 -45 9 -74c0 -84 -21 -132 -51 -170c16 5 32 7 48 7c79 0 152 -52 227 -52
c37 0 74 13 113 50l7 -7c-42 -40 -83 -53 -122 -53c-77 0 -151 52 -228 52c-39 0 -79 -15 -121 -55l-8 7c24 22 46 37 68 46c35 39 57 95 57 176c0 29 -4 52 -10 73h-79z" />
    <glyph glyph-name="currency" unicode="&#xa4;" horiz-adv-x="584" 
d="M73 350c0 58 20 113 57 155l-99 100l7 7l99 -99c38 39 91 64 156 64c64 0 117 -25 155 -64l107 106l7 -7l-106 -107c36 -42 57 -97 57 -155s-21 -114 -57 -155l101 -102l-7 -7l-101 101c-38 -39 -91 -64 -156 -64s-118 24 -156 63l-108 -107l-7 7l108 109
c-37 41 -57 97 -57 155zM83 350c0 -114 79 -217 210 -217s210 103 210 217s-79 217 -210 217s-210 -103 -210 -217z" />
    <glyph glyph-name="yen" unicode="&#xa5;" horiz-adv-x="584" 
d="M74 314v10h206l-245 376h13l243 -375l245 375h13l-247 -376h206v-10h-212v-150h212v-10h-212v-154h-10v154h-212v10h212v150h-212z" />
    <glyph glyph-name="brokenbar" unicode="&#xa6;" horiz-adv-x="310" 
d="M160 440h-10v260h10v-260zM150 260h10v-260h-10v260z" />
    <glyph glyph-name="section" unicode="&#xa7;" horiz-adv-x="524" 
d="M80 249c0 98 71 170 164 178c-54 20 -114 64 -114 136c0 81 59 137 141 137c75 0 104 -35 120 -55l-7 -8c-19 21 -44 53 -115 53c-73 0 -129 -55 -129 -126c0 -80 82 -123 138 -137c94 -7 166 -80 166 -178c0 -97 -71 -169 -164 -178c53 -20 112 -64 112 -134
c0 -81 -59 -137 -141 -137c-75 0 -104 35 -120 55l7 8c19 -21 44 -53 115 -53c73 0 129 55 129 126c0 77 -78 120 -133 135c-96 6 -169 79 -169 178zM90 249c0 -100 85 -168 172 -168c90 0 172 68 172 168c0 101 -83 169 -172 169s-172 -68 -172 -169z" />
    <glyph glyph-name="dieresis" unicode="&#xa8;" horiz-adv-x="359" 
d="M60 631c0 6 6 12 13 12c6 0 12 -6 12 -12c0 -7 -6 -13 -12 -13c-7 0 -13 6 -13 13zM274 631c0 6 6 12 13 12c6 0 12 -6 12 -12c0 -7 -6 -13 -12 -13c-7 0 -13 6 -13 13z" />
    <glyph glyph-name="copyright" unicode="&#xa9;" horiz-adv-x="1018" 
d="M80 221c0 237 182 429 429 429s429 -192 429 -429s-182 -429 -429 -429s-429 192 -429 429zM90 221c0 -231 178 -419 419 -419s419 188 419 419s-178 419 -419 419s-419 -188 -419 -419zM675 69l6 -6c-38 -47 -103 -71 -163 -71c-135 0 -234 91 -234 233
c0 131 96 233 218 233c66 0 126 -13 170 -53l-6 -9c-43 38 -101 52 -162 52c-115 0 -210 -97 -210 -223c0 -137 94 -223 224 -223c64 0 123 28 157 67z" />
    <glyph glyph-name="ordfeminine" unicode="&#xaa;" horiz-adv-x="385" 
d="M100 615l-8 6c25 23 65 37 97 37c78 0 116 -42 116 -114v-184h-10v57c-21 -29 -57 -59 -124 -59c-68 0 -111 42 -111 91c0 58 48 93 121 93c47 0 84 -9 114 -30v30c0 69 -38 106 -107 106c-33 0 -56 -10 -88 -33zM170 367c65 0 105 34 125 61v73c-27 18 -78 31 -115 31
c-55 0 -110 -28 -110 -83c0 -48 48 -82 100 -82z" />
    <glyph glyph-name="guillemotleft" unicode="&#xab;" horiz-adv-x="469" 
d="M381 48l-171 200v4l172 198l7 -6l-168 -194l166 -194zM231 48l-171 200v4l172 198l7 -6l-168 -194l166 -194z" />
    <glyph glyph-name="logicalnot" unicode="&#xac;" horiz-adv-x="584" 
d="M75 355v10h434v-141h-10v131h-424z" />
    <glyph glyph-name="uni00AD" unicode="&#xad;" horiz-adv-x="414" 
d="M100 265v10h214v-10h-214z" />
    <glyph glyph-name="registered" unicode="&#xae;" horiz-adv-x="528" 
d="M60 496c0 113 91 204 204 204s204 -91 204 -204s-91 -204 -204 -204s-204 91 -204 204zM70 496c0 -107 87 -194 194 -194s194 87 194 194s-87 194 -194 194s-194 -87 -194 -194zM201 360h-10v280h61c76 0 95 -38 95 -76c0 -35 -27 -69 -74 -78l105 -126h-15l-104 126h-58
v-126zM252 630h-51v-134h59c34 0 77 25 77 68c0 41 -30 66 -85 66z" />
    <glyph glyph-name="macron" unicode="&#xaf;" horiz-adv-x="354" 
d="M60 640v10h234v-10h-234z" />
    <glyph glyph-name="degree" unicode="&#xb0;" horiz-adv-x="380" 
d="M60 570c0 72 58 130 130 130s130 -58 130 -130s-58 -130 -130 -130s-130 58 -130 130zM70 570c0 -66 54 -120 120 -120s120 54 120 120s-54 120 -120 120s-120 -54 -120 -120z" />
    <glyph glyph-name="plusminus" unicode="&#xb1;" horiz-adv-x="584" 
d="M75 425v10h211v211h10v-211h213v-10h-213v-163h-10v163h-211zM75 185v10h434v-10h-434z" />
    <glyph glyph-name="twosuperior" unicode="&#xb2;" horiz-adv-x="323" 
d="M45 350v9c63 49 212 148 212 248c0 45 -30 87 -95 87c-41 0 -93 -20 -101 -72l-10 2c8 54 64 80 109 80c76 0 107 -48 107 -100c0 -105 -167 -216 -206 -244h227v-10h-243z" />
    <glyph glyph-name="threesuperior" unicode="&#xb3;" horiz-adv-x="329" 
d="M157 346c-47 0 -95 16 -117 62l8 5c21 -43 69 -57 111 -57c67 0 110 38 110 88c0 47 -45 80 -98 80h-40v10h35c43 0 87 36 87 83c0 51 -40 77 -96 77c-55 0 -85 -24 -98 -54l-8 5c14 37 55 59 106 59c67 0 106 -32 106 -87c0 -35 -24 -72 -68 -86v-1c53 -6 84 -46 84 -86
c0 -60 -52 -98 -122 -98z" />
    <glyph glyph-name="acute" unicode="&#xb4;" horiz-adv-x="237" 
d="M177 700l-109 -141l-8 5l110 142z" />
    <glyph glyph-name="mu" unicode="&#xb5;" horiz-adv-x="550" 
d="M460 450v-450h-10v83c-39 -47 -116 -91 -189 -91c-95 0 -150 37 -171 118v-310h-10v650h10v-249c0 -135 53 -199 173 -199c82 0 159 55 187 95v353h10z" />
    <glyph glyph-name="mu" unicode="&#x3bc;" horiz-adv-x="550" 
d="M460 450v-450h-10v83c-39 -47 -116 -91 -189 -91c-95 0 -150 37 -171 118v-310h-10v650h10v-249c0 -135 53 -199 173 -199c82 0 159 55 187 95v353h10z" />
    <glyph glyph-name="paragraph" unicode="&#xb6;" horiz-adv-x="401" 
d="M60 481c0 136 72 219 199 219h102v-10h-94v-743c0 -91 -23 -155 -121 -155c-33 0 -62 12 -80 25l6 9c16 -12 45 -24 74 -24c95 0 111 66 111 144v317c-114 1 -197 81 -197 218z" />
    <glyph glyph-name="periodcentered" unicode="&#xb7;" horiz-adv-x="250" 
d="M112 293c0 6 6 12 13 12c6 0 12 -6 12 -12c0 -7 -6 -13 -12 -13c-7 0 -13 6 -13 13z" />
    <glyph glyph-name="cedilla" unicode="&#xb8;" horiz-adv-x="298" 
d="M60 -180l4 9c27 -13 53 -19 74 -19c52 0 90 23 90 60c0 36 -24 60 -90 60h-6v70h10v-60c69 -1 96 -29 96 -70s-39 -70 -100 -70c-27 0 -51 7 -78 20z" />
    <glyph glyph-name="onesuperior" unicode="&#xb9;" horiz-adv-x="220" 
d="M35 643l89 61h6v-354h-10v338l-79 -53z" />
    <glyph glyph-name="ordmasculine" unicode="&#xba;" horiz-adv-x="430" 
d="M60 506c0 88 68 152 155 152s155 -64 155 -152s-68 -152 -155 -152s-155 64 -155 152zM70 506c0 -85 72 -142 145 -142c76 0 145 57 145 142s-70 142 -145 142s-145 -57 -145 -142z" />
    <glyph glyph-name="guillemotright" unicode="&#xbb;" horiz-adv-x="469" 
d="M409 248l-171 -200l-6 8l166 194l-168 194l7 6l172 -198v-4zM259 248l-171 -200l-6 8l166 194l-168 194l7 6l172 -198v-4z" />
    <glyph glyph-name="onequarter" unicode="&#xbc;" horiz-adv-x="633" 
d="M55 643l89 61h6v-354h-10v338l-79 -53zM60 -1l531 709l8 -5l-531 -711zM537 0v98h-197v5l196 247h11l-192 -242h182v117h10v-117h66v-10h-66v-98h-10z" />
    <glyph glyph-name="onehalf" unicode="&#xbd;" horiz-adv-x="648" 
d="M55 643l89 61h6v-354h-10v338l-79 -53zM20 -1l531 709l8 -5l-531 -711zM365 0v9c63 49 212 148 212 248c0 45 -30 87 -95 87c-41 0 -93 -20 -101 -72l-10 2c8 54 64 80 109 80c76 0 107 -48 107 -100c0 -105 -167 -216 -206 -244h227v-10h-243z" />
    <glyph glyph-name="threequarters" unicode="&#xbe;" horiz-adv-x="663" 
d="M100 -1l531 709l8 -5l-531 -711zM567 0v98h-197v5l196 247h11l-192 -242h182v117h10v-117h66v-10h-66v-98h-10zM157 346c-47 0 -95 16 -117 62l8 5c21 -43 69 -57 111 -57c67 0 110 38 110 88c0 47 -45 80 -98 80h-40v10h35c43 0 87 36 87 83c0 51 -40 77 -96 77
c-55 0 -85 -24 -98 -54l-8 5c14 37 55 59 106 59c67 0 106 -32 106 -87c0 -35 -24 -72 -68 -86v-1c53 -6 84 -46 84 -86c0 -60 -52 -98 -122 -98z" />
    <glyph glyph-name="questiondown" unicode="&#xbf;" horiz-adv-x="451" 
d="M50 -82c0 -91 73 -158 178 -158c69 0 133 35 175 93l8 -4c-36 -58 -108 -99 -185 -99c-120 0 -186 77 -186 167c0 186 216 168 216 322c0 13 -2 28 -5 44l9 3c4 -18 6 -34 6 -48c0 -155 -216 -145 -216 -320zM273 445c0 -6 -6 -12 -13 -12c-6 0 -12 6 -12 12
c0 7 6 13 12 13c7 0 13 -6 13 -13z" />
    <glyph glyph-name="Agrave" unicode="&#xc0;" horiz-adv-x="685" 
d="M30 0l311 708h3l311 -708h-11l-122 277h-360l-121 -277h-11zM342 688l-176 -401h352zM364 742l-154 90l4 8l155 -91z" />
    <glyph glyph-name="Aacute" unicode="&#xc1;" horiz-adv-x="685" 
d="M30 0l311 708h3l311 -708h-11l-122 277h-360l-121 -277h-11zM342 688l-176 -401h352zM479 832l-154 -90l-5 7l155 91z" />
    <glyph glyph-name="Acircumflex" unicode="&#xc2;" horiz-adv-x="685" 
d="M30 0l311 708h3l311 -708h-11l-122 277h-360l-121 -277h-11zM342 688l-176 -401h352zM176 750l165 90h4l164 -90l-8 -7l-158 87l-160 -87z" />
    <glyph glyph-name="Atilde" unicode="&#xc3;" horiz-adv-x="685" 
d="M30 0l311 708h3l311 -708h-11l-122 277h-360l-121 -277h-11zM342 688l-176 -401h352zM189 776l-6 7c27 22 52 30 75 30c60 0 111 -50 165 -50c23 0 47 8 72 35l7 -7c-28 -28 -54 -38 -79 -38c-57 0 -111 50 -168 50c-21 0 -43 -8 -66 -27z" />
    <glyph glyph-name="Adieresis" unicode="&#xc4;" horiz-adv-x="685" 
d="M30 0l311 708h3l311 -708h-11l-122 277h-360l-121 -277h-11zM342 688l-176 -401h352zM213 790c0 7 6 12 13 12c6 0 12 -5 12 -12c0 -8 -6 -13 -12 -13c-7 0 -13 5 -13 13zM447 790c0 7 6 12 13 12c6 0 12 -4 12 -12s-6 -13 -12 -13c-7 0 -13 5 -13 13z" />
    <glyph glyph-name="Aring" unicode="&#xc5;" horiz-adv-x="685" 
d="M250 775c0 51 41 75 92 75s93 -24 93 -75c0 -49 -38 -76 -86 -78l306 -697h-11l-122 277h-360l-121 -277h-11l306 697c-48 2 -86 29 -86 78zM342 688l-176 -401h352zM260 775c0 -46 35 -68 80 -68h4c45 1 81 23 81 68c0 46 -37 65 -83 65s-82 -19 -82 -65z" />
    <glyph glyph-name="AE" unicode="&#xc6;" horiz-adv-x="966" 
d="M896 0h-385v285h-286l-202 -285h-13l501 700h375v-10h-365v-328h335v-10h-335v-342h375v-10zM511 686l-279 -391h279v391z" />
    <glyph glyph-name="Ccedilla" unicode="&#xc7;" horiz-adv-x="657" 
d="M319 -180l4 9c27 -13 53 -19 74 -19c52 0 90 23 90 60c0 36 -24 60 -90 60h-6v63c-197 6 -331 143 -331 357c0 201 135 358 333 358c86 0 154 -18 211 -63l-7 -7c-54 44 -122 60 -203 60c-196 0 -324 -154 -324 -348c0 -210 137 -348 334 -348c85 0 157 30 207 73l6 -8
c-51 -48 -135 -75 -213 -75h-3v-52c69 -1 96 -29 96 -70s-39 -70 -100 -70c-27 0 -51 7 -78 20z" />
    <glyph glyph-name="Egrave" unicode="&#xc8;" horiz-adv-x="575" 
d="M120 0v700h375v-10h-365v-328h335v-10h-335v-342h375v-10h-385zM354 742l-154 90l4 8l155 -91z" />
    <glyph glyph-name="Eacute" unicode="&#xc9;" horiz-adv-x="575" 
d="M120 0v700h375v-10h-365v-328h335v-10h-335v-342h375v-10h-385zM409 832l-154 -90l-5 7l155 91z" />
    <glyph glyph-name="Ecircumflex" unicode="&#xca;" horiz-adv-x="575" 
d="M120 0v700h375v-10h-365v-328h335v-10h-335v-342h375v-10h-385zM143 750l165 90h4l164 -90l-8 -7l-158 87l-160 -87z" />
    <glyph glyph-name="Edieresis" unicode="&#xcb;" horiz-adv-x="575" 
d="M120 0v700h375v-10h-365v-328h335v-10h-335v-342h375v-10h-385zM180 790c0 7 6 12 13 12c6 0 12 -5 12 -12c0 -8 -6 -13 -12 -13c-7 0 -13 5 -13 13zM414 790c0 7 6 12 13 12c6 0 12 -4 12 -12s-6 -13 -12 -13c-7 0 -13 5 -13 13z" />
    <glyph glyph-name="Igrave" unicode="&#xcc;" horiz-adv-x="310" 
d="M150 0v700h10v-700h-10zM164 742l-154 90l4 8l155 -91z" />
    <glyph glyph-name="Iacute" unicode="&#xcd;" horiz-adv-x="310" 
d="M150 0v700h10v-700h-10zM299 832l-154 -90l-5 7l155 91z" />
    <glyph glyph-name="Icircumflex" unicode="&#xce;" horiz-adv-x="310" 
d="M150 0v700h10v-700h-10zM-11 750l165 90h4l164 -90l-8 -7l-158 87l-160 -87z" />
    <glyph glyph-name="Idieresis" unicode="&#xcf;" horiz-adv-x="310" 
d="M150 0v700h10v-700h-10zM26 790c0 7 6 12 13 12c6 0 12 -5 12 -12c0 -8 -6 -13 -12 -13c-7 0 -13 5 -13 13zM260 790c0 7 6 12 13 12c6 0 12 -4 12 -12s-6 -13 -12 -13c-7 0 -13 5 -13 13z" />
    <glyph glyph-name="Eth" unicode="&#xd0;" horiz-adv-x="764" 
d="M10 355v10h140v335h10c56 0 83 3 151 3c280 0 393 -161 393 -341c0 -202 -134 -364 -401 -364c-57 0 -96 2 -148 2h-5v355h-140zM309 693c-67 0 -98 -3 -149 -3v-325h213v-10h-213v-345c72 0 144 -2 144 -2c262 0 390 161 390 354c0 176 -108 331 -385 331z" />
    <glyph glyph-name="Ntilde" unicode="&#xd1;" horiz-adv-x="800" 
d="M680 0h-8l-542 680v-680h-10v700h8l542 -682v682h10v-700zM251 776l-6 7c27 22 52 30 75 30c60 0 111 -50 165 -50c23 0 47 8 72 35l7 -7c-28 -28 -54 -38 -79 -38c-57 0 -111 50 -168 50c-21 0 -43 -8 -66 -27z" />
    <glyph glyph-name="Ograve" unicode="&#xd2;" horiz-adv-x="804" 
d="M60 350c0 203 149 358 342 358s342 -155 342 -358s-149 -358 -342 -358s-342 155 -342 358zM70 350c0 -198 144 -348 332 -348s332 150 332 348s-144 348 -332 348s-332 -150 -332 -348zM474 742l-154 90l4 8l155 -91z" />
    <glyph glyph-name="Oacute" unicode="&#xd3;" horiz-adv-x="804" 
d="M60 350c0 203 149 358 342 358s342 -155 342 -358s-149 -358 -342 -358s-342 155 -342 358zM70 350c0 -198 144 -348 332 -348s332 150 332 348s-144 348 -332 348s-332 -150 -332 -348zM509 832l-154 -90l-5 7l155 91z" />
    <glyph glyph-name="Ocircumflex" unicode="&#xd4;" horiz-adv-x="804" 
d="M60 350c0 203 149 358 342 358s342 -155 342 -358s-149 -358 -342 -358s-342 155 -342 358zM70 350c0 -198 144 -348 332 -348s332 150 332 348s-144 348 -332 348s-332 -150 -332 -348zM240 750l165 90h4l164 -90l-8 -7l-158 87l-160 -87z" />
    <glyph glyph-name="Otilde" unicode="&#xd5;" horiz-adv-x="804" 
d="M60 350c0 203 149 358 342 358s342 -155 342 -358s-149 -358 -342 -358s-342 155 -342 358zM70 350c0 -198 144 -348 332 -348s332 150 332 348s-144 348 -332 348s-332 -150 -332 -348zM253 776l-6 7c27 22 52 30 75 30c60 0 111 -50 165 -50c23 0 47 8 72 35l7 -7
c-28 -28 -54 -38 -79 -38c-57 0 -111 50 -168 50c-21 0 -43 -8 -66 -27z" />
    <glyph glyph-name="Odieresis" unicode="&#xd6;" horiz-adv-x="804" 
d="M60 350c0 203 149 358 342 358s342 -155 342 -358s-149 -358 -342 -358s-342 155 -342 358zM70 350c0 -198 144 -348 332 -348s332 150 332 348s-144 348 -332 348s-332 -150 -332 -348zM275 790c0 7 6 12 13 12c6 0 12 -5 12 -12c0 -8 -6 -13 -12 -13c-7 0 -13 5 -13 13
zM509 790c0 7 6 12 13 12c6 0 12 -4 12 -12s-6 -13 -12 -13c-7 0 -13 5 -13 13z" />
    <glyph glyph-name="multiply" unicode="&#xd7;" horiz-adv-x="584" 
d="M136 510l7 7l149 -150l149 150l7 -7l-149 -150l151 -150l-7 -7l-151 150l-151 -150l-7 7l151 150z" />
    <glyph glyph-name="Oslash" unicode="&#xd8;" horiz-adv-x="804" 
d="M60 350c0 203 149 358 342 358c98 0 186 -41 247 -107l55 53l7 -6l-56 -54c56 -63 89 -148 89 -244c0 -203 -149 -358 -342 -358c-100 0 -188 41 -250 110l-52 -51l-8 8l53 51c-53 63 -85 146 -85 240zM734 350c0 93 -32 175 -86 237l-489 -478c60 -67 145 -107 243 -107
c188 0 332 150 332 348zM70 350c0 -91 30 -172 82 -233l490 477c-60 65 -144 104 -240 104c-188 0 -332 -150 -332 -348z" />
    <glyph glyph-name="Ugrave" unicode="&#xd9;" horiz-adv-x="751" 
d="M641 700v-405c0 -214 -119 -301 -256 -301c-155 0 -275 103 -275 308v398h10v-399c0 -196 116 -297 265 -297c134 0 246 87 246 294v402h10zM434 742l-154 90l4 8l155 -91z" />
    <glyph glyph-name="Uacute" unicode="&#xda;" horiz-adv-x="751" 
d="M641 700v-405c0 -214 -119 -301 -256 -301c-155 0 -275 103 -275 308v398h10v-399c0 -196 116 -297 265 -297c134 0 246 87 246 294v402h10zM479 832l-154 -90l-5 7l155 91z" />
    <glyph glyph-name="Ucircumflex" unicode="&#xdb;" horiz-adv-x="751" 
d="M641 700v-405c0 -214 -119 -301 -256 -301c-155 0 -275 103 -275 308v398h10v-399c0 -196 116 -297 265 -297c134 0 246 87 246 294v402h10zM209 750l165 90h4l164 -90l-8 -7l-158 87l-160 -87z" />
    <glyph glyph-name="Udieresis" unicode="&#xdc;" horiz-adv-x="751" 
d="M641 700v-405c0 -214 -119 -301 -256 -301c-155 0 -275 103 -275 308v398h10v-399c0 -196 116 -297 265 -297c134 0 246 87 246 294v402h10zM245 790c0 7 6 12 13 12c6 0 12 -5 12 -12c0 -8 -6 -13 -12 -13c-7 0 -13 5 -13 13zM479 790c0 7 6 12 13 12c6 0 12 -4 12 -12
s-6 -13 -12 -13c-7 0 -13 5 -13 13z" />
    <glyph glyph-name="Yacute" unicode="&#xdd;" horiz-adv-x="554" 
d="M534 700l-253 -385v-315h-10v315l-251 385h13l243 -375l245 375h13zM389 832l-154 -90l-5 7l155 91z" />
    <glyph glyph-name="Thorn" unicode="&#xde;" horiz-adv-x="567" 
d="M130 0h-10v700h10v-110c42 0 112 2 142 2c187 0 235 -105 235 -202c0 -102 -65 -205 -245 -205c-40 0 -86 2 -132 5v-190zM273 582c-36 0 -110 -1 -143 -2v-380c46 -3 85 -5 131 -5c164 0 236 88 236 196c0 104 -60 191 -224 191z" />
    <glyph glyph-name="germandbls" unicode="&#xdf;" horiz-adv-x="536" 
d="M466 141c0 147 -223 145 -223 271c0 85 119 103 119 192c0 57 -54 94 -111 94c-94 0 -141 -55 -141 -184v-518h-10v527c0 125 51 185 151 185c67 0 121 -42 121 -104c0 -96 -119 -115 -119 -191c0 -123 223 -115 223 -271c0 -91 -66 -150 -144 -150
c-69 0 -117 42 -137 78l9 6c18 -29 62 -74 127 -74c68 0 135 55 135 139z" />
    <glyph glyph-name="agrave" unicode="&#xe0;" horiz-adv-x="456" 
d="M89 409l-5 8c45 28 85 41 134 41c119 0 158 -65 158 -176v-282h-10v85c-31 -43 -82 -89 -176 -89c-85 0 -140 50 -140 125c0 89 74 135 171 135c38 0 99 -7 145 -40c0 140 -3 232 -150 232c-50 0 -82 -12 -127 -39zM189 6c100 0 147 53 177 95v102c-41 29 -91 43 -147 43
c-77 0 -159 -37 -159 -124c0 -74 57 -116 129 -116zM259 559l-109 141l7 6l110 -142z" />
    <glyph glyph-name="aacute" unicode="&#xe1;" horiz-adv-x="456" 
d="M89 409l-5 8c45 28 85 41 134 41c119 0 158 -65 158 -176v-282h-10v85c-31 -43 -82 -89 -176 -89c-85 0 -140 50 -140 125c0 89 74 135 171 135c38 0 99 -7 145 -40c0 140 -3 232 -150 232c-50 0 -82 -12 -127 -39zM189 6c100 0 147 53 177 95v102c-41 29 -91 43 -147 43
c-77 0 -159 -37 -159 -124c0 -74 57 -116 129 -116zM307 700l-109 -141l-8 5l110 142z" />
    <glyph glyph-name="acircumflex" unicode="&#xe2;" horiz-adv-x="456" 
d="M89 409l-5 8c45 28 85 41 134 41c119 0 158 -65 158 -176v-282h-10v85c-31 -43 -82 -89 -176 -89c-85 0 -140 50 -140 125c0 89 74 135 171 135c38 0 99 -7 145 -40c0 140 -3 232 -150 232c-50 0 -82 -12 -127 -39zM189 6c100 0 147 53 177 95v102c-41 29 -91 43 -147 43
c-77 0 -159 -37 -159 -124c0 -74 57 -116 129 -116zM231 708l113 -130l-7 -7l-108 124l-110 -124l-8 7l116 130h4z" />
    <glyph glyph-name="atilde" unicode="&#xe3;" horiz-adv-x="456" 
d="M89 409l-5 8c45 28 85 41 134 41c119 0 158 -65 158 -176v-282h-10v85c-31 -43 -82 -89 -176 -89c-85 0 -140 50 -140 125c0 89 74 135 171 135c38 0 99 -7 145 -40c0 140 -3 232 -150 232c-50 0 -82 -12 -127 -39zM189 6c100 0 147 53 177 95v102c-41 29 -91 43 -147 43
c-77 0 -159 -37 -159 -124c0 -74 57 -116 129 -116zM95 596l-6 7c38 31 65 41 87 41c47 0 67 -49 108 -49c19 0 43 11 77 43l7 -7c-38 -35 -65 -46 -86 -46c-44 0 -64 49 -109 49c-20 0 -44 -10 -78 -38z" />
    <glyph glyph-name="adieresis" unicode="&#xe4;" horiz-adv-x="456" 
d="M89 409l-5 8c45 28 85 41 134 41c119 0 158 -65 158 -176v-282h-10v85c-31 -43 -82 -89 -176 -89c-85 0 -140 50 -140 125c0 89 74 135 171 135c38 0 99 -7 145 -40c0 140 -3 232 -150 232c-50 0 -82 -12 -127 -39zM189 6c100 0 147 53 177 95v102c-41 29 -91 43 -147 43
c-77 0 -159 -37 -159 -124c0 -74 57 -116 129 -116zM99 631c0 6 6 12 13 12c6 0 12 -6 12 -12c0 -7 -6 -13 -12 -13c-7 0 -13 6 -13 13zM313 631c0 6 6 12 13 12c6 0 12 -6 12 -12c0 -7 -6 -13 -12 -13c-7 0 -13 6 -13 13z" />
    <glyph glyph-name="aring" unicode="&#xe5;" horiz-adv-x="456" 
d="M89 409l-5 8c45 28 85 41 134 41c119 0 158 -65 158 -176v-282h-10v85c-31 -43 -82 -89 -176 -89c-85 0 -140 50 -140 125c0 89 74 135 171 135c38 0 99 -7 145 -40c0 140 -3 232 -150 232c-50 0 -82 -12 -127 -39zM189 6c100 0 147 53 177 95v102c-41 29 -91 43 -147 43
c-77 0 -159 -37 -159 -124c0 -74 57 -116 129 -116zM126 615c0 51 41 93 92 93s93 -42 93 -93s-42 -92 -93 -92s-92 41 -92 92zM136 615c0 -46 36 -82 82 -82s83 36 83 82s-37 83 -83 83s-82 -37 -82 -83z" />
    <glyph glyph-name="ae" unicode="&#xe6;" horiz-adv-x="809" 
d="M218 458c88 0 132 -36 149 -100c35 61 97 100 188 100c116 0 199 -79 199 -200c0 -8 -1 -15 -1 -23h-377v-131c37 -65 105 -102 193 -102c64 0 123 28 157 67l6 -6c-38 -47 -103 -71 -163 -71c-86 0 -157 36 -198 99c-39 -53 -91 -95 -181 -95c-85 0 -140 50 -140 125
c0 89 74 135 171 135c38 0 115 -6 145 -10c8 132 -25 202 -150 202c-50 0 -82 -12 -127 -39l-5 8c45 28 85 41 134 41zM376 282v-37h368c2 125 -76 203 -193 203c-88 0 -149 -41 -181 -103c4 -19 6 -40 6 -63zM189 6c100 0 147 53 177 95v134c-52 7 -91 11 -147 11
c-77 0 -159 -37 -159 -124c0 -74 57 -116 129 -116z" />
    <glyph glyph-name="ccedilla" unicode="&#xe7;" horiz-adv-x="492" 
d="M200 -180l4 9c27 -13 53 -19 74 -19c52 0 90 23 90 60c0 36 -24 60 -90 60h-6v63c-126 7 -217 96 -217 232c0 131 96 233 218 233c66 0 126 -13 170 -53l-6 -9c-43 38 -101 52 -162 52c-115 0 -210 -97 -210 -223c0 -137 94 -223 224 -223c64 0 123 28 157 67l6 -6
c-38 -47 -103 -71 -163 -71h-7v-52c69 -1 96 -29 96 -70s-39 -70 -100 -70c-27 0 -51 7 -78 20z" />
    <glyph glyph-name="egrave" unicode="&#xe8;" horiz-adv-x="529" 
d="M446 69l6 -6c-38 -47 -103 -71 -163 -71c-135 0 -234 91 -234 233c0 131 72 233 220 233c116 0 199 -79 199 -200c0 -8 -1 -15 -1 -23h-408c0 -143 87 -233 224 -233c64 0 123 28 157 67zM271 448c-128 0 -199 -87 -206 -203h399c2 125 -76 203 -193 203zM285 559
l-109 141l7 6l110 -142z" />
    <glyph glyph-name="eacute" unicode="&#xe9;" horiz-adv-x="529" 
d="M446 69l6 -6c-38 -47 -103 -71 -163 -71c-135 0 -234 91 -234 233c0 131 72 233 220 233c116 0 199 -79 199 -200c0 -8 -1 -15 -1 -23h-408c0 -143 87 -233 224 -233c64 0 123 28 157 67zM271 448c-128 0 -199 -87 -206 -203h399c2 125 -76 203 -193 203zM373 700
l-109 -141l-8 5l110 142z" />
    <glyph glyph-name="ecircumflex" unicode="&#xea;" horiz-adv-x="529" 
d="M446 69l6 -6c-38 -47 -103 -71 -163 -71c-135 0 -234 91 -234 233c0 131 72 233 220 233c116 0 199 -79 199 -200c0 -8 -1 -15 -1 -23h-408c0 -143 87 -233 224 -233c64 0 123 28 157 67zM271 448c-128 0 -199 -87 -206 -203h399c2 125 -76 203 -193 203zM277 708
l113 -130l-7 -7l-108 124l-110 -124l-8 7l116 130h4z" />
    <glyph glyph-name="edieresis" unicode="&#xeb;" horiz-adv-x="529" 
d="M446 69l6 -6c-38 -47 -103 -71 -163 -71c-135 0 -234 91 -234 233c0 131 72 233 220 233c116 0 199 -79 199 -200c0 -8 -1 -15 -1 -23h-408c0 -143 87 -233 224 -233c64 0 123 28 157 67zM271 448c-128 0 -199 -87 -206 -203h399c2 125 -76 203 -193 203zM144 631
c0 6 6 12 13 12c6 0 12 -6 12 -12c0 -7 -6 -13 -12 -13c-7 0 -13 6 -13 13zM358 631c0 6 6 12 13 12c6 0 12 -6 12 -12c0 -7 -6 -13 -12 -13c-7 0 -13 6 -13 13z" />
    <glyph glyph-name="igrave" unicode="&#xec;" horiz-adv-x="250" 
d="M120 0v450h10v-450h-10zM136 559l-109 141l7 6l110 -142z" />
    <glyph glyph-name="iacute" unicode="&#xed;" horiz-adv-x="250" 
d="M120 0v450h10v-450h-10zM224 700l-109 -141l-8 5l110 142z" />
    <glyph glyph-name="icircumflex" unicode="&#xee;" horiz-adv-x="250" 
d="M120 0v450h10v-450h-10zM129 708l113 -130l-7 -7l-108 124l-110 -124l-8 7l116 130h4z" />
    <glyph glyph-name="idieresis" unicode="&#xef;" horiz-adv-x="250" 
d="M120 0v450h10v-450h-10zM6 631c0 6 6 12 13 12c6 0 12 -6 12 -12c0 -7 -6 -13 -12 -13c-7 0 -13 6 -13 13zM220 631c0 6 6 12 13 12c6 0 12 -6 12 -12c0 -7 -6 -13 -12 -13c-7 0 -13 6 -13 13z" />
    <glyph glyph-name="eth" unicode="&#xf0;" horiz-adv-x="570" 
d="M212 552l-5 8l118 68c-40 32 -83 56 -127 72l11 8c46 -19 88 -44 125 -75l103 60l5 -8l-100 -58c108 -93 173 -229 173 -373c0 -161 -96 -262 -230 -262s-230 98 -230 233s96 233 230 233c98 0 176 -55 216 -145c-16 126 -82 235 -169 308zM65 225
c0 -130 91 -223 220 -223s220 98 220 255c-11 89 -91 191 -220 191s-220 -93 -220 -223z" />
    <glyph glyph-name="ntilde" unicode="&#xf1;" horiz-adv-x="554" 
d="M90 0v450h10v-74c38 46 115 82 183 82c130 0 191 -65 191 -206v-252h-10v249c0 135 -57 199 -181 199c-78 0 -155 -47 -183 -86v-362h-10zM143 596l-6 7c38 31 65 41 87 41c47 0 67 -49 108 -49c19 0 43 11 77 43l7 -7c-38 -35 -65 -46 -86 -46c-44 0 -64 49 -109 49
c-20 0 -44 -10 -78 -38z" />
    <glyph glyph-name="ograve" unicode="&#xf2;" horiz-adv-x="570" 
d="M55 225c0 135 96 233 230 233s230 -98 230 -233s-96 -233 -230 -233s-230 98 -230 233zM65 225c0 -130 91 -223 220 -223s220 93 220 223s-91 223 -220 223s-220 -93 -220 -223zM306 559l-109 141l7 6l110 -142z" />
    <glyph glyph-name="oacute" unicode="&#xf3;" horiz-adv-x="570" 
d="M55 225c0 135 96 233 230 233s230 -98 230 -233s-96 -233 -230 -233s-230 98 -230 233zM65 225c0 -130 91 -223 220 -223s220 93 220 223s-91 223 -220 223s-220 -93 -220 -223zM374 700l-109 -141l-8 5l110 142z" />
    <glyph glyph-name="ocircumflex" unicode="&#xf4;" horiz-adv-x="570" 
d="M55 225c0 135 96 233 230 233s230 -98 230 -233s-96 -233 -230 -233s-230 98 -230 233zM65 225c0 -130 91 -223 220 -223s220 93 220 223s-91 223 -220 223s-220 -93 -220 -223zM287 708l113 -130l-7 -7l-108 124l-110 -124l-8 7l116 130h4z" />
    <glyph glyph-name="otilde" unicode="&#xf5;" horiz-adv-x="570" 
d="M55 225c0 135 96 233 230 233s230 -98 230 -233s-96 -233 -230 -233s-230 98 -230 233zM65 225c0 -130 91 -223 220 -223s220 93 220 223s-91 223 -220 223s-220 -93 -220 -223zM151 596l-6 7c38 31 65 41 87 41c47 0 67 -49 108 -49c19 0 43 11 77 43l7 -7
c-38 -35 -65 -46 -86 -46c-44 0 -64 49 -109 49c-20 0 -44 -10 -78 -38z" />
    <glyph glyph-name="odieresis" unicode="&#xf6;" horiz-adv-x="570" 
d="M55 225c0 135 96 233 230 233s230 -98 230 -233s-96 -233 -230 -233s-230 98 -230 233zM65 225c0 -130 91 -223 220 -223s220 93 220 223s-91 223 -220 223s-220 -93 -220 -223zM166 631c0 6 6 12 13 12c6 0 12 -6 12 -12c0 -7 -6 -13 -12 -13c-7 0 -13 6 -13 13z
M380 631c0 6 6 12 13 12c6 0 12 -6 12 -12c0 -7 -6 -13 -12 -13c-7 0 -13 6 -13 13z" />
    <glyph glyph-name="divide" unicode="&#xf7;" horiz-adv-x="584" 
d="M280 579c0 6 6 12 13 12c6 0 12 -6 12 -12c0 -7 -6 -13 -12 -13c-7 0 -13 6 -13 13zM280 142c0 6 6 12 13 12c6 0 12 -6 12 -12c0 -7 -6 -13 -12 -13c-7 0 -13 6 -13 13zM75 355v10h434v-10h-434z" />
    <glyph glyph-name="oslash" unicode="&#xf8;" horiz-adv-x="570" 
d="M55 225c0 135 96 233 230 233c67 0 125 -26 166 -68l59 60l7 -7l-59 -60c36 -40 57 -95 57 -158c0 -135 -96 -233 -230 -233c-62 0 -115 20 -155 56l-59 -61l-7 8l59 60c-43 41 -68 101 -68 170zM65 225c0 -67 24 -124 64 -163l316 322c-39 40 -95 64 -160 64
c-129 0 -220 -93 -220 -223zM505 225c0 60 -20 112 -54 151l-314 -321c38 -34 89 -53 148 -53c129 0 220 93 220 223z" />
    <glyph glyph-name="ugrave" unicode="&#xf9;" horiz-adv-x="550" 
d="M460 450v-450h-10v83c-39 -47 -116 -91 -189 -91c-124 0 -181 65 -181 206v252h10v-249c0 -135 53 -199 173 -199c82 0 159 55 187 95v353h10zM296 559l-109 141l7 6l110 -142z" />
    <glyph glyph-name="uacute" unicode="&#xfa;" horiz-adv-x="550" 
d="M460 450v-450h-10v83c-39 -47 -116 -91 -189 -91c-124 0 -181 65 -181 206v252h10v-249c0 -135 53 -199 173 -199c82 0 159 55 187 95v353h10zM364 700l-109 -141l-8 5l110 142z" />
    <glyph glyph-name="ucircumflex" unicode="&#xfb;" horiz-adv-x="550" 
d="M460 450v-450h-10v83c-39 -47 -116 -91 -189 -91c-124 0 -181 65 -181 206v252h10v-249c0 -135 53 -199 173 -199c82 0 159 55 187 95v353h10zM272 708l113 -130l-7 -7l-108 124l-110 -124l-8 7l116 130h4z" />
    <glyph glyph-name="udieresis" unicode="&#xfc;" horiz-adv-x="550" 
d="M460 450v-450h-10v83c-39 -47 -116 -91 -189 -91c-124 0 -181 65 -181 206v252h10v-249c0 -135 53 -199 173 -199c82 0 159 55 187 95v353h10zM156 631c0 6 6 12 13 12c6 0 12 -6 12 -12c0 -7 -6 -13 -12 -13c-7 0 -13 6 -13 13zM370 631c0 6 6 12 13 12
c6 0 12 -6 12 -12c0 -7 -6 -13 -12 -13c-7 0 -13 6 -13 13z" />
    <glyph glyph-name="yacute" unicode="&#xfd;" horiz-adv-x="466" 
d="M446 450l-185 -450c-66 -161 -108 -200 -166 -200c-20 0 -41 5 -64 15l4 9c21 -9 40 -15 58 -15c56 0 98 46 148 167l10 24l-231 450h11l187 -366l38 -74l31 76l148 364h11zM322 700l-109 -141l-8 5l110 142z" />
    <glyph glyph-name="thorn" unicode="&#xfe;" horiz-adv-x="551" 
d="M90 -200v900h10v-321c38 46 113 79 181 79c135 0 215 -93 215 -226c0 -137 -90 -240 -227 -240c-64 0 -125 16 -169 50v-242h-10zM281 448c-78 0 -153 -44 -181 -83v-310c56 -41 116 -53 170 -53c127 0 216 93 216 227c0 131 -75 219 -205 219z" />
    <glyph glyph-name="ydieresis" unicode="&#xff;" horiz-adv-x="466" 
d="M446 450l-185 -450c-66 -161 -108 -200 -166 -200c-20 0 -41 5 -64 15l4 9c21 -9 40 -15 58 -15c56 0 98 46 148 167l10 24l-231 450h11l187 -366l38 -74l31 76l148 364h11zM114 631c0 6 6 12 13 12c6 0 12 -6 12 -12c0 -7 -6 -13 -12 -13c-7 0 -13 6 -13 13zM328 631
c0 6 6 12 13 12c6 0 12 -6 12 -12c0 -7 -6 -13 -12 -13c-7 0 -13 6 -13 13z" />
    <glyph glyph-name="Amacron" unicode="&#x100;" horiz-adv-x="685" 
d="M30 0l311 708h3l311 -708h-11l-122 277h-360l-121 -277h-11zM342 688l-176 -401h352zM195 790v10h294v-10h-294z" />
    <glyph glyph-name="amacron" unicode="&#x101;" horiz-adv-x="456" 
d="M89 409l-5 8c45 28 85 41 134 41c119 0 158 -65 158 -176v-282h-10v85c-31 -43 -82 -89 -176 -89c-85 0 -140 50 -140 125c0 89 74 135 171 135c38 0 99 -7 145 -40c0 140 -3 232 -150 232c-50 0 -82 -12 -127 -39zM189 6c100 0 147 53 177 95v102c-41 29 -91 43 -147 43
c-77 0 -159 -37 -159 -124c0 -74 57 -116 129 -116zM111 640v10h234v-10h-234z" />
    <glyph glyph-name="Abreve" unicode="&#x102;" horiz-adv-x="685" 
d="M30 0l311 708h3l311 -708h-11l-122 277h-360l-121 -277h-11zM342 688l-176 -401h352zM194 834l7 6c20 -25 67 -70 143 -70c66 0 113 36 140 70l7 -6c-27 -36 -76 -74 -147 -74c-83 0 -134 50 -150 74z" />
    <glyph glyph-name="abreve" unicode="&#x103;" horiz-adv-x="456" 
d="M89 409l-5 8c45 28 85 41 134 41c119 0 158 -65 158 -176v-282h-10v85c-31 -43 -82 -89 -176 -89c-85 0 -140 50 -140 125c0 89 74 135 171 135c38 0 99 -7 145 -40c0 140 -3 232 -150 232c-50 0 -82 -12 -127 -39zM189 6c100 0 147 53 177 95v102c-41 29 -91 43 -147 43
c-77 0 -159 -37 -159 -124c0 -74 57 -116 129 -116zM100 674l7 6c20 -25 57 -70 123 -70c56 0 93 36 120 70l7 -6c-27 -36 -66 -74 -127 -74c-73 0 -114 50 -130 74z" />
    <glyph glyph-name="Aogonek" unicode="&#x104;" horiz-adv-x="685" 
d="M646 -181l3 -9c-17 -7 -37 -10 -52 -10c-38 0 -100 18 -100 90c0 70 72 117 142 120l-117 267h-360l-121 -277h-11l311 708h3l311 -708h-11c-66 -1 -137 -44 -137 -110s62 -80 91 -80c11 0 31 1 48 9zM342 688l-176 -401h352z" />
    <glyph glyph-name="aogonek" unicode="&#x105;" horiz-adv-x="456" 
d="M376 -181l3 -9c-17 -7 -37 -10 -52 -10c-38 0 -100 18 -100 90c0 69 70 115 139 119v76c-31 -43 -82 -89 -176 -89c-85 0 -140 50 -140 125c0 89 74 135 171 135c38 0 99 -7 145 -40c0 140 -3 232 -150 232c-50 0 -82 -12 -127 -39l-5 8c45 28 85 41 134 41
c119 0 158 -65 158 -176v-282h-5c-65 -2 -134 -45 -134 -110c0 -66 62 -80 91 -80c11 0 31 1 48 9zM189 6c100 0 147 53 177 95v102c-41 29 -91 43 -147 43c-77 0 -159 -37 -159 -124c0 -74 57 -116 129 -116z" />
    <glyph glyph-name="Cacute" unicode="&#x106;" horiz-adv-x="657" 
d="M611 75l6 -8c-51 -48 -135 -75 -213 -75c-204 0 -344 140 -344 358c0 201 135 358 333 358c86 0 154 -18 211 -63l-7 -7c-54 44 -122 60 -203 60c-196 0 -324 -154 -324 -348c0 -210 137 -348 334 -348c85 0 157 30 207 73zM499 832l-154 -90l-5 7l155 91z" />
    <glyph glyph-name="cacute" unicode="&#x107;" horiz-adv-x="492" 
d="M446 69l6 -6c-38 -47 -103 -71 -163 -71c-135 0 -234 91 -234 233c0 131 96 233 218 233c66 0 126 -13 170 -53l-6 -9c-43 38 -101 52 -162 52c-115 0 -210 -97 -210 -223c0 -137 94 -223 224 -223c64 0 123 28 157 67zM367 700l-109 -141l-8 5l110 142z" />
    <glyph glyph-name="Ccircumflex" unicode="&#x108;" horiz-adv-x="657" 
d="M611 75l6 -8c-51 -48 -135 -75 -213 -75c-204 0 -344 140 -344 358c0 201 135 358 333 358c86 0 154 -18 211 -63l-7 -7c-54 44 -122 60 -203 60c-196 0 -324 -154 -324 -348c0 -210 137 -348 334 -348c85 0 157 30 207 73zM230 750l165 90h4l164 -90l-8 -7l-158 87
l-160 -87z" />
    <glyph glyph-name="ccircumflex" unicode="&#x109;" horiz-adv-x="492" 
d="M446 69l6 -6c-38 -47 -103 -71 -163 -71c-135 0 -234 91 -234 233c0 131 96 233 218 233c66 0 126 -13 170 -53l-6 -9c-43 38 -101 52 -162 52c-115 0 -210 -97 -210 -223c0 -137 94 -223 224 -223c64 0 123 28 157 67zM281 708l113 -130l-7 -7l-108 124l-110 -124l-8 7
l116 130h4z" />
    <glyph glyph-name="Cdotaccent" unicode="&#x10a;" horiz-adv-x="657" 
d="M611 75l6 -8c-51 -48 -135 -75 -213 -75c-204 0 -344 140 -344 358c0 201 135 358 333 358c86 0 154 -18 211 -63l-7 -7c-54 44 -122 60 -203 60c-196 0 -324 -154 -324 -348c0 -210 137 -348 334 -348c85 0 157 30 207 73zM367 790c0 7 6 12 13 12c6 0 12 -5 12 -12
c0 -8 -6 -13 -12 -13c-7 0 -13 5 -13 13z" />
    <glyph glyph-name="cdotaccent" unicode="&#x10b;" horiz-adv-x="492" 
d="M446 69l6 -6c-38 -47 -103 -71 -163 -71c-135 0 -234 91 -234 233c0 131 96 233 218 233c66 0 126 -13 170 -53l-6 -9c-43 38 -101 52 -162 52c-115 0 -210 -97 -210 -223c0 -137 94 -223 224 -223c64 0 123 28 157 67zM274 633c0 6 6 12 13 12c6 0 12 -6 12 -12
c0 -7 -6 -13 -12 -13c-7 0 -13 6 -13 13z" />
    <glyph glyph-name="Ccaron" unicode="&#x10c;" horiz-adv-x="657" 
d="M611 75l6 -8c-51 -48 -135 -75 -213 -75c-204 0 -344 140 -344 358c0 201 135 358 333 358c86 0 154 -18 211 -63l-7 -7c-54 44 -122 60 -203 60c-196 0 -324 -154 -324 -348c0 -210 137 -348 334 -348c85 0 157 30 207 73zM395 743l-165 90l7 7l160 -87l158 87l8 -7
l-164 -90h-4z" />
    <glyph glyph-name="ccaron" unicode="&#x10d;" horiz-adv-x="492" 
d="M446 69l6 -6c-38 -47 -103 -71 -163 -71c-135 0 -234 91 -234 233c0 131 96 233 218 233c66 0 126 -13 170 -53l-6 -9c-43 38 -101 52 -162 52c-115 0 -210 -97 -210 -223c0 -137 94 -223 224 -223c64 0 123 28 157 67zM287 571l-115 130l7 7l110 -124l108 124l8 -7
l-114 -130h-4z" />
    <glyph glyph-name="Dcaron" unicode="&#x10e;" horiz-adv-x="734" 
d="M120 0v700h10c56 0 83 3 151 3c280 0 393 -161 393 -341c0 -202 -134 -364 -401 -364c-57 0 -96 2 -148 2h-5zM279 693c-67 0 -98 -3 -149 -3v-680c72 0 144 -2 144 -2c262 0 390 161 390 354c0 176 -108 331 -385 331zM335 743l-165 90l7 7l160 -87l158 87l8 -7
l-164 -90h-4z" />
    <glyph glyph-name="dcaron" unicode="&#x10f;" horiz-adv-x="552" 
d="M452 0v76c-35 -44 -103 -84 -172 -84c-135 0 -225 91 -225 233c0 137 106 233 243 233c59 0 109 -14 154 -48v290h10v-700h-10zM280 2c74 0 147 52 172 89v307c-58 41 -107 50 -155 50c-131 0 -232 -92 -232 -223c0 -137 85 -223 215 -223zM587 700h10
c6 -10 10 -22 10 -43c0 -57 -26 -98 -58 -113l-3 8c30 17 51 57 51 104c0 19 -4 34 -10 44z" />
    <glyph glyph-name="Dcroat" unicode="&#x110;" horiz-adv-x="764" 
d="M10 355v10h140v335h10c56 0 83 3 151 3c280 0 393 -161 393 -341c0 -202 -134 -364 -401 -364c-57 0 -96 2 -148 2h-5v355h-140zM309 693c-67 0 -98 -3 -149 -3v-325h213v-10h-213v-345c72 0 144 -2 144 -2c262 0 390 161 390 354c0 176 -108 331 -385 331z" />
    <glyph glyph-name="dcroat" unicode="&#x111;" horiz-adv-x="552" 
d="M243 561v10h209v129h10v-129h120v-10h-120v-561h-10v76c-35 -44 -103 -84 -172 -84c-135 0 -225 91 -225 233c0 137 106 233 243 233c59 0 109 -14 154 -48v151h-209zM280 2c74 0 147 52 172 89v307c-58 41 -107 50 -155 50c-131 0 -232 -92 -232 -223
c0 -137 85 -223 215 -223z" />
    <glyph glyph-name="Emacron" unicode="&#x112;" horiz-adv-x="575" 
d="M120 0v700h375v-10h-365v-328h335v-10h-335v-342h375v-10h-385zM160 790v10h294v-10h-294z" />
    <glyph glyph-name="emacron" unicode="&#x113;" horiz-adv-x="529" 
d="M446 69l6 -6c-38 -47 -103 -71 -163 -71c-135 0 -234 91 -234 233c0 131 72 233 220 233c116 0 199 -79 199 -200c0 -8 -1 -15 -1 -23h-408c0 -143 87 -233 224 -233c64 0 123 28 157 67zM271 448c-128 0 -199 -87 -206 -203h399c2 125 -76 203 -193 203zM148 640v10h234
v-10h-234z" />
    <glyph glyph-name="Edotaccent" unicode="&#x116;" horiz-adv-x="575" 
d="M120 0v700h375v-10h-365v-328h335v-10h-335v-342h375v-10h-385zM297 790c0 7 6 12 13 12c6 0 12 -5 12 -12c0 -8 -6 -13 -12 -13c-7 0 -13 5 -13 13z" />
    <glyph glyph-name="edotaccent" unicode="&#x117;" horiz-adv-x="529" 
d="M446 69l6 -6c-38 -47 -103 -71 -163 -71c-135 0 -234 91 -234 233c0 131 72 233 220 233c116 0 199 -79 199 -200c0 -8 -1 -15 -1 -23h-408c0 -143 87 -233 224 -233c64 0 123 28 157 67zM271 448c-128 0 -199 -87 -206 -203h399c2 125 -76 203 -193 203zM251 633
c0 6 6 12 13 12c6 0 12 -6 12 -12c0 -7 -6 -13 -12 -13c-7 0 -13 6 -13 13z" />
    <glyph glyph-name="Eogonek" unicode="&#x118;" horiz-adv-x="575" 
d="M120 0v700h375v-10h-365v-328h335v-10h-335v-342h375v-10c-66 0 -139 -44 -139 -110s62 -80 91 -80c11 0 31 1 48 9l3 -9c-17 -7 -37 -10 -52 -10c-38 0 -100 18 -100 90c0 53 41 93 91 110h-327z" />
    <glyph glyph-name="eogonek" unicode="&#x119;" horiz-adv-x="529" 
d="M446 69l6 -6c-23 -28 -55 -48 -90 -59c-45 -29 -80 -65 -80 -114c0 -66 62 -80 91 -80c11 0 31 1 48 9l3 -9c-17 -7 -37 -10 -52 -10c-38 0 -100 18 -100 90c0 48 28 80 71 109c-18 -4 -36 -7 -54 -7c-135 0 -234 91 -234 233c0 131 72 233 220 233
c116 0 199 -79 199 -200c0 -8 -1 -15 -1 -23h-408c0 -143 87 -233 224 -233c64 0 123 28 157 67zM271 448c-128 0 -199 -87 -206 -203h399c2 125 -76 203 -193 203z" />
    <glyph glyph-name="Ecaron" unicode="&#x11a;" horiz-adv-x="575" 
d="M120 0v700h375v-10h-365v-328h335v-10h-335v-342h375v-10h-385zM315 743l-165 90l7 7l160 -87l158 87l8 -7l-164 -90h-4z" />
    <glyph glyph-name="ecaron" unicode="&#x11b;" horiz-adv-x="529" 
d="M446 69l6 -6c-38 -47 -103 -71 -163 -71c-135 0 -234 91 -234 233c0 131 72 233 220 233c116 0 199 -79 199 -200c0 -8 -1 -15 -1 -23h-408c0 -143 87 -233 224 -233c64 0 123 28 157 67zM271 448c-128 0 -199 -87 -206 -203h399c2 125 -76 203 -193 203zM273 571
l-115 130l7 7l110 -124l108 124l8 -7l-114 -130h-4z" />
    <glyph glyph-name="Gcircumflex" unicode="&#x11c;" horiz-adv-x="727" 
d="M418 303v10h239v-226c-62 -62 -175 -95 -262 -95c-195 0 -335 140 -335 358c0 201 135 358 333 358c86 0 154 -18 211 -63l-7 -7c-54 44 -122 60 -203 60c-196 0 -324 -154 -324 -348c0 -210 134 -348 327 -348c90 0 193 33 250 89v212h-229zM230 750l165 90h4l164 -90
l-8 -7l-158 87l-160 -87z" />
    <glyph glyph-name="gcircumflex" unicode="&#x11d;" horiz-adv-x="484" 
d="M20 -71c0 70 54 115 141 131c-12 12 -18 30 -18 49c0 20 8 38 20 51c-58 24 -94 77 -94 142c0 90 69 156 169 156c45 0 84 -14 113 -37l123 37v-10l-115 -34c30 -28 48 -67 48 -112c0 -90 -69 -156 -169 -156c-24 0 -46 3 -66 10c-13 -12 -19 -28 -19 -47
c0 -18 7 -35 21 -47c20 3 42 5 65 5c131 0 219 -48 219 -138c0 -89 -88 -137 -219 -137s-219 47 -219 137zM30 -71c0 -81 87 -127 209 -127s209 45 209 127c0 81 -87 128 -209 128s-209 -47 -209 -128zM79 302c0 -84 66 -146 159 -146s159 62 159 146c0 83 -66 146 -159 146
s-159 -62 -159 -146zM244 708l113 -130l-7 -7l-108 124l-110 -124l-8 7l116 130h4z" />
    <glyph glyph-name="Gbreve" unicode="&#x11e;" horiz-adv-x="727" 
d="M418 303v10h239v-226c-62 -62 -175 -95 -262 -95c-195 0 -335 140 -335 358c0 201 135 358 333 358c86 0 154 -18 211 -63l-7 -7c-54 44 -122 60 -203 60c-196 0 -324 -154 -324 -348c0 -210 134 -348 327 -348c90 0 193 33 250 89v212h-229zM250 834l7 6
c20 -25 67 -70 143 -70c66 0 113 36 140 70l7 -6c-27 -36 -76 -74 -147 -74c-83 0 -134 50 -150 74z" />
    <glyph glyph-name="gbreve" unicode="&#x11f;" horiz-adv-x="484" 
d="M20 -71c0 70 54 115 141 131c-12 12 -18 30 -18 49c0 20 8 38 20 51c-58 24 -94 77 -94 142c0 90 69 156 169 156c45 0 84 -14 113 -37l123 37v-10l-115 -34c30 -28 48 -67 48 -112c0 -90 -69 -156 -169 -156c-24 0 -46 3 -66 10c-13 -12 -19 -28 -19 -47
c0 -18 7 -35 21 -47c20 3 42 5 65 5c131 0 219 -48 219 -138c0 -89 -88 -137 -219 -137s-219 47 -219 137zM30 -71c0 -81 87 -127 209 -127s209 45 209 127c0 81 -87 128 -209 128s-209 -47 -209 -128zM79 302c0 -84 66 -146 159 -146s159 62 159 146c0 83 -66 146 -159 146
s-159 -62 -159 -146zM113 674l7 6c20 -25 57 -70 123 -70c56 0 93 36 120 70l7 -6c-27 -36 -66 -74 -127 -74c-73 0 -114 50 -130 74z" />
    <glyph glyph-name="Gdotaccent" unicode="&#x120;" horiz-adv-x="727" 
d="M418 303v10h239v-226c-62 -62 -175 -95 -262 -95c-195 0 -335 140 -335 358c0 201 135 358 333 358c86 0 154 -18 211 -63l-7 -7c-54 44 -122 60 -203 60c-196 0 -324 -154 -324 -348c0 -210 134 -348 327 -348c90 0 193 33 250 89v212h-229zM377 790c0 7 6 12 13 12
c6 0 12 -5 12 -12c0 -8 -6 -13 -12 -13c-7 0 -13 5 -13 13z" />
    <glyph glyph-name="gdotaccent" unicode="&#x121;" horiz-adv-x="484" 
d="M20 -71c0 70 54 115 141 131c-12 12 -18 30 -18 49c0 20 8 38 20 51c-58 24 -94 77 -94 142c0 90 69 156 169 156c45 0 84 -14 113 -37l123 37v-10l-115 -34c30 -28 48 -67 48 -112c0 -90 -69 -156 -169 -156c-24 0 -46 3 -66 10c-13 -12 -19 -28 -19 -47
c0 -18 7 -35 21 -47c20 3 42 5 65 5c131 0 219 -48 219 -138c0 -89 -88 -137 -219 -137s-219 47 -219 137zM30 -71c0 -81 87 -127 209 -127s209 45 209 127c0 81 -87 128 -209 128s-209 -47 -209 -128zM79 302c0 -84 66 -146 159 -146s159 62 159 146c0 83 -66 146 -159 146
s-159 -62 -159 -146zM229 633c0 6 6 12 13 12c6 0 12 -6 12 -12c0 -7 -6 -13 -12 -13c-7 0 -13 6 -13 13z" />
    <glyph glyph-name="Gcommaaccent" unicode="&#x122;" horiz-adv-x="727" 
d="M418 303v10h239v-226c-62 -62 -175 -95 -262 -95c-195 0 -335 140 -335 358c0 201 135 358 333 358c86 0 154 -18 211 -63l-7 -7c-54 44 -122 60 -203 60c-196 0 -324 -154 -324 -348c0 -210 134 -348 327 -348c90 0 193 33 250 89v212h-229zM377 -80l1 10
c26 -2 44 -21 44 -51c0 -47 -21 -65 -58 -79l-3 8c33 12 51 32 51 67c0 30 -15 42 -35 45z" />
    <glyph glyph-name="gcommaaccent" unicode="&#x123;" horiz-adv-x="484" 
d="M20 -71c0 70 54 115 141 131c-12 12 -18 30 -18 49c0 20 8 38 20 51c-58 24 -94 77 -94 142c0 90 69 156 169 156c45 0 84 -14 113 -37l123 37v-10l-115 -34c30 -28 48 -67 48 -112c0 -90 -69 -156 -169 -156c-24 0 -46 3 -66 10c-13 -12 -19 -28 -19 -47
c0 -18 7 -35 21 -47c20 3 42 5 65 5c131 0 219 -48 219 -138c0 -89 -88 -137 -219 -137s-219 47 -219 137zM30 -71c0 -81 87 -127 209 -127s209 45 209 127c0 81 -87 128 -209 128s-209 -47 -209 -128zM79 302c0 -84 66 -146 159 -146s159 62 159 146c0 83 -66 146 -159 146
s-159 -62 -159 -146zM262 577l-1 -10c-26 2 -44 21 -44 51c0 47 21 65 58 79l3 -8c-33 -12 -51 -32 -51 -67c0 -30 15 -42 35 -45z" />
    <glyph glyph-name="Hcircumflex" unicode="&#x124;" horiz-adv-x="775" 
d="M645 0v352h-515v-352h-10v700h10v-338h515v338h10v-700h-10zM221 750l165 90h4l164 -90l-8 -7l-158 87l-160 -87z" />
    <glyph glyph-name="hcircumflex" unicode="&#x125;" horiz-adv-x="554" 
d="M90 0v700h10v-324c38 46 115 82 183 82c130 0 191 -65 191 -206v-252h-10v249c0 135 -57 199 -181 199c-78 0 -155 -47 -183 -86v-362h-10zM0 750l165 90h4l164 -90l-8 -7l-158 87l-160 -87z" />
    <glyph glyph-name="Hbar" unicode="&#x126;" horiz-adv-x="785" 
d="M30 532v10h95v158h10v-158h515v158h10v-158h95v-10h-95v-532h-10v352h-515v-352h-10v532h-95zM135 362h515v170h-515v-170z" />
    <glyph glyph-name="hbar" unicode="&#x127;" horiz-adv-x="554" 
d="M-50 550v10h140v140h10v-140h189v-10h-189v-174c38 46 115 82 183 82c130 0 191 -65 191 -206v-252h-10v249c0 135 -57 199 -181 199c-78 0 -155 -47 -183 -86v-362h-10v550h-140z" />
    <glyph glyph-name="Imacron" unicode="&#x12a;" horiz-adv-x="310" 
d="M150 0v700h10v-700h-10zM8 790v10h294v-10h-294z" />
    <glyph glyph-name="imacron" unicode="&#x12b;" horiz-adv-x="250" 
d="M120 0v450h10v-450h-10zM8 640v10h234v-10h-234z" />
    <glyph glyph-name="Iogonek" unicode="&#x12e;" horiz-adv-x="310" 
d="M160 -181l3 -9c-17 -7 -37 -10 -52 -10c-38 0 -100 18 -100 90c0 69 70 115 139 119v691h10v-700h-5c-65 -2 -134 -45 -134 -110c0 -66 62 -80 91 -80c11 0 31 1 48 9z" />
    <glyph glyph-name="iogonek" unicode="&#x12f;" horiz-adv-x="250" 
d="M129 -181l3 -9c-17 -7 -37 -10 -52 -10c-38 0 -100 18 -100 90c0 69 70 116 140 119v441h10v-450h-1c-66 0 -139 -44 -139 -110s62 -80 91 -80c11 0 31 1 48 9zM112 633c0 6 6 12 13 12c6 0 12 -6 12 -12c0 -7 -6 -13 -12 -13c-7 0 -13 6 -13 13z" />
    <glyph glyph-name="Idotaccent" unicode="&#x130;" horiz-adv-x="310" 
d="M150 0v700h10v-700h-10zM143 790c0 7 6 12 13 12c6 0 12 -5 12 -12c0 -8 -6 -13 -12 -13c-7 0 -13 5 -13 13z" />
    <glyph glyph-name="dotlessi" unicode="&#x131;" horiz-adv-x="250" 
d="M120 0v450h10v-450h-10z" />
    <glyph glyph-name="Jcircumflex" unicode="&#x134;" horiz-adv-x="341" 
d="M221 700v-553c0 -91 -23 -155 -121 -155c-33 0 -62 12 -80 25l6 9c16 -12 45 -24 74 -24c95 0 111 66 111 144v554h10zM40 750l165 90h4l164 -90l-8 -7l-158 87l-160 -87z" />
    <glyph glyph-name="jcircumflex" unicode="&#x135;" horiz-adv-x="251" 
d="M131 450v-483c0 -110 -41 -175 -141 -175c-33 0 -62 12 -80 25l6 9c16 -12 45 -24 74 -24c94 0 131 59 131 164v484h10zM128 708l113 -130l-7 -7l-108 124l-110 -124l-8 7l116 130h4z" />
    <glyph glyph-name="Kcommaaccent" unicode="&#x136;" horiz-adv-x="614" 
d="M563 700l-361 -335l372 -365h-15l-372 365l362 335h14zM120 0v700h10v-700h-10zM277 -80l1 10c26 -2 44 -21 44 -51c0 -47 -21 -65 -58 -79l-3 8c33 12 51 32 51 67c0 30 -15 42 -35 45z" />
    <glyph glyph-name="kcommaaccent" unicode="&#x137;" horiz-adv-x="445" 
d="M399 450l-237 -215l255 -235h-17l-253 235l236 215h16zM90 0v700h10v-700h-10zM199 -80l1 10c26 -2 44 -21 44 -51c0 -47 -21 -65 -58 -79l-3 8c33 12 51 32 51 67c0 30 -15 42 -35 45z" />
    <glyph glyph-name="Lacute" unicode="&#x139;" horiz-adv-x="555" 
d="M120 0v700h10v-690h405v-10h-415zM409 832l-154 -90l-5 7l155 91z" />
    <glyph glyph-name="lacute" unicode="&#x13a;" horiz-adv-x="271" 
d="M90 111v589h10v-574c0 -80 20 -119 81 -119c29 0 58 12 74 24l6 -9c-18 -13 -47 -25 -80 -25c-66 0 -91 38 -91 114zM229 832l-154 -90l-5 7l155 91z" />
    <glyph glyph-name="Lcommaaccent" unicode="&#x13b;" horiz-adv-x="555" 
d="M120 0v700h10v-690h405v-10h-415zM297 -80l1 10c26 -2 44 -21 44 -51c0 -47 -21 -65 -58 -79l-3 8c33 12 51 32 51 67c0 30 -15 42 -35 45z" />
    <glyph glyph-name="lcommaaccent" unicode="&#x13c;" horiz-adv-x="271" 
d="M90 111v589h10v-574c0 -80 20 -119 81 -119c29 0 58 12 74 24l6 -9c-18 -13 -47 -25 -80 -25c-66 0 -91 38 -91 114zM137 -80l1 10c26 -2 44 -21 44 -51c0 -47 -21 -65 -58 -79l-3 8c33 12 51 32 51 67c0 30 -15 42 -35 45z" />
    <glyph glyph-name="Lcaron" unicode="&#x13d;" horiz-adv-x="555" 
d="M120 0v700h10v-690h405v-10h-415zM357 700h10c6 -10 10 -22 10 -43c0 -57 -26 -98 -58 -113l-3 8c30 17 51 57 51 104c0 19 -4 34 -10 44z" />
    <glyph glyph-name="lcaron" unicode="&#x13e;" horiz-adv-x="271" 
d="M90 111v589h10v-574c0 -80 20 -119 81 -119c29 0 58 12 74 24l6 -9c-18 -13 -47 -25 -80 -25c-66 0 -91 38 -91 114zM227 700h10c6 -10 10 -22 10 -43c0 -57 -26 -98 -58 -113l-3 8c30 17 51 57 51 104c0 19 -4 34 -10 44z" />
    <glyph glyph-name="Ldot" unicode="&#x13f;" horiz-adv-x="555" 
d="M120 0v700h10v-690h405v-10h-415zM392 373c0 6 6 12 13 12c6 0 12 -6 12 -12c0 -7 -6 -13 -12 -13c-7 0 -13 6 -13 13z" />
    <glyph glyph-name="ldot" unicode="&#x140;" horiz-adv-x="271" 
d="M90 111v589h10v-574c0 -80 20 -119 81 -119c29 0 58 12 74 24l6 -9c-18 -13 -47 -25 -80 -25c-66 0 -91 38 -91 114zM222 302c0 6 6 12 13 12c6 0 12 -6 12 -12c0 -7 -6 -13 -12 -13c-7 0 -13 6 -13 13z" />
    <glyph glyph-name="Lslash" unicode="&#x141;" horiz-adv-x="565" 
d="M30 249v12l100 53v386h10v-380l204 109v-11l-204 -110v-298h405v-10h-415v303z" />
    <glyph glyph-name="lslash" unicode="&#x142;" horiz-adv-x="301" 
d="M20 262v12l90 48v378h10v-372l125 67v-11l-125 -68v-190c0 -80 20 -119 81 -119c29 0 58 12 74 24l6 -9c-18 -13 -47 -25 -80 -25c-66 0 -91 38 -91 114v200z" />
    <glyph glyph-name="Nacute" unicode="&#x143;" horiz-adv-x="800" 
d="M680 0h-8l-542 680v-680h-10v700h8l542 -682v682h10v-700zM529 832l-154 -90l-5 7l155 91z" />
    <glyph glyph-name="nacute" unicode="&#x144;" horiz-adv-x="554" 
d="M90 0v450h10v-74c38 46 115 82 183 82c130 0 191 -65 191 -206v-252h-10v249c0 135 -57 199 -181 199c-78 0 -155 -47 -183 -86v-362h-10zM366 700l-109 -141l-8 5l110 142z" />
    <glyph glyph-name="Ncommaaccent" unicode="&#x145;" horiz-adv-x="800" 
d="M680 0h-8l-542 680v-680h-10v700h8l542 -682v682h10v-700zM377 -80l1 10c26 -2 44 -21 44 -51c0 -47 -21 -65 -58 -79l-3 8c33 12 51 32 51 67c0 30 -15 42 -35 45z" />
    <glyph glyph-name="ncommaaccent" unicode="&#x146;" horiz-adv-x="554" 
d="M90 0v450h10v-74c38 46 115 82 183 82c130 0 191 -65 191 -206v-252h-10v249c0 135 -57 199 -181 199c-78 0 -155 -47 -183 -86v-362h-10zM263 -80l1 10c26 -2 44 -21 44 -51c0 -47 -21 -65 -58 -79l-3 8c33 12 51 32 51 67c0 30 -15 42 -35 45z" />
    <glyph glyph-name="Ncaron" unicode="&#x147;" horiz-adv-x="800" 
d="M680 0h-8l-542 680v-680h-10v700h8l542 -682v682h10v-700zM397 743l-165 90l7 7l160 -87l158 87l8 -7l-164 -90h-4z" />
    <glyph glyph-name="ncaron" unicode="&#x148;" horiz-adv-x="554" 
d="M90 0v450h10v-74c38 46 115 82 183 82c130 0 191 -65 191 -206v-252h-10v249c0 135 -57 199 -181 199c-78 0 -155 -47 -183 -86v-362h-10zM275 571l-115 130l7 7l110 -124l108 124l8 -7l-114 -130h-4z" />
    <glyph glyph-name="Omacron" unicode="&#x14c;" horiz-adv-x="804" 
d="M60 350c0 203 149 358 342 358s342 -155 342 -358s-149 -358 -342 -358s-342 155 -342 358zM70 350c0 -198 144 -348 332 -348s332 150 332 348s-144 348 -332 348s-332 -150 -332 -348zM255 790v10h294v-10h-294z" />
    <glyph glyph-name="omacron" unicode="&#x14d;" horiz-adv-x="570" 
d="M55 225c0 135 96 233 230 233s230 -98 230 -233s-96 -233 -230 -233s-230 98 -230 233zM65 225c0 -130 91 -223 220 -223s220 93 220 223s-91 223 -220 223s-220 -93 -220 -223zM168 640v10h234v-10h-234z" />
    <glyph glyph-name="Ohungarumlaut" unicode="&#x150;" horiz-adv-x="804" 
d="M60 350c0 203 149 358 342 358s342 -155 342 -358s-149 -358 -342 -358s-342 155 -342 358zM70 350c0 -198 144 -348 332 -348s332 150 332 348s-144 348 -332 348s-332 -150 -332 -348zM629 832l-154 -90l-5 7l155 91zM459 832l-154 -90l-5 7l155 91z" />
    <glyph glyph-name="ohungarumlaut" unicode="&#x151;" horiz-adv-x="570" 
d="M55 225c0 135 96 233 230 233s230 -98 230 -233s-96 -233 -230 -233s-230 98 -230 233zM65 225c0 -130 91 -223 220 -223s220 93 220 223s-91 223 -220 223s-220 -93 -220 -223zM457 700l-109 -141l-8 5l110 142zM317 700l-109 -141l-8 5l110 142z" />
    <glyph glyph-name="OE" unicode="&#x152;" horiz-adv-x="1050" 
d="M595 0v48c-48 -35 -117 -56 -191 -56c-204 0 -344 140 -344 358c0 201 135 358 333 358c81 0 147 -16 202 -56v48h375v-10h-365v-328h335v-10h-335v-342h375v-10h-385zM404 2c81 0 143 23 191 61v576c-54 43 -121 59 -201 59c-196 0 -324 -154 -324 -348
c0 -210 137 -348 334 -348z" />
    <glyph glyph-name="oe" unicode="&#x153;" horiz-adv-x="849" 
d="M766 69l6 -6c-38 -47 -103 -71 -163 -71c-66 0 -123 21 -164 60c-41 -40 -95 -60 -160 -60c-134 0 -230 98 -230 233s96 233 230 233c62 0 115 -21 155 -56c36 35 88 56 155 56c116 0 199 -79 199 -200c0 -8 -1 -15 -1 -23h-408c0 -143 87 -233 224 -233
c64 0 123 28 157 67zM285 2c61 0 114 21 153 57c-40 40 -63 97 -63 166c0 67 19 127 58 169c-39 35 -88 54 -148 54c-129 0 -220 -93 -220 -223s91 -223 220 -223zM591 448c-128 0 -199 -87 -206 -203h399c2 125 -76 203 -193 203z" />
    <glyph glyph-name="Racute" unicode="&#x154;" horiz-adv-x="613" 
d="M130 0h-10v700c39 0 118 2 138 2c191 0 239 -95 239 -192c0 -88 -69 -172 -186 -193l262 -317h-14l-260 315h-169v-315zM257 692c-20 0 -94 -1 -127 -2v-365h148c101 0 209 78 209 186c0 104 -60 181 -230 181zM369 832l-154 -90l-5 7l155 91z" />
    <glyph glyph-name="racute" unicode="&#x155;" horiz-adv-x="313" 
d="M90 0v450h10v-70c26 42 71 78 133 78c37 0 55 -6 70 -17l-3 -10c-22 13 -34 17 -67 17c-71 0 -108 -47 -133 -86v-362h-10zM285 700l-109 -141l-8 5l110 142z" />
    <glyph glyph-name="Rcommaaccent" unicode="&#x156;" horiz-adv-x="613" 
d="M130 0h-10v700c39 0 118 2 138 2c191 0 239 -95 239 -192c0 -88 -69 -172 -186 -193l262 -317h-14l-260 315h-169v-315zM257 692c-20 0 -94 -1 -127 -2v-365h148c101 0 209 78 209 186c0 104 -60 181 -230 181zM277 -80l1 10c26 -2 44 -21 44 -51c0 -47 -21 -65 -58 -79
l-3 8c33 12 51 32 51 67c0 30 -15 42 -35 45z" />
    <glyph glyph-name="rcommaaccent" unicode="&#x157;" horiz-adv-x="313" 
d="M90 0v450h10v-70c26 42 71 78 133 78c37 0 55 -6 70 -17l-3 -10c-22 13 -34 17 -67 17c-71 0 -108 -47 -133 -86v-362h-10zM123 -80l1 10c26 -2 44 -21 44 -51c0 -47 -21 -65 -58 -79l-3 8c33 12 51 32 51 67c0 30 -15 42 -35 45z" />
    <glyph glyph-name="Rcaron" unicode="&#x158;" horiz-adv-x="613" 
d="M130 0h-10v700c39 0 118 2 138 2c191 0 239 -95 239 -192c0 -88 -69 -172 -186 -193l262 -317h-14l-260 315h-169v-315zM257 692c-20 0 -94 -1 -127 -2v-365h148c101 0 209 78 209 186c0 104 -60 181 -230 181zM265 743l-165 90l7 7l160 -87l158 87l8 -7l-164 -90h-4z
" />
    <glyph glyph-name="rcaron" unicode="&#x159;" horiz-adv-x="313" 
d="M90 0v450h10v-70c26 42 71 78 133 78c37 0 55 -6 70 -17l-3 -10c-22 13 -34 17 -67 17c-71 0 -108 -47 -133 -86v-362h-10zM185 571l-115 130l7 7l110 -124l108 124l8 -7l-114 -130h-4z" />
    <glyph glyph-name="Sacute" unicode="&#x15a;" horiz-adv-x="541" 
d="M471 167c0 237 -392 140 -392 377c0 94 70 164 196 164c73 0 144 -27 181 -69l-7 -7c-43 45 -108 66 -177 66c-112 0 -183 -62 -183 -153c0 -231 392 -129 392 -378c0 -108 -96 -175 -216 -175c-77 0 -169 38 -205 96l8 7c42 -58 126 -93 195 -93c105 0 208 55 208 165z
M389 832l-154 -90l-5 7l155 91z" />
    <glyph glyph-name="sacute" unicode="&#x15b;" horiz-adv-x="401" 
d="M331 111c0 147 -258 75 -258 240c0 61 49 107 131 107c47 0 96 -18 120 -45l-7 -8c-28 29 -70 43 -115 43c-73 0 -119 -45 -119 -96c0 -156 258 -84 258 -240c0 -81 -66 -120 -144 -120c-50 0 -116 26 -137 58l9 6c24 -33 82 -54 127 -54c68 0 135 35 135 109zM299 700
l-109 -141l-8 5l110 142z" />
    <glyph glyph-name="Scircumflex" unicode="&#x15c;" horiz-adv-x="541" 
d="M471 167c0 237 -392 140 -392 377c0 94 70 164 196 164c73 0 144 -27 181 -69l-7 -7c-43 45 -108 66 -177 66c-112 0 -183 -62 -183 -153c0 -231 392 -129 392 -378c0 -108 -96 -175 -216 -175c-77 0 -169 38 -205 96l8 7c42 -58 126 -93 195 -93c105 0 208 55 208 165z
M104 750l165 90h4l164 -90l-8 -7l-158 87l-160 -87z" />
    <glyph glyph-name="scircumflex" unicode="&#x15d;" horiz-adv-x="401" 
d="M331 111c0 147 -258 75 -258 240c0 61 49 107 131 107c47 0 96 -18 120 -45l-7 -8c-28 29 -70 43 -115 43c-73 0 -119 -45 -119 -96c0 -156 258 -84 258 -240c0 -81 -66 -120 -144 -120c-50 0 -116 26 -137 58l9 6c24 -33 82 -54 127 -54c68 0 135 35 135 109zM207 708
l113 -130l-7 -7l-108 124l-110 -124l-8 7l116 130h4z" />
    <glyph glyph-name="Scedilla" unicode="&#x15e;" horiz-adv-x="541" 
d="M184 -180l4 9c27 -13 53 -19 74 -19c52 0 90 23 90 60c0 36 -24 60 -90 60h-6v62c-75 3 -162 40 -196 96l8 7c42 -58 126 -93 195 -93c105 0 208 55 208 165c0 237 -392 140 -392 377c0 94 70 164 196 164c73 0 144 -27 181 -69l-7 -7c-43 45 -108 66 -177 66
c-112 0 -183 -62 -183 -153c0 -231 392 -129 392 -378c0 -108 -96 -174 -215 -175v-52c69 -1 96 -29 96 -70s-39 -70 -100 -70c-27 0 -51 7 -78 20z" />
    <glyph glyph-name="scedilla" unicode="&#x15f;" horiz-adv-x="401" 
d="M115 -180l4 9c27 -13 53 -19 74 -19c52 0 90 23 90 60c0 36 -24 60 -90 60h-6v62c-49 3 -108 28 -127 58l9 6c24 -33 82 -54 127 -54c68 0 135 35 135 109c0 147 -258 75 -258 240c0 61 49 107 131 107c47 0 96 -18 120 -45l-7 -8c-28 29 -70 43 -115 43
c-73 0 -119 -45 -119 -96c0 -156 258 -84 258 -240c0 -81 -66 -120 -144 -120v-52c69 -1 96 -29 96 -70s-39 -70 -100 -70c-27 0 -51 7 -78 20z" />
    <glyph glyph-name="Scaron" unicode="&#x160;" horiz-adv-x="541" 
d="M471 167c0 237 -392 140 -392 377c0 94 70 164 196 164c73 0 144 -27 181 -69l-7 -7c-43 45 -108 66 -177 66c-112 0 -183 -62 -183 -153c0 -231 392 -129 392 -378c0 -108 -96 -175 -216 -175c-77 0 -169 38 -205 96l8 7c42 -58 126 -93 195 -93c105 0 208 55 208 165z
M275 743l-165 90l7 7l160 -87l158 87l8 -7l-164 -90h-4z" />
    <glyph glyph-name="scaron" unicode="&#x161;" horiz-adv-x="401" 
d="M331 111c0 147 -258 75 -258 240c0 61 49 107 131 107c47 0 96 -18 120 -45l-7 -8c-28 29 -70 43 -115 43c-73 0 -119 -45 -119 -96c0 -156 258 -84 258 -240c0 -81 -66 -120 -144 -120c-50 0 -116 26 -137 58l9 6c24 -33 82 -54 127 -54c68 0 135 35 135 109zM199 571
l-115 130l7 7l110 -124l108 124l8 -7l-114 -130h-4z" />
    <glyph glyph-name="Tcedilla" unicode="&#x162;" horiz-adv-x="590" 
d="M218 -180l4 9c27 -13 53 -19 74 -19c52 0 90 23 90 60c0 36 -24 60 -90 60h-6v760h-280v10h570v-10h-280v-750c69 -1 96 -29 96 -70s-39 -70 -100 -70c-27 0 -51 7 -78 20z" />
    <glyph glyph-name="tcedilla" unicode="&#x163;" horiz-adv-x="341" 
d="M104 -180l4 9c27 -13 53 -19 74 -19c52 0 90 23 90 60c0 36 -24 60 -90 60h-6v71c-68 16 -96 74 -96 170v404h10v-125h205v-10h-205v-260c0 -115 37 -174 131 -174c29 0 58 12 74 24l6 -9c-18 -13 -47 -25 -80 -25c-13 0 -25 1 -35 3v-59c69 -1 96 -29 96 -70
s-39 -70 -100 -70c-27 0 -51 7 -78 20z" />
    <glyph glyph-name="Tcaron" unicode="&#x164;" horiz-adv-x="590" 
d="M10 690v10h570v-10h-280v-690h-10v690h-280zM294 743l-165 90l7 7l160 -87l158 87l8 -7l-164 -90h-4z" />
    <glyph glyph-name="tcaron" unicode="&#x165;" horiz-adv-x="341" 
d="M80 171v404h10v-125h205v-10h-205v-260c0 -115 37 -174 131 -174c29 0 58 12 74 24l6 -9c-18 -13 -47 -25 -80 -25c-100 0 -141 60 -141 175zM237 700h10c6 -10 10 -22 10 -43c0 -57 -26 -98 -58 -113l-3 8c30 17 51 57 51 104c0 19 -4 34 -10 44z" />
    <glyph glyph-name="Umacron" unicode="&#x16a;" horiz-adv-x="751" 
d="M641 700v-405c0 -214 -119 -301 -256 -301c-155 0 -275 103 -275 308v398h10v-399c0 -196 116 -297 265 -297c134 0 246 87 246 294v402h10zM228 790v10h294v-10h-294z" />
    <glyph glyph-name="umacron" unicode="&#x16b;" horiz-adv-x="550" 
d="M460 450v-450h-10v83c-39 -47 -116 -91 -189 -91c-124 0 -181 65 -181 206v252h10v-249c0 -135 53 -199 173 -199c82 0 159 55 187 95v353h10zM158 640v10h234v-10h-234z" />
    <glyph glyph-name="Ubreve" unicode="&#x16c;" horiz-adv-x="751" 
d="M641 700v-405c0 -214 -119 -301 -256 -301c-155 0 -275 103 -275 308v398h10v-399c0 -196 116 -297 265 -297c134 0 246 87 246 294v402h10zM227 834l7 6c20 -25 67 -70 143 -70c66 0 113 36 140 70l7 -6c-27 -36 -76 -74 -147 -74c-83 0 -134 50 -150 74z" />
    <glyph glyph-name="ubreve" unicode="&#x16d;" horiz-adv-x="550" 
d="M460 450v-450h-10v83c-39 -47 -116 -91 -189 -91c-124 0 -181 65 -181 206v252h10v-249c0 -135 53 -199 173 -199c82 0 159 55 187 95v353h10zM146 674l7 6c20 -25 57 -70 123 -70c56 0 93 36 120 70l7 -6c-27 -36 -66 -74 -127 -74c-73 0 -114 50 -130 74z" />
    <glyph glyph-name="Uring" unicode="&#x16e;" horiz-adv-x="751" 
d="M641 700v-405c0 -214 -119 -301 -256 -301c-155 0 -275 103 -275 308v398h10v-399c0 -196 116 -297 265 -297c134 0 246 87 246 294v402h10zM283 775c0 51 41 75 92 75s93 -24 93 -75s-42 -78 -93 -78s-92 27 -92 78zM293 775c0 -46 36 -68 82 -68s83 22 83 68
s-37 65 -83 65s-82 -19 -82 -65z" />
    <glyph glyph-name="uring" unicode="&#x16f;" horiz-adv-x="550" 
d="M460 450v-450h-10v83c-39 -47 -116 -91 -189 -91c-124 0 -181 65 -181 206v252h10v-249c0 -135 53 -199 173 -199c82 0 159 55 187 95v353h10zM182 615c0 51 41 93 92 93s93 -42 93 -93s-42 -92 -93 -92s-92 41 -92 92zM192 615c0 -46 36 -82 82 -82s83 36 83 82
s-37 83 -83 83s-82 -37 -82 -83z" />
    <glyph glyph-name="Uhungarumlaut" unicode="&#x170;" horiz-adv-x="751" 
d="M641 700v-405c0 -214 -119 -301 -256 -301c-155 0 -275 103 -275 308v398h10v-399c0 -196 116 -297 265 -297c134 0 246 87 246 294v402h10zM589 832l-154 -90l-5 7l155 91zM419 832l-154 -90l-5 7l155 91z" />
    <glyph glyph-name="uhungarumlaut" unicode="&#x171;" horiz-adv-x="550" 
d="M460 450v-450h-10v83c-39 -47 -116 -91 -189 -91c-124 0 -181 65 -181 206v252h10v-249c0 -135 53 -199 173 -199c82 0 159 55 187 95v353h10zM447 700l-109 -141l-8 5l110 142zM307 700l-109 -141l-8 5l110 142z" />
    <glyph glyph-name="Uogonek" unicode="&#x172;" horiz-adv-x="751" 
d="M641 700v-405c0 -185 -89 -275 -201 -296c-52 -20 -96 -54 -96 -109c0 -66 62 -80 91 -80c11 0 31 1 48 9l3 -9c-17 -7 -37 -10 -52 -10c-38 0 -100 18 -100 90c0 50 33 84 80 106c-10 -1 -19 -2 -29 -2c-155 0 -275 103 -275 308v398h10v-399c0 -196 116 -297 265 -297
c134 0 246 87 246 294v402h10z" />
    <glyph glyph-name="uogonek" unicode="&#x173;" horiz-adv-x="550" 
d="M460 -181l3 -9c-17 -7 -37 -10 -52 -10c-38 0 -100 18 -100 90c0 69 70 115 139 119v74c-39 -47 -116 -91 -189 -91c-124 0 -181 65 -181 206v252h10v-249c0 -135 53 -199 173 -199c82 0 159 55 187 95v353h10v-450c-66 0 -139 -44 -139 -110s62 -80 91 -80
c11 0 31 1 48 9z" />
    <glyph glyph-name="Ydieresis" unicode="&#x178;" horiz-adv-x="554" 
d="M534 700l-253 -385v-315h-10v315l-251 385h13l243 -375l245 375h13zM148 790c0 7 6 12 13 12c6 0 12 -5 12 -12c0 -8 -6 -13 -12 -13c-7 0 -13 5 -13 13zM382 790c0 7 6 12 13 12c6 0 12 -4 12 -12s-6 -13 -12 -13c-7 0 -13 5 -13 13z" />
    <glyph glyph-name="Zacute" unicode="&#x179;" horiz-adv-x="620" 
d="M60 690v10h510v-2l-512 -688h522v-10h-540v2l511 688h-491zM429 832l-154 -90l-5 7l155 91z" />
    <glyph glyph-name="zacute" unicode="&#x17a;" horiz-adv-x="475" 
d="M65 440v10h360v-2l-357 -438h352v-10h-370v2l356 438h-341zM336 700l-109 -141l-8 5l110 142z" />
    <glyph glyph-name="Zdotaccent" unicode="&#x17b;" horiz-adv-x="620" 
d="M60 690v10h510v-2l-512 -688h522v-10h-540v2l511 688h-491zM287 790c0 7 6 12 13 12c6 0 12 -5 12 -12c0 -8 -6 -13 -12 -13c-7 0 -13 5 -13 13z" />
    <glyph glyph-name="zdotaccent" unicode="&#x17c;" horiz-adv-x="475" 
d="M65 440v10h360v-2l-357 -438h352v-10h-370v2l356 438h-341zM224 633c0 6 6 12 13 12c6 0 12 -6 12 -12c0 -7 -6 -13 -12 -13c-7 0 -13 6 -13 13z" />
    <glyph glyph-name="Zcaron" unicode="&#x17d;" horiz-adv-x="620" 
d="M60 690v10h510v-2l-512 -688h522v-10h-540v2l511 688h-491zM305 743l-165 90l7 7l160 -87l158 87l8 -7l-164 -90h-4z" />
    <glyph glyph-name="zcaron" unicode="&#x17e;" horiz-adv-x="475" 
d="M65 440v10h360v-2l-357 -438h352v-10h-370v2l356 438h-341zM236 571l-115 130l7 7l110 -124l108 124l8 -7l-114 -130h-4z" />
    <glyph glyph-name="longs" unicode="&#x17f;" horiz-adv-x="251" 
d="M110 0v523c0 125 51 185 151 185c54 0 88 -18 110 -35l-6 -9c-26 19 -55 34 -104 34c-94 0 -141 -55 -141 -184v-514h-10z" />
    <glyph glyph-name="uni018F" unicode="&#x18f;" horiz-adv-x="776" 
d="M50 362h656c-4 205 -135 336 -339 336c-74 0 -146 -18 -202 -62l-6 7c54 47 137 65 208 65c214 0 349 -136 349 -354c0 -201 -125 -362 -333 -362c-206 0 -332 162 -333 370zM382 2c205 0 323 157 324 350h-646c3 -195 126 -350 322 -350z" />
    <glyph glyph-name="florin" unicode="&#x192;" horiz-adv-x="584" 
d="M327 514l-12 -64h197v-10h-199l-86 -473c-20 -111 -61 -175 -161 -175c-33 0 -62 12 -80 25l6 9c16 -12 45 -24 74 -24c94 0 131 58 151 167l85 471h-183v10h185l13 73c23 125 71 185 171 185c54 0 88 -18 110 -35l-6 -9c-26 19 -55 34 -104 34c-94 0 -137 -54 -161 -184
z" />
    <glyph glyph-name="uni01DD" unicode="&#x1dd;" horiz-adv-x="529" 
d="M83 381l-6 6c38 47 113 71 173 71c135 0 224 -91 224 -233c0 -131 -72 -233 -213 -233c-123 0 -206 79 -206 200c0 8 1 25 1 33h408c0 122 -77 223 -214 223c-64 0 -133 -28 -167 -67zM264 2c122 0 200 91 200 213h-399c-5 -138 76 -213 199 -213z" />
    <glyph glyph-name="Scommaaccent" unicode="&#x218;" horiz-adv-x="541" 
d="M471 167c0 237 -392 140 -392 377c0 94 70 164 196 164c73 0 144 -27 181 -69l-7 -7c-43 45 -108 66 -177 66c-112 0 -183 -62 -183 -153c0 -231 392 -129 392 -378c0 -108 -96 -175 -216 -175c-77 0 -169 38 -205 96l8 7c42 -58 126 -93 195 -93c105 0 208 55 208 165z
M247 -80l1 10c26 -2 44 -21 44 -51c0 -47 -21 -65 -58 -79l-3 8c33 12 51 32 51 67c0 30 -15 42 -35 45z" />
    <glyph glyph-name="scommaaccent" unicode="&#x219;" horiz-adv-x="401" 
d="M331 111c0 147 -258 75 -258 240c0 61 49 107 131 107c47 0 96 -18 120 -45l-7 -8c-28 29 -70 43 -115 43c-73 0 -119 -45 -119 -96c0 -156 258 -84 258 -240c0 -81 -66 -120 -144 -120c-50 0 -116 26 -137 58l9 6c24 -33 82 -54 127 -54c68 0 135 35 135 109zM187 -80
l1 10c26 -2 44 -21 44 -51c0 -47 -21 -65 -58 -79l-3 8c33 12 51 32 51 67c0 30 -15 42 -35 45z" />
    <glyph glyph-name="Tcommaaccent" unicode="&#x21a;" horiz-adv-x="590" 
d="M10 690v10h570v-10h-280v-690h-10v690h-280zM282 -80l1 10c26 -2 44 -21 44 -51c0 -47 -21 -65 -58 -79l-3 8c33 12 51 32 51 67c0 30 -15 42 -35 45z" />
    <glyph glyph-name="tcommaaccent" unicode="&#x21b;" horiz-adv-x="341" 
d="M80 171v404h10v-125h205v-10h-205v-260c0 -115 37 -174 131 -174c29 0 58 12 74 24l6 -9c-18 -13 -47 -25 -80 -25c-100 0 -141 60 -141 175zM182 -80l1 10c26 -2 44 -21 44 -51c0 -47 -21 -65 -58 -79l-3 8c33 12 51 32 51 67c0 30 -15 42 -35 45z" />
    <glyph glyph-name="uni0237" unicode="&#x237;" horiz-adv-x="251" 
d="M131 450v-483c0 -110 -41 -175 -141 -175c-33 0 -62 12 -80 25l6 9c16 -12 45 -24 74 -24c94 0 131 59 131 164v484h10z" />
    <glyph glyph-name="uni0259" unicode="&#x259;" horiz-adv-x="529" 
d="M83 381l-6 6c38 47 113 71 173 71c135 0 224 -91 224 -233c0 -131 -72 -233 -213 -233c-123 0 -206 79 -206 200c0 8 1 25 1 33h408c0 122 -77 223 -214 223c-64 0 -133 -28 -167 -67zM264 2c122 0 200 91 200 213h-399c-5 -138 76 -213 199 -213z" />
    <glyph glyph-name="afii57929" unicode="&#x2bc;" horiz-adv-x="181" 
d="M92 633l8 8c10 -11 21 -30 21 -59c0 -53 -19 -85 -58 -105l-3 8c33 17 51 52 51 95c0 28 -11 45 -19 53z" />
    <glyph glyph-name="circumflex" unicode="&#x2c6;" horiz-adv-x="353" 
d="M180 708l113 -130l-7 -7l-108 124l-110 -124l-8 7l116 130h4z" />
    <glyph glyph-name="caron" unicode="&#x2c7;" horiz-adv-x="353" 
d="M175 571l-115 130l7 7l110 -124l108 124l8 -7l-114 -130h-4z" />
    <glyph glyph-name="breve" unicode="&#x2d8;" horiz-adv-x="377" 
d="M60 674l7 6c20 -25 57 -70 123 -70c56 0 93 36 120 70l7 -6c-27 -36 -66 -74 -127 -74c-73 0 -114 50 -130 74z" />
    <glyph glyph-name="dotaccent" unicode="&#x2d9;" horiz-adv-x="145" 
d="M60 633c0 6 6 12 13 12c6 0 12 -6 12 -12c0 -7 -6 -13 -12 -13c-7 0 -13 6 -13 13z" />
    <glyph glyph-name="ring" unicode="&#x2da;" horiz-adv-x="305" 
d="M60 615c0 51 41 93 92 93s93 -42 93 -93s-42 -92 -93 -92s-92 41 -92 92zM70 615c0 -46 36 -82 82 -82s83 36 83 82s-37 83 -83 83s-82 -37 -82 -83z" />
    <glyph glyph-name="ogonek" unicode="&#x2db;" horiz-adv-x="272" 
d="M209 -181l3 -9c-17 -7 -37 -10 -52 -10c-38 0 -100 18 -100 90s77 120 149 120v-10c-66 0 -139 -44 -139 -110s62 -80 91 -80c11 0 31 1 48 9z" />
    <glyph glyph-name="tilde" unicode="&#x2dc;" horiz-adv-x="399" 
d="M66 596l-6 7c38 31 65 41 87 41c47 0 67 -49 108 -49c19 0 43 11 77 43l7 -7c-38 -35 -65 -46 -86 -46c-44 0 -64 49 -109 49c-20 0 -44 -10 -78 -38z" />
    <glyph glyph-name="hungarumlaut" unicode="&#x2dd;" horiz-adv-x="377" 
d="M317 700l-109 -141l-8 5l110 142zM177 700l-109 -141l-8 5l110 142z" />
    <glyph glyph-name="gravecomb" unicode="&#x300;" horiz-adv-x="0" 
d="M-251 559l-109 141l7 6l110 -142z" />
    <glyph glyph-name="acutecomb" unicode="&#x301;" horiz-adv-x="0" 
d="M-164 700l-109 -141l-8 5l110 142z" />
    <glyph glyph-name="uni0394" unicode="&#x394;" horiz-adv-x="696" 
d="M40 0l303 708h3l310 -708h-616zM344 688l-289 -678h585z" />
    <glyph glyph-name="uni0394" unicode="&#x2206;" horiz-adv-x="696" 
d="M40 0l303 708h3l310 -708h-616zM344 688l-289 -678h585z" />
    <glyph glyph-name="uni03A9" unicode="&#x3a9;" horiz-adv-x="804" 
d="M97 0v10h194c-136 46 -231 178 -231 340c0 203 149 358 342 358s342 -155 342 -358c0 -162 -95 -294 -232 -340h194v-10h-231v10c151 33 259 168 259 340c0 198 -144 348 -332 348s-332 -150 -332 -348c0 -172 107 -307 258 -340v-10h-231z" />
    <glyph glyph-name="uni03A9" unicode="&#x2126;" horiz-adv-x="804" 
d="M97 0v10h194c-136 46 -231 178 -231 340c0 203 149 358 342 358s342 -155 342 -358c0 -162 -95 -294 -232 -340h194v-10h-231v10c151 33 259 168 259 340c0 198 -144 348 -332 348s-332 -150 -332 -348c0 -172 107 -307 258 -340v-10h-231z" />
    <glyph glyph-name="pi" unicode="&#x3c0;" horiz-adv-x="651" 
d="M56 440v10h539v-10h-115v-334c0 -70 10 -99 57 -99c23 0 52 12 68 24l6 -9c-18 -13 -47 -25 -74 -25c-47 0 -67 28 -67 94v349h-289v-92c0 -284 -58 -348 -141 -348v10c81 0 131 72 131 329v101h-115z" />
    <glyph glyph-name="afii10023" unicode="&#x401;" horiz-adv-x="575" 
d="M120 0v700h375v-10h-365v-328h335v-10h-335v-342h375v-10h-385zM178 790c0 7 6 12 13 12c6 0 12 -5 12 -12c0 -8 -6 -13 -12 -13c-7 0 -13 5 -13 13zM412 790c0 7 6 12 13 12c6 0 12 -4 12 -12s-6 -13 -12 -13c-7 0 -13 5 -13 13z" />
    <glyph glyph-name="afii10051" unicode="&#x402;" horiz-adv-x="757" 
d="M697 205c0 -158 -71 -213 -162 -213c-35 0 -70 18 -79 25l6 9c16 -12 45 -24 74 -24c89 0 151 59 151 203c0 146 -69 208 -197 208c-97 0 -149 -44 -190 -70v-343h-10v690h-280v10h570v-10h-280v-336c42 30 99 69 192 69c120 0 205 -58 205 -218z" />
    <glyph glyph-name="afii10052" unicode="&#x403;" horiz-adv-x="500" 
d="M120 0v700h380v-10h-370v-690h-10zM429 832l-154 -90l-5 7l155 91z" />
    <glyph glyph-name="afii10053" unicode="&#x404;" horiz-adv-x="684" 
d="M478 362v-10h-408v-2c0 -206 138 -348 344 -348c81 0 145 23 213 70l7 -7c-70 -50 -135 -73 -221 -73c-208 0 -353 143 -353 358c0 204 135 358 349 358c71 0 154 -18 208 -65l-6 -7c-56 44 -128 62 -202 62c-203 0 -334 -143 -339 -336h408z" />
    <glyph glyph-name="afii10054" unicode="&#x405;" horiz-adv-x="541" 
d="M471 167c0 237 -392 140 -392 377c0 94 70 164 196 164c73 0 144 -27 181 -69l-7 -7c-43 45 -108 66 -177 66c-112 0 -183 -62 -183 -153c0 -231 392 -129 392 -378c0 -108 -96 -175 -216 -175c-77 0 -169 38 -205 96l8 7c42 -58 126 -93 195 -93c105 0 208 55 208 165z
" />
    <glyph glyph-name="afii10055" unicode="&#x406;" horiz-adv-x="310" 
d="M150 0v700h10v-700h-10z" />
    <glyph glyph-name="afii10056" unicode="&#x407;" horiz-adv-x="310" 
d="M75 790c0 6 6 12 13 12c6 0 12 -6 12 -12c0 -7 -6 -13 -12 -13c-7 0 -13 6 -13 13zM210 790c0 6 6 12 13 12c6 0 12 -6 12 -12c0 -7 -6 -13 -12 -13c-7 0 -13 6 -13 13zM150 0v700h10v-700h-10z" />
    <glyph glyph-name="afii10057" unicode="&#x408;" horiz-adv-x="341" 
d="M221 700v-553c0 -91 -23 -155 -121 -155c-33 0 -62 12 -80 25l6 9c16 -12 45 -24 74 -24c95 0 111 66 111 144v554h10z" />
    <glyph glyph-name="afii10058" unicode="&#x409;" horiz-adv-x="1047" 
d="M590 0v690h-354l-10 -132c-39 -521 -139 -558 -196 -558v10c42 0 149 28 186 550l10 140h374v-301c51 4 93 6 125 6c179 0 262 -75 262 -196c0 -143 -104 -211 -266 -211c-49 0 -90 2 -131 2zM727 395c-34 0 -76 -1 -127 -6v-379c36 0 72 -2 122 -2c165 0 255 70 255 202
c0 115 -83 185 -250 185z" />
    <glyph glyph-name="afii10059" unicode="&#x40a;" horiz-adv-x="1092" 
d="M120 0v700h10v-311h505v311h10v-311c51 4 93 6 125 6c179 0 262 -70 262 -191c0 -143 -104 -206 -266 -206c-49 0 -90 2 -131 2v379h-505v-379h-10zM645 379v-369c36 0 72 -2 122 -2c165 0 255 65 255 197c0 115 -83 180 -250 180c-34 0 -76 -1 -127 -6z" />
    <glyph glyph-name="afii10060" unicode="&#x40b;" horiz-adv-x="757" 
d="M10 690v10h570v-10h-280v-337c40 30 109 70 203 70c120 0 194 -68 194 -224v-199h-10v202c0 139 -66 211 -186 211c-98 0 -160 -44 -201 -70v-343h-10v690h-280z" />
    <glyph glyph-name="afii10061" unicode="&#x40c;" horiz-adv-x="614" 
d="M563 700l-361 -335l372 -365h-15l-372 365l362 335h14zM120 0v700h10v-700h-10zM429 832l-154 -90l-5 7l155 91z" />
    <glyph glyph-name="afii10062" unicode="&#x40e;" horiz-adv-x="631" 
d="M611 700l-248 -546c-48 -107 -86 -154 -143 -154c-21 0 -46 4 -65 19l4 9c19 -13 40 -19 60 -19c54 0 90 54 119 114l15 31l-333 546h11l327 -536l242 536h11zM164 840h10c30 -43 83 -80 152 -80c66 0 129 36 148 80h10c-19 -52 -91 -90 -158 -90c-74 0 -137 40 -162 90z
" />
    <glyph glyph-name="afii10145" unicode="&#x40f;" horiz-adv-x="765" 
d="M120 0v700h10v-690h505v690h10v-700h-258v-160h-10v160h-257z" />
    <glyph glyph-name="afii10017" unicode="&#x410;" horiz-adv-x="685" 
d="M30 0l311 708h3l311 -708h-11l-122 277h-360l-121 -277h-11zM342 688l-176 -401h352z" />
    <glyph glyph-name="afii10018" unicode="&#x411;" horiz-adv-x="607" 
d="M490 700v-10h-360v-291c51 4 103 6 135 6c179 0 262 -75 262 -196c0 -143 -104 -211 -266 -211c-49 0 -100 2 -141 2v700h370zM267 395c-34 0 -86 -1 -137 -6v-379c36 0 82 -2 132 -2c165 0 255 70 255 202c0 115 -83 185 -250 185z" />
    <glyph glyph-name="afii10019" unicode="&#x412;" horiz-adv-x="617" 
d="M120 0v700c39 0 118 2 172 2c167 0 215 -75 215 -172c0 -102 -78 -158 -160 -167v-2c123 -10 190 -71 190 -172c0 -137 -104 -191 -242 -191c-56 0 -134 2 -175 2zM294 355h-164v-345c36 0 112 -2 162 -2c145 0 235 58 235 182c0 104 -83 165 -233 165zM290 692
c-53 0 -127 -1 -160 -2v-325h172c106 0 195 65 195 166c0 104 -60 161 -207 161z" />
    <glyph glyph-name="afii10020" unicode="&#x413;" horiz-adv-x="500" 
d="M120 0v700h380v-10h-370v-690h-10z" />
    <glyph glyph-name="afii10021" unicode="&#x414;" horiz-adv-x="734" 
d="M20 -140v150h75c30 37 109 194 129 550l8 140h367v-690h95v-150h-10v140h-654v-140h-10zM234 558c-22 -360 -99 -515 -127 -548h482v680h-347z" />
    <glyph glyph-name="afii10022" unicode="&#x415;" horiz-adv-x="575" 
d="M120 0v700h375v-10h-365v-328h335v-10h-335v-342h375v-10h-385z" />
    <glyph glyph-name="afii10024" unicode="&#x416;" horiz-adv-x="894" 
d="M843 700l-323 -334l334 -366h-14l-333 365l322 335h14zM442 0v700h10v-700h-10zM374 365l-323 335h14l322 -335l-333 -365h-14z" />
    <glyph glyph-name="afii10025" unicode="&#x417;" horiz-adv-x="565" 
d="M258 -8c-72 0 -171 38 -208 94l7 5c50 -59 140 -89 198 -89c138 0 220 78 220 194c0 97 -67 157 -166 157h-97v10h90c71 0 146 76 146 173c0 108 -78 162 -177 162c-92 0 -148 -34 -195 -83l-7 4c48 58 120 89 198 89c117 0 191 -65 191 -175c0 -68 -41 -143 -114 -171
v-3c87 -6 141 -83 141 -163c0 -129 -96 -204 -227 -204z" />
    <glyph glyph-name="afii10026" unicode="&#x418;" horiz-adv-x="800" 
d="M130 0h-10v700h10v-685l540 685h10v-700h-10v685z" />
    <glyph glyph-name="afii10027" unicode="&#x419;" horiz-adv-x="800" 
d="M130 0h-10v700h10v-685l540 685h10v-700h-10v685zM234 840h10c30 -43 83 -80 152 -80c66 0 129 36 148 80h10c-19 -52 -91 -90 -158 -90c-74 0 -137 40 -162 90z" />
    <glyph glyph-name="afii10028" unicode="&#x41a;" horiz-adv-x="614" 
d="M563 700l-361 -335l372 -365h-15l-372 365l362 335h14zM120 0v700h10v-700h-10z" />
    <glyph glyph-name="afii10029" unicode="&#x41b;" horiz-adv-x="720" 
d="M590 0v690h-354l-10 -132c-39 -521 -139 -558 -196 -558v10c42 0 149 28 186 550l10 140h374v-700h-10z" />
    <glyph glyph-name="afii10030" unicode="&#x41c;" horiz-adv-x="872" 
d="M120 0v700h11l310 -422l300 422h11v-700h-10v686l-300 -423h-3l-309 420v-683h-10z" />
    <glyph glyph-name="afii10031" unicode="&#x41d;" horiz-adv-x="775" 
d="M645 0v352h-515v-352h-10v700h10v-338h515v338h10v-700h-10z" />
    <glyph glyph-name="afii10032" unicode="&#x41e;" horiz-adv-x="804" 
d="M60 350c0 203 149 358 342 358s342 -155 342 -358s-149 -358 -342 -358s-342 155 -342 358zM70 350c0 -198 144 -348 332 -348s332 150 332 348s-144 348 -332 348s-332 -150 -332 -348z" />
    <glyph glyph-name="afii10033" unicode="&#x41f;" horiz-adv-x="775" 
d="M645 0v690h-515v-690h-10v700h535v-700h-10z" />
    <glyph glyph-name="afii10034" unicode="&#x420;" horiz-adv-x="567" 
d="M130 0h-10v700c39 0 118 2 152 2c187 0 235 -105 235 -202c0 -102 -65 -205 -245 -205c-40 0 -86 2 -132 5v-300zM273 692c-36 0 -110 -1 -143 -2v-380c46 -3 85 -5 131 -5c164 0 236 88 236 196c0 104 -60 191 -224 191z" />
    <glyph glyph-name="afii10035" unicode="&#x421;" horiz-adv-x="657" 
d="M611 75l6 -8c-51 -48 -135 -75 -213 -75c-204 0 -344 140 -344 358c0 201 135 358 333 358c86 0 154 -18 211 -63l-7 -7c-54 44 -122 60 -203 60c-196 0 -324 -154 -324 -348c0 -210 137 -348 334 -348c85 0 157 30 207 73z" />
    <glyph glyph-name="afii10036" unicode="&#x422;" horiz-adv-x="590" 
d="M10 690v10h570v-10h-280v-690h-10v690h-280z" />
    <glyph glyph-name="afii10037" unicode="&#x423;" horiz-adv-x="631" 
d="M611 700l-248 -546c-48 -107 -86 -154 -143 -154c-21 0 -46 4 -65 19l4 9c19 -13 40 -19 60 -19c54 0 90 54 119 114l15 31l-333 546h11l327 -536l242 536h11z" />
    <glyph glyph-name="afii10038" unicode="&#x424;" horiz-adv-x="824" 
d="M406 -8v90h-11c-203 0 -345 101 -345 278s137 278 349 278h7v70h10v-70h7c218 0 351 -103 351 -278c0 -176 -143 -278 -345 -278h-13v-90h-10zM424 628h-8v-536h13c188 0 335 90 335 268s-141 268 -340 268zM60 360c0 -176 145 -268 336 -268h10v536h-7
c-197 0 -339 -92 -339 -268z" />
    <glyph glyph-name="afii10039" unicode="&#x425;" horiz-adv-x="654" 
d="M605 700l-271 -344l280 -356h-13l-274 348l-274 -348h-13l281 356l-270 344h13l263 -335l265 335h13z" />
    <glyph glyph-name="afii10040" unicode="&#x426;" horiz-adv-x="785" 
d="M120 0v700h10v-690h510v690h10v-690h95v-150h-10v140h-615z" />
    <glyph glyph-name="afii10041" unicode="&#x427;" horiz-adv-x="615" 
d="M495 700v-700h-10v344c-43 -29 -129 -67 -220 -67c-120 0 -205 68 -205 224v199h10v-202c0 -139 77 -211 197 -211c95 0 176 42 218 68v345h10z" />
    <glyph glyph-name="afii10042" unicode="&#x428;" horiz-adv-x="990" 
d="M120 0v700h10v-690h360v690h10v-690h360v690h10v-700h-750z" />
    <glyph glyph-name="afii10043" unicode="&#x429;" horiz-adv-x="1005" 
d="M120 0v700h10v-690h360v690h10v-690h360v690h10v-690h95v-150h-10v140h-835z" />
    <glyph glyph-name="afii10044" unicode="&#x42a;" horiz-adv-x="661" 
d="M0 690v10h204v-301c51 4 103 6 135 6c179 0 262 -75 262 -196c0 -143 -104 -211 -266 -211c-49 0 -100 2 -141 2v690h-194zM341 395c-34 0 -86 -1 -137 -6v-379c36 0 82 -2 132 -2c165 0 255 70 255 202c0 115 -83 185 -250 185z" />
    <glyph glyph-name="afii10045" unicode="&#x42b;" horiz-adv-x="805" 
d="M675 0v700h10v-700h-10zM257 395c-34 0 -76 -1 -127 -6v-379c36 0 72 -2 122 -2c165 0 255 70 255 202c0 115 -83 185 -250 185zM130 700v-301c51 4 93 6 125 6c179 0 262 -75 262 -196c0 -143 -104 -211 -266 -211c-49 0 -90 2 -131 2v700h10z" />
    <glyph glyph-name="afii10046" unicode="&#x42c;" horiz-adv-x="587" 
d="M267 395c-34 0 -86 -1 -137 -6v-379c36 0 82 -2 132 -2c165 0 255 70 255 202c0 115 -83 185 -250 185zM130 700v-301c51 4 103 6 135 6c179 0 262 -75 262 -196c0 -143 -104 -211 -266 -211c-49 0 -100 2 -141 2v700h10z" />
    <glyph glyph-name="afii10047" unicode="&#x42d;" horiz-adv-x="684" 
d="M206 352v10h408c-4 205 -135 336 -339 336c-74 0 -146 -18 -202 -62l-6 7c54 47 137 65 208 65c214 0 349 -136 349 -354c0 -201 -135 -362 -343 -362c-86 0 -161 23 -231 73l7 7c68 -47 142 -70 223 -70c205 0 333 157 334 350h-408z" />
    <glyph glyph-name="afii10048" unicode="&#x42e;" horiz-adv-x="1072" 
d="M120 0v700h10v-338h218c6 197 143 346 332 346c193 0 332 -155 332 -358s-139 -358 -332 -358s-332 155 -332 358v2h-218v-352h-10zM358 350c0 -198 134 -348 322 -348s322 150 322 348s-134 348 -322 348s-322 -150 -322 -348z" />
    <glyph glyph-name="afii10049" unicode="&#x42f;" horiz-adv-x="603" 
d="M473 0v295h-192l-227 -295h-14l230 296c-88 15 -174 94 -174 195c0 121 84 211 246 211c49 0 100 -2 141 -2v-700h-10zM276 305h197v385c-36 0 -82 2 -132 2c-165 0 -235 -94 -235 -202c0 -95 85 -172 170 -185z" />
    <glyph glyph-name="afii10065" unicode="&#x430;" horiz-adv-x="456" 
d="M89 409l-5 8c45 28 85 41 134 41c119 0 158 -65 158 -176v-282h-10v85c-31 -43 -82 -89 -176 -89c-85 0 -140 50 -140 125c0 89 74 135 171 135c38 0 99 -7 145 -40c0 140 -3 232 -150 232c-50 0 -82 -12 -127 -39zM189 6c100 0 147 53 177 95v102c-41 29 -91 43 -147 43
c-77 0 -159 -37 -159 -124c0 -74 57 -116 129 -116z" />
    <glyph glyph-name="afii10066" unicode="&#x431;" horiz-adv-x="560" 
d="M458 709l7 -3c-45 -79 -127 -37 -249 -88c-123 -51 -146 -202 -151 -315h2c33 93 124 147 218 147c140 0 220 -94 220 -229c0 -126 -97 -229 -222 -229c-135 0 -228 101 -228 272c0 102 7 301 161 364c120 49 196 10 242 81zM65 265c0 -173 96 -263 217 -263
c120 0 213 97 213 219c0 130 -77 219 -210 219c-129 0 -207 -94 -220 -175z" />
    <glyph glyph-name="afii10067" unicode="&#x432;" horiz-adv-x="477" 
d="M90 0v450c39 0 78 2 132 2c116 0 175 -33 175 -112c0 -49 -29 -97 -100 -107v-2c88 -10 120 -48 120 -112c0 -77 -62 -121 -192 -121c-56 0 -94 2 -135 2zM244 225h-144v-215c36 0 72 -2 122 -2c121 0 185 36 185 112c0 73 -58 105 -163 105zM220 442
c-53 0 -87 -1 -120 -2v-205h152c83 0 135 42 135 106c0 81 -76 101 -167 101z" />
    <glyph glyph-name="afii10068" unicode="&#x433;" horiz-adv-x="340" 
d="M90 0v450h250v-10h-240v-440h-10z" />
    <glyph glyph-name="afii10069" unicode="&#x434;" horiz-adv-x="504" 
d="M474 -120v120h-454v-120h-10v130h55c26 32 69 133 79 300l8 140h257v-440h75v-130h-10zM154 308c-10 -154 -53 -269 -77 -298h322v430h-237z" />
    <glyph glyph-name="afii10070" unicode="&#x435;" horiz-adv-x="529" 
d="M446 69l6 -6c-38 -47 -103 -71 -163 -71c-135 0 -234 91 -234 233c0 131 72 233 220 233c116 0 199 -79 199 -200c0 -8 -1 -15 -1 -23h-408c0 -143 87 -233 224 -233c64 0 123 28 157 67zM271 448c-128 0 -199 -87 -206 -203h399c2 125 -76 203 -193 203z" />
    <glyph glyph-name="afii10072" unicode="&#x436;" horiz-adv-x="619" 
d="M577 450l-200 -215l212 -235h-14l-212 235l200 215h14zM303 0v450h10v-450h-10zM240 235l-201 215h14l200 -215l-209 -235h-14z" />
    <glyph glyph-name="afii10073" unicode="&#x437;" horiz-adv-x="452" 
d="M213 -8c-50 0 -133 23 -163 59l6 9c38 -39 110 -58 155 -58c103 0 171 47 171 123c0 63 -50 100 -128 100h-76v10h71c59 0 113 48 113 111c0 65 -56 102 -142 102c-68 0 -113 -23 -149 -55l-6 7c37 38 95 58 156 58c98 0 151 -42 151 -114c0 -44 -24 -88 -85 -111v-2
c68 -4 105 -54 105 -106c0 -84 -75 -133 -179 -133z" />
    <glyph glyph-name="afii10074" unicode="&#x438;" horiz-adv-x="560" 
d="M100 0h-10v450h10v-435l360 435h10v-450h-10v435z" />
    <glyph glyph-name="afii10075" unicode="&#x439;" horiz-adv-x="560" 
d="M100 0h-10v450h10v-435l360 435h10v-450h-10v435zM165 690h10c0 -57 43 -100 112 -100c66 0 108 43 108 100h10c0 -64 -51 -110 -118 -110c-74 0 -122 46 -122 110z" />
    <glyph glyph-name="afii10076" unicode="&#x43a;" horiz-adv-x="463" 
d="M417 450l-255 -215l271 -235h-17l-269 235l254 215h16zM90 0v450h10v-450h-10z" />
    <glyph glyph-name="afii10077" unicode="&#x43b;" horiz-adv-x="520" 
d="M420 0v440h-237l-8 -132c-17 -277 -99 -308 -135 -308v10c24 0 109 23 125 300l8 140h257v-450h-10z" />
    <glyph glyph-name="afii10078" unicode="&#x43c;" horiz-adv-x="616" 
d="M90 0v450h11l210 -293l204 293h11v-450h-10v436l-204 -294h-3l-209 294v-436h-10z" />
    <glyph glyph-name="afii10079" unicode="&#x43d;" horiz-adv-x="555" 
d="M455 0v225h-355v-225h-10v450h10v-215h355v215h10v-450h-10z" />
    <glyph glyph-name="afii10080" unicode="&#x43e;" horiz-adv-x="570" 
d="M55 225c0 135 96 233 230 233s230 -98 230 -233s-96 -233 -230 -233s-230 98 -230 233zM65 225c0 -130 91 -223 220 -223s220 93 220 223s-91 223 -220 223s-220 -93 -220 -223z" />
    <glyph glyph-name="afii10081" unicode="&#x43f;" horiz-adv-x="550" 
d="M450 0v440h-350v-440h-10v450h370v-450h-10z" />
    <glyph glyph-name="afii10082" unicode="&#x440;" horiz-adv-x="551" 
d="M90 -200v650h10v-71c38 46 113 79 181 79c135 0 215 -93 215 -226c0 -137 -90 -240 -227 -240c-64 0 -125 16 -169 50v-242h-10zM281 448c-78 0 -153 -44 -181 -83v-310c56 -41 116 -53 170 -53c127 0 216 93 216 227c0 131 -75 219 -205 219z" />
    <glyph glyph-name="afii10083" unicode="&#x441;" horiz-adv-x="492" 
d="M446 69l6 -6c-38 -47 -103 -71 -163 -71c-135 0 -234 91 -234 233c0 131 96 233 218 233c66 0 126 -13 170 -53l-6 -9c-43 38 -101 52 -162 52c-115 0 -210 -97 -210 -223c0 -137 94 -223 224 -223c64 0 123 28 157 67z" />
    <glyph glyph-name="afii10084" unicode="&#x442;" horiz-adv-x="430" 
d="M10 440v10h410v-10h-200v-440h-10v440h-200z" />
    <glyph glyph-name="afii10085" unicode="&#x443;" horiz-adv-x="466" 
d="M446 450l-185 -450c-66 -161 -108 -200 -166 -200c-20 0 -41 5 -64 15l4 9c21 -9 40 -15 58 -15c56 0 98 46 148 167l10 24l-231 450h11l187 -366l38 -74l31 76l148 364h11z" />
    <glyph glyph-name="afii10086" unicode="&#x444;" horiz-adv-x="650" 
d="M320 -200v192h-21c-150 0 -244 99 -244 233c0 122 93 233 243 233h22v242h10v-242h23c140 0 242 -101 242 -233c0 -134 -94 -233 -242 -233h-23v-192h-10zM65 225c0 -129 89 -223 237 -223h18v446h-23c-140 0 -232 -98 -232 -223zM353 448h-23v-446h19
c147 0 236 94 236 223c0 117 -88 223 -232 223z" />
    <glyph glyph-name="afii10087" unicode="&#x445;" horiz-adv-x="477" 
d="M427 450l-182 -219l192 -231h-13l-186 223l-185 -223h-13l192 231l-182 219h13l175 -211l176 211h13z" />
    <glyph glyph-name="afii10088" unicode="&#x446;" horiz-adv-x="555" 
d="M90 0v450h10v-440h350v440h10v-440h75v-130h-10v120h-435z" />
    <glyph glyph-name="afii10089" unicode="&#x447;" horiz-adv-x="465" 
d="M375 450v-450h-10v213c-32 -25 -86 -46 -150 -46c-93 0 -155 44 -155 164v119h10v-122c0 -103 53 -151 147 -151c73 0 122 27 148 47v226h10z" />
    <glyph glyph-name="afii10090" unicode="&#x448;" horiz-adv-x="690" 
d="M90 0v450h10v-440h240v440h10v-440h240v440h10v-450h-510z" />
    <glyph glyph-name="afii10091" unicode="&#x449;" horiz-adv-x="695" 
d="M90 0v450h10v-440h240v440h10v-440h240v440h10v-440h75v-130h-10v120h-575z" />
    <glyph glyph-name="afii10092" unicode="&#x44a;" horiz-adv-x="486" 
d="M0 440v10h164v-175h94c138 0 178 -58 178 -138c0 -79 -43 -137 -181 -137h-101v440h-154zM258 265h-94v-255h93c127 0 169 50 169 128s-45 127 -168 127z" />
    <glyph glyph-name="afii10093" unicode="&#x44b;" horiz-adv-x="590" 
d="M90 0v450h10v-175h84c138 0 178 -58 178 -138c0 -79 -43 -137 -181 -137h-91zM184 265h-84v-255h83c127 0 169 50 169 128s-45 127 -168 127zM490 0v450h10v-450h-10z" />
    <glyph glyph-name="afii10094" unicode="&#x44c;" horiz-adv-x="422" 
d="M90 0v450h10v-175h94c138 0 178 -58 178 -138c0 -79 -43 -137 -181 -137h-101zM194 265h-94v-255h93c127 0 169 50 169 128s-45 127 -168 127z" />
    <glyph glyph-name="afii10095" unicode="&#x44d;" horiz-adv-x="492" 
d="M166 225v10h261c-5 131 -98 213 -224 213c-64 0 -123 -28 -157 -67l-6 6c38 47 103 71 163 71c135 0 234 -91 234 -233c0 -131 -96 -233 -218 -233c-66 0 -126 13 -170 53l6 9c43 -38 101 -52 162 -52c115 0 210 97 210 223h-261z" />
    <glyph glyph-name="afii10096" unicode="&#x44e;" horiz-adv-x="735" 
d="M90 0v450h10v-215h140c4 130 94 223 220 223c129 0 220 -98 220 -233s-91 -233 -220 -233s-220 98 -220 233h-140v-225h-10zM250 225c0 -130 86 -223 210 -223s210 93 210 223s-86 223 -210 223s-210 -93 -210 -223z" />
    <glyph glyph-name="afii10097" unicode="&#x44f;" horiz-adv-x="471" 
d="M256 450h125v-450h-10v195h-149l-158 -195h-14l159 195c-63 6 -124 53 -124 124s42 131 171 131zM95 320c0 -73 72 -115 118 -115h158v235h-117c-115 0 -159 -54 -159 -120z" />
    <glyph glyph-name="afii10071" unicode="&#x451;" horiz-adv-x="529" 
d="M446 69l6 -6c-38 -47 -103 -71 -163 -71c-135 0 -234 91 -234 233c0 131 72 233 220 233c116 0 199 -79 199 -200c0 -8 -1 -15 -1 -23h-408c0 -143 87 -233 224 -233c64 0 123 28 157 67zM271 448c-128 0 -199 -87 -206 -203h399c2 125 -76 203 -193 203zM146 631
c0 6 6 12 13 12c6 0 12 -6 12 -12c0 -7 -6 -13 -12 -13c-7 0 -13 6 -13 13zM360 631c0 6 6 12 13 12c6 0 12 -6 12 -12c0 -7 -6 -13 -12 -13c-7 0 -13 6 -13 13z" />
    <glyph glyph-name="afii10099" unicode="&#x452;" horiz-adv-x="609" 
d="M0 515v10h155v175h10v-175h225v-10h-225v-219c38 46 115 82 183 82c130 0 191 -65 191 -206c0 -130 -48 -297 -187 -372h-16c153 85 193 243 193 369c0 135 -57 199 -181 199c-78 0 -155 -47 -183 -86v-282h-10v515h-155z" />
    <glyph glyph-name="afii10100" unicode="&#x453;" horiz-adv-x="340" 
d="M90 0v450h250v-10h-240v-440h-10zM314 700l-109 -141l-8 5l110 142z" />
    <glyph glyph-name="afii10101" unicode="&#x454;" horiz-adv-x="492" 
d="M326 235v-10h-261c0 -139 95 -223 223 -223c48 0 106 14 149 52l6 -9c-44 -40 -104 -53 -159 -53c-133 0 -229 94 -229 233c0 142 99 233 234 233c60 0 125 -24 163 -71l-6 -6c-34 39 -93 67 -157 67c-127 0 -220 -82 -224 -213h261z" />
    <glyph glyph-name="afii10102" unicode="&#x455;" horiz-adv-x="401" 
d="M331 111c0 147 -258 75 -258 240c0 61 49 107 131 107c47 0 96 -18 120 -45l-7 -8c-28 29 -70 43 -115 43c-73 0 -119 -45 -119 -96c0 -156 258 -84 258 -240c0 -81 -66 -120 -144 -120c-50 0 -116 26 -137 58l9 6c24 -33 82 -54 127 -54c68 0 135 35 135 109z" />
    <glyph glyph-name="afii10103" unicode="&#x456;" horiz-adv-x="250" 
d="M120 0v450h10v-450h-10zM113 633c0 6 6 12 13 12c6 0 12 -6 12 -12c0 -7 -6 -13 -12 -13c-7 0 -13 6 -13 13z" />
    <glyph glyph-name="afii10104" unicode="&#x457;" horiz-adv-x="250" 
d="M56 631c0 6 6 12 13 12c6 0 12 -6 12 -12c0 -7 -6 -13 -12 -13c-7 0 -13 6 -13 13zM170 631c0 6 6 12 13 12c6 0 12 -6 12 -12c0 -7 -6 -13 -12 -13c-7 0 -13 6 -13 13zM120 0v450h10v-450h-10z" />
    <glyph glyph-name="afii10105" unicode="&#x458;" horiz-adv-x="251" 
d="M131 450v-483c0 -110 -41 -175 -141 -175c-33 0 -62 12 -80 25l6 9c16 -12 45 -24 74 -24c94 0 131 59 131 164v484h10zM112 633c0 6 6 12 13 12c6 0 12 -6 12 -12c0 -7 -6 -13 -12 -13c-7 0 -13 6 -13 13z" />
    <glyph glyph-name="afii10106" unicode="&#x459;" horiz-adv-x="741" 
d="M420 0v440h-237l-8 -132c-17 -277 -99 -308 -135 -308v10c24 0 109 23 125 300l8 140h257v-175h83c138 0 178 -58 178 -138c0 -79 -43 -137 -181 -137h-90zM513 265h-83v-255h82c127 0 169 50 169 128s-45 127 -168 127z" />
    <glyph glyph-name="afii10107" unicode="&#x45a;" horiz-adv-x="776" 
d="M90 0v450h10v-195h355v195h10v-195h83c138 0 178 -48 178 -128c0 -79 -43 -127 -181 -127h-90v245h-355v-245h-10zM548 245h-83v-235h82c127 0 169 40 169 118s-45 117 -168 117z" />
    <glyph glyph-name="afii10108" unicode="&#x45b;" horiz-adv-x="609" 
d="M0 515v10h155v175h10v-175h225v-10h-225v-219c38 46 115 82 183 82c130 0 191 -65 191 -206v-172h-10v169c0 135 -57 199 -181 199c-78 0 -155 -47 -183 -86v-282h-10v515h-155z" />
    <glyph glyph-name="afii10109" unicode="&#x45c;" horiz-adv-x="463" 
d="M417 450l-255 -215l271 -235h-17l-269 235l254 215h16zM90 0v450h10v-450h-10zM330 700l-109 -141l-8 5l110 142z" />
    <glyph glyph-name="afii10110" unicode="&#x45e;" horiz-adv-x="466" 
d="M446 450l-185 -450c-66 -161 -108 -200 -166 -200c-20 0 -41 5 -64 15l4 9c21 -9 40 -15 58 -15c56 0 98 46 148 167l10 24l-231 450h11l187 -366l38 -74l31 76l148 364h11zM118 690h10c0 -57 43 -100 112 -100c66 0 108 43 108 100h10c0 -64 -51 -110 -118 -110
c-74 0 -122 46 -122 110z" />
    <glyph glyph-name="afii10193" unicode="&#x45f;" horiz-adv-x="540" 
d="M90 0v450h10v-440h340v440h10v-450h-175v-140h-10v140h-175z" />
    <glyph glyph-name="afii10146" unicode="&#x462;" horiz-adv-x="621" 
d="M164 700v-140h178v-10h-178v-151c51 4 103 6 135 6c179 0 262 -75 262 -196c0 -143 -104 -211 -266 -211c-49 0 -100 2 -141 2v550h-154v10h154v140h10zM301 395c-34 0 -86 -1 -137 -6v-379c36 0 82 -2 132 -2c165 0 255 70 255 202c0 115 -83 185 -250 185z" />
    <glyph glyph-name="afii10194" unicode="&#x463;" horiz-adv-x="486" 
d="M0 440v10h154v250h10v-250h175v-10h-175v-165h94c138 0 178 -58 178 -138c0 -79 -43 -137 -181 -137h-101v440h-154zM258 265h-94v-255h93c127 0 169 50 169 128s-45 127 -168 127z" />
    <glyph glyph-name="afii10147" unicode="&#x472;" horiz-adv-x="804" 
d="M60 350c0 203 149 358 342 358s342 -155 342 -358s-149 -358 -342 -358s-342 155 -342 358zM255 395c-70 0 -147 -44 -184 -80c16 -180 154 -313 331 -313c188 0 332 150 332 348c0 6 0 13 -1 19c-40 -34 -109 -70 -175 -70c-130 0 -176 96 -303 96zM70 350v-21
c43 37 113 76 187 76c129 0 180 -96 302 -96c67 0 137 40 173 73c-14 182 -152 316 -330 316c-188 0 -332 -150 -332 -348z" />
    <glyph glyph-name="afii10195" unicode="&#x473;" horiz-adv-x="570" 
d="M55 225c0 135 96 233 230 233s230 -98 230 -233s-96 -233 -230 -233s-230 98 -230 233zM174 259c-33 0 -72 -14 -109 -49c7 -122 96 -208 220 -208c128 0 219 92 220 222c-35 -30 -71 -41 -101 -41c-80 0 -151 76 -230 76zM65 225v-1c39 33 78 45 111 45
c82 0 151 -76 229 -76c30 0 65 12 100 44c-6 123 -95 211 -220 211c-129 0 -220 -93 -220 -223z" />
    <glyph glyph-name="afii10148" unicode="&#x474;" horiz-adv-x="654" 
d="M517 513l-184 -521h-3l-310 708h11l300 -687l184 524c60 172 100 179 159 159l-4 -9c-73 28 -101 -26 -153 -174z" />
    <glyph glyph-name="afii10196" unicode="&#x475;" horiz-adv-x="471" 
d="M376 328l-129 -336h-3l-224 458h11l169 -344c16 -32 29 -60 44 -92c15 33 25 62 38 96l87 225c49 128 80 132 122 112l-4 -9c-47 29 -74 -22 -111 -110z" />
    <glyph glyph-name="afii10050" unicode="&#x490;" horiz-adv-x="500" 
d="M120 0v700h370v140h10v-150h-370v-690h-10z" />
    <glyph glyph-name="afii10098" unicode="&#x491;" horiz-adv-x="340" 
d="M90 0v450h240v120h10v-130h-240v-440h-10z" />
    <glyph glyph-name="uni1E9E" unicode="&#x1e9e;" horiz-adv-x="584" 
d="M514 151c0 113 -109 206 -227 298l139 211c-27 18 -69 38 -125 38c-94 0 -171 -55 -171 -184v-518h-10v527c0 125 81 185 181 185c59 0 97 -15 140 -45l-141 -212c112 -85 224 -181 224 -299c0 -96 -76 -160 -154 -160c-69 0 -103 27 -137 58l9 6c31 -26 62 -54 127 -54
c68 0 145 56 145 149z" />
    <glyph glyph-name="uni2010" unicode="&#x2010;" horiz-adv-x="414" 
d="M100 265v10h214v-10h-214z" />
    <glyph glyph-name="uni2011" unicode="&#x2011;" horiz-adv-x="414" 
d="M100 265v10h214v-10h-214z" />
    <glyph glyph-name="figuredash" unicode="&#x2012;" horiz-adv-x="584" 
d="M100 349v10h384v-10h-384z" />
    <glyph glyph-name="endash" unicode="&#x2013;" horiz-adv-x="584" 
d="M100 265v10h384v-10h-384z" />
    <glyph glyph-name="emdash" unicode="&#x2014;" horiz-adv-x="784" 
d="M100 265v10h584v-10h-584z" />
    <glyph glyph-name="afii00208" unicode="&#x2015;" horiz-adv-x="784" 
d="M100 265v10h584v-10h-584z" />
    <glyph glyph-name="quoteleft" unicode="&#x2018;" horiz-adv-x="236" 
d="M129 555l-8 -8c-10 11 -21 30 -21 59c0 53 19 85 58 105l3 -8c-33 -17 -51 -52 -51 -95c0 -28 11 -45 19 -53z" />
    <glyph glyph-name="quoteright" unicode="&#x2019;" horiz-adv-x="236" 
d="M107 703l8 8c10 -11 21 -30 21 -59c0 -53 -19 -85 -58 -105l-3 8c33 17 51 52 51 95c0 28 -11 45 -19 53z" />
    <glyph glyph-name="quotesinglbase" unicode="&#x201a;" horiz-adv-x="236" 
d="M107 38l8 8c10 -11 21 -30 21 -59c0 -53 -19 -85 -58 -105l-3 8c33 17 51 52 51 95c0 28 -11 45 -19 53z" />
    <glyph glyph-name="quotedblleft" unicode="&#x201c;" horiz-adv-x="346" 
d="M239 555l-8 -8c-10 11 -21 30 -21 59c0 53 19 85 58 105l3 -8c-33 -17 -51 -52 -51 -95c0 -28 11 -45 19 -53zM129 555l-8 -8c-10 11 -21 30 -21 59c0 53 19 85 58 105l3 -8c-33 -17 -51 -52 -51 -95c0 -28 11 -45 19 -53z" />
    <glyph glyph-name="quotedblright" unicode="&#x201d;" horiz-adv-x="346" 
d="M217 703l8 8c10 -11 21 -30 21 -59c0 -53 -19 -85 -58 -105l-3 8c33 17 51 52 51 95c0 28 -11 45 -19 53zM107 703l8 8c10 -11 21 -30 21 -59c0 -53 -19 -85 -58 -105l-3 8c33 17 51 52 51 95c0 28 -11 45 -19 53z" />
    <glyph glyph-name="quotedblbase" unicode="&#x201e;" horiz-adv-x="346" 
d="M217 38l8 8c10 -11 21 -30 21 -59c0 -53 -19 -85 -58 -105l-3 8c33 17 51 52 51 95c0 28 -11 45 -19 53zM107 38l8 8c10 -11 21 -30 21 -59c0 -53 -19 -85 -58 -105l-3 8c33 17 51 52 51 95c0 28 -11 45 -19 53z" />
    <glyph glyph-name="dagger" unicode="&#x2020;" horiz-adv-x="394" 
d="M40 440v10h152v250h10v-250h152v-10h-152v-540h-10v540h-152z" />
    <glyph glyph-name="daggerdbl" unicode="&#x2021;" horiz-adv-x="394" 
d="M40 440v10h152v250h10v-250h152v-10h-152v-250h152v-10h-152v-280h-10v280h-152v10h152v250h-152z" />
    <glyph glyph-name="bullet" unicode="&#x2022;" horiz-adv-x="120" 
d="M40 260c0 11 9 20 20 20s20 -9 20 -20s-9 -20 -20 -20s-20 9 -20 20z" />
    <glyph glyph-name="ellipsis" unicode="&#x2026;" horiz-adv-x="825" 
d="M700 13c0 6 6 12 13 12c6 0 12 -6 12 -12c0 -7 -6 -13 -12 -13c-7 0 -13 6 -13 13zM400 13c0 6 6 12 13 12c6 0 12 -6 12 -12c0 -7 -6 -13 -12 -13c-7 0 -13 6 -13 13zM100 13c0 6 6 12 13 12c6 0 12 -6 12 -12c0 -7 -6 -13 -12 -13c-7 0 -13 6 -13 13z" />
    <glyph glyph-name="perthousand" unicode="&#x2030;" horiz-adv-x="1209" 
d="M839 152c0 88 68 152 155 152s155 -64 155 -152s-68 -152 -155 -152s-155 64 -155 152zM849 152c0 -85 72 -142 145 -142c76 0 145 57 145 142s-70 142 -145 142s-145 -57 -145 -142zM139 -1l531 709l8 -5l-531 -711zM60 548c0 88 68 152 155 152s155 -64 155 -152
s-68 -152 -155 -152s-155 64 -155 152zM70 548c0 -85 72 -142 145 -142c76 0 145 57 145 142s-70 142 -145 142s-145 -57 -145 -142zM439 152c0 88 68 152 155 152s155 -64 155 -152s-68 -152 -155 -152s-155 64 -155 152zM449 152c0 -85 72 -142 145 -142
c76 0 145 57 145 142s-70 142 -145 142s-145 -57 -145 -142z" />
    <glyph glyph-name="guilsinglleft" unicode="&#x2039;" horiz-adv-x="319" 
d="M231 48l-171 200v4l172 198l7 -6l-168 -194l166 -194z" />
    <glyph glyph-name="guilsinglright" unicode="&#x203a;" horiz-adv-x="319" 
d="M259 248l-171 -200l-6 8l166 194l-168 194l7 6l172 -198v-4z" />
    <glyph glyph-name="fraction" unicode="&#x2044;" horiz-adv-x="179" 
d="M-180 -1l531 709l8 -5l-531 -711z" />
    <glyph glyph-name="uni2070" unicode="&#x2070;" horiz-adv-x="356" 
d="M50 525c0 102 43 179 128 179s128 -77 128 -179s-42 -179 -127 -179c-86 0 -129 77 -129 179zM60 525c0 -98 41 -169 119 -169c81 0 117 71 117 169s-40 169 -118 169c-79 0 -118 -71 -118 -169z" />
    <glyph glyph-name="uni2074" unicode="&#x2074;" horiz-adv-x="313" 
d="M217 350v98h-197v5l196 247h11l-192 -242h182v117h10v-117h66v-10h-66v-98h-10z" />
    <glyph glyph-name="uni2075" unicode="&#x2075;" horiz-adv-x="317" 
d="M79 541l25 159h173v-10h-165l-22 -137c13 3 32 7 51 7c79 0 133 -42 133 -104c0 -68 -58 -110 -121 -110c-46 0 -92 16 -118 58l8 6c24 -38 70 -54 110 -54c62 0 111 42 111 100c0 53 -50 94 -124 94c-22 0 -44 -4 -61 -9z" />
    <glyph glyph-name="uni2076" unicode="&#x2076;" horiz-adv-x="351" 
d="M50 474c0 129 106 214 200 230l4 -8c-86 -15 -179 -83 -193 -202c16 37 58 70 122 70c77 0 123 -45 123 -109c0 -61 -56 -109 -118 -109c-94 0 -138 60 -138 128zM60 474c0 -59 41 -118 127 -118c58 0 109 44 109 98c0 55 -39 100 -115 100c-71 0 -112 -45 -121 -80z" />
    <glyph glyph-name="uni2077" unicode="&#x2077;" horiz-adv-x="280" 
d="M25 690v10h230v-5l-166 -345h-11l164 340h-217z" />
    <glyph glyph-name="uni2078" unicode="&#x2078;" horiz-adv-x="357" 
d="M167 535h23c42 0 91 33 91 79c0 51 -53 80 -103 80c-51 0 -102 -29 -102 -80c0 -46 49 -79 91 -79zM189 525h-19c-59 0 -110 -37 -110 -83c0 -51 57 -86 118 -86c62 0 119 33 119 86c0 52 -50 83 -108 83zM179 346c-65 0 -129 35 -129 95c0 40 35 79 93 88v2
c-45 9 -77 48 -77 83c0 55 51 90 112 90c62 0 113 -35 113 -90c0 -34 -28 -70 -77 -83v-1c55 -5 93 -42 93 -89c0 -60 -63 -95 -128 -95z" />
    <glyph glyph-name="uni2079" unicode="&#x2079;" horiz-adv-x="351" 
d="M301 576c0 -129 -91 -221 -210 -230l-1 8c114 13 197 100 200 202c-16 -37 -58 -70 -122 -70c-77 0 -123 45 -123 109c0 61 56 109 118 109c94 0 138 -60 138 -128zM291 576c0 59 -41 118 -127 118c-58 0 -109 -44 -109 -98c0 -55 39 -100 115 -100c71 0 112 45 121 80z
" />
    <glyph glyph-name="uni207A" unicode="&#x207a;" horiz-adv-x="360" 
d="M50 525v10h124v124h10v-124h126v-10h-126v-125h-10v125h-124z" />
    <glyph glyph-name="uni207B" unicode="&#x207b;" horiz-adv-x="360" 
d="M50 525v10h260v-10h-260z" />
    <glyph glyph-name="uni207C" unicode="&#x207c;" horiz-adv-x="360" 
d="M50 465v10h260v-10h-260zM50 585v10h260v-10h-260z" />
    <glyph glyph-name="uni207D" unicode="&#x207d;" horiz-adv-x="168" 
d="M158 313l-7 -6c-87 52 -121 142 -121 216c0 73 34 154 122 215l6 -6c-84 -57 -118 -136 -118 -209c0 -74 34 -158 118 -210z" />
    <glyph glyph-name="uni207E" unicode="&#x207e;" horiz-adv-x="168" 
d="M10 732l7 6c87 -52 121 -142 121 -216c0 -73 -34 -154 -122 -215l-6 6c84 57 118 136 118 209c0 74 -34 158 -118 210z" />
    <glyph glyph-name="uni2080" unicode="&#x2080;" horiz-adv-x="356" 
d="M50 175c0 102 43 179 128 179s128 -77 128 -179s-42 -179 -127 -179c-86 0 -129 77 -129 179zM60 175c0 -98 41 -169 119 -169c81 0 117 71 117 169s-40 169 -118 169c-79 0 -118 -71 -118 -169z" />
    <glyph glyph-name="uni2081" unicode="&#x2081;" horiz-adv-x="220" 
d="M35 293l89 61h6v-354h-10v338l-79 -53z" />
    <glyph glyph-name="uni2082" unicode="&#x2082;" horiz-adv-x="323" 
d="M45 0v9c63 49 212 148 212 248c0 45 -30 87 -95 87c-41 0 -93 -20 -101 -72l-10 2c8 54 64 80 109 80c76 0 107 -48 107 -100c0 -105 -167 -216 -206 -244h227v-10h-243z" />
    <glyph glyph-name="uni2083" unicode="&#x2083;" horiz-adv-x="329" 
d="M157 -4c-47 0 -95 16 -117 62l8 5c21 -43 69 -57 111 -57c67 0 110 38 110 88c0 47 -45 80 -98 80h-40v10h35c43 0 87 36 87 83c0 51 -40 77 -96 77c-55 0 -85 -24 -98 -54l-8 5c14 37 55 59 106 59c67 0 106 -32 106 -87c0 -35 -24 -72 -68 -86v-1c53 -6 84 -46 84 -86
c0 -60 -52 -98 -122 -98z" />
    <glyph glyph-name="uni2084" unicode="&#x2084;" horiz-adv-x="313" 
d="M217 0v98h-197v5l196 247h11l-192 -242h182v117h10v-117h66v-10h-66v-98h-10z" />
    <glyph glyph-name="uni2085" unicode="&#x2085;" horiz-adv-x="317" 
d="M79 191l25 159h173v-10h-165l-22 -137c13 3 32 7 51 7c79 0 133 -42 133 -104c0 -68 -58 -110 -121 -110c-46 0 -92 16 -118 58l8 6c24 -38 70 -54 110 -54c62 0 111 42 111 100c0 53 -50 94 -124 94c-22 0 -44 -4 -61 -9z" />
    <glyph glyph-name="uni2086" unicode="&#x2086;" horiz-adv-x="351" 
d="M50 124c0 129 106 214 200 230l4 -8c-86 -15 -179 -83 -193 -202c16 37 58 70 122 70c77 0 123 -45 123 -109c0 -61 -56 -109 -118 -109c-94 0 -138 60 -138 128zM60 124c0 -59 41 -118 127 -118c58 0 109 44 109 98c0 55 -39 100 -115 100c-71 0 -112 -45 -121 -80z" />
    <glyph glyph-name="uni2087" unicode="&#x2087;" horiz-adv-x="280" 
d="M25 340v10h230v-5l-166 -345h-11l164 340h-217z" />
    <glyph glyph-name="uni2088" unicode="&#x2088;" horiz-adv-x="357" 
d="M167 185h23c42 0 91 33 91 79c0 51 -53 80 -103 80c-51 0 -102 -29 -102 -80c0 -46 49 -79 91 -79zM189 175h-19c-59 0 -110 -37 -110 -83c0 -51 57 -86 118 -86c62 0 119 33 119 86c0 52 -50 83 -108 83zM179 -4c-65 0 -129 35 -129 95c0 40 35 79 93 88v2
c-45 9 -77 48 -77 83c0 55 51 90 112 90c62 0 113 -35 113 -90c0 -34 -28 -70 -77 -83v-1c55 -5 93 -42 93 -89c0 -60 -63 -95 -128 -95z" />
    <glyph glyph-name="uni2089" unicode="&#x2089;" horiz-adv-x="351" 
d="M301 226c0 -129 -91 -221 -210 -230l-1 8c114 13 197 100 200 202c-16 -37 -58 -70 -122 -70c-77 0 -123 45 -123 109c0 61 56 109 118 109c94 0 138 -60 138 -128zM291 226c0 59 -41 118 -127 118c-58 0 -109 -44 -109 -98c0 -55 39 -100 115 -100c71 0 112 45 121 80z
" />
    <glyph glyph-name="uni208A" unicode="&#x208a;" horiz-adv-x="360" 
d="M50 175v10h124v124h10v-124h126v-10h-126v-125h-10v125h-124z" />
    <glyph glyph-name="uni208B" unicode="&#x208b;" horiz-adv-x="360" 
d="M50 175v10h260v-10h-260z" />
    <glyph glyph-name="uni208C" unicode="&#x208c;" horiz-adv-x="360" 
d="M50 115v10h260v-10h-260zM50 235v10h260v-10h-260z" />
    <glyph glyph-name="uni208D" unicode="&#x208d;" horiz-adv-x="168" 
d="M158 -37l-7 -6c-87 52 -121 142 -121 216c0 73 34 154 122 215l6 -6c-84 -57 -118 -136 -118 -209c0 -74 34 -158 118 -210z" />
    <glyph glyph-name="uni208E" unicode="&#x208e;" horiz-adv-x="168" 
d="M10 382l7 6c87 -52 121 -142 121 -216c0 -73 -34 -154 -122 -215l-6 6c84 57 118 136 118 209c0 74 -34 158 -118 210z" />
    <glyph glyph-name="Euro" unicode="&#x20ac;" horiz-adv-x="584" 
d="M20 435l5 10h77c36 153 157 263 323 263c51 0 110 -13 139 -29l-4 -10c-35 16 -78 29 -134 29c-163 0 -279 -106 -313 -253h388l-3 -10h-388c-5 -27 -8 -56 -8 -85c0 -23 1 -45 4 -65h355l-3 -10h-350c29 -167 155 -273 328 -273c51 0 88 9 116 25l3 -10
c-22 -17 -84 -25 -119 -25c-180 0 -310 108 -338 283h-78l5 10h71c-3 21 -4 42 -4 65c0 29 3 58 8 85h-80z" />
    <glyph glyph-name="uni20B4" unicode="&#x20b4;" horiz-adv-x="600" 
d="M83 435v10h331c29 30 49 68 49 119c0 82 -61 134 -153 134c-69 0 -124 -21 -167 -66l-7 7c37 42 98 69 171 69c106 0 166 -60 166 -143c0 -51 -19 -89 -47 -120h91v-10h-100c-61 -60 -157 -93 -221 -150h321v-10h-332c-32 -33 -54 -73 -54 -128c0 -101 93 -145 178 -145
c69 0 139 32 175 93l8 -7c-37 -63 -108 -96 -185 -96c-100 0 -186 55 -186 155c0 55 20 95 51 128h-89v10h99c62 59 159 93 221 150h-320z" />
    <glyph glyph-name="uni20B6" unicode="&#x20b6;" horiz-adv-x="600" 
d="M32 330v10h121v360c39 0 118 2 152 2c187 0 235 -88 235 -185c0 -102 -65 -187 -245 -187h-132v-150h193v-10h-193v-170h-10v170h-121v10h121v150h-121zM306 692c-36 0 -110 -1 -143 -2v-350h131c164 0 236 70 236 178c0 104 -60 174 -224 174z" />
    <glyph glyph-name="uni20B6" unicode="&#x20cf;" horiz-adv-x="600" 
d="M32 330v10h121v360c39 0 118 2 152 2c187 0 235 -88 235 -185c0 -102 -65 -187 -245 -187h-132v-150h193v-10h-193v-170h-10v170h-121v10h121v150h-121zM306 692c-36 0 -110 -1 -143 -2v-350h131c164 0 236 70 236 178c0 104 -60 174 -224 174z" />
    <glyph glyph-name="uni20B6" unicode="&#x20ce;" horiz-adv-x="600" 
d="M32 330v10h121v360c39 0 118 2 152 2c187 0 235 -88 235 -185c0 -102 -65 -187 -245 -187h-132v-150h193v-10h-193v-170h-10v170h-121v10h121v150h-121zM306 692c-36 0 -110 -1 -143 -2v-350h131c164 0 236 70 236 178c0 104 -60 174 -224 174z" />
    <glyph glyph-name="uni20B6" unicode="&#x20cd;" horiz-adv-x="600" 
d="M32 330v10h121v360c39 0 118 2 152 2c187 0 235 -88 235 -185c0 -102 -65 -187 -245 -187h-132v-150h193v-10h-193v-170h-10v170h-121v10h121v150h-121zM306 692c-36 0 -110 -1 -143 -2v-350h131c164 0 236 70 236 178c0 104 -60 174 -224 174z" />
    <glyph glyph-name="uni20B6" unicode="&#x20cc;" horiz-adv-x="600" 
d="M32 330v10h121v360c39 0 118 2 152 2c187 0 235 -88 235 -185c0 -102 -65 -187 -245 -187h-132v-150h193v-10h-193v-170h-10v170h-121v10h121v150h-121zM306 692c-36 0 -110 -1 -143 -2v-350h131c164 0 236 70 236 178c0 104 -60 174 -224 174z" />
    <glyph glyph-name="uni20B6" unicode="&#x20cb;" horiz-adv-x="600" 
d="M32 330v10h121v360c39 0 118 2 152 2c187 0 235 -88 235 -185c0 -102 -65 -187 -245 -187h-132v-150h193v-10h-193v-170h-10v170h-121v10h121v150h-121zM306 692c-36 0 -110 -1 -143 -2v-350h131c164 0 236 70 236 178c0 104 -60 174 -224 174z" />
    <glyph glyph-name="uni20B6" unicode="&#x20ca;" horiz-adv-x="600" 
d="M32 330v10h121v360c39 0 118 2 152 2c187 0 235 -88 235 -185c0 -102 -65 -187 -245 -187h-132v-150h193v-10h-193v-170h-10v170h-121v10h121v150h-121zM306 692c-36 0 -110 -1 -143 -2v-350h131c164 0 236 70 236 178c0 104 -60 174 -224 174z" />
    <glyph glyph-name="uni20B6" unicode="&#x20c9;" horiz-adv-x="600" 
d="M32 330v10h121v360c39 0 118 2 152 2c187 0 235 -88 235 -185c0 -102 -65 -187 -245 -187h-132v-150h193v-10h-193v-170h-10v170h-121v10h121v150h-121zM306 692c-36 0 -110 -1 -143 -2v-350h131c164 0 236 70 236 178c0 104 -60 174 -224 174z" />
    <glyph glyph-name="uni20B6" unicode="&#x20c8;" horiz-adv-x="600" 
d="M32 330v10h121v360c39 0 118 2 152 2c187 0 235 -88 235 -185c0 -102 -65 -187 -245 -187h-132v-150h193v-10h-193v-170h-10v170h-121v10h121v150h-121zM306 692c-36 0 -110 -1 -143 -2v-350h131c164 0 236 70 236 178c0 104 -60 174 -224 174z" />
    <glyph glyph-name="uni20B6" unicode="&#x20c7;" horiz-adv-x="600" 
d="M32 330v10h121v360c39 0 118 2 152 2c187 0 235 -88 235 -185c0 -102 -65 -187 -245 -187h-132v-150h193v-10h-193v-170h-10v170h-121v10h121v150h-121zM306 692c-36 0 -110 -1 -143 -2v-350h131c164 0 236 70 236 178c0 104 -60 174 -224 174z" />
    <glyph glyph-name="uni20B6" unicode="&#x20c6;" horiz-adv-x="600" 
d="M32 330v10h121v360c39 0 118 2 152 2c187 0 235 -88 235 -185c0 -102 -65 -187 -245 -187h-132v-150h193v-10h-193v-170h-10v170h-121v10h121v150h-121zM306 692c-36 0 -110 -1 -143 -2v-350h131c164 0 236 70 236 178c0 104 -60 174 -224 174z" />
    <glyph glyph-name="uni20B6" unicode="&#x20c5;" horiz-adv-x="600" 
d="M32 330v10h121v360c39 0 118 2 152 2c187 0 235 -88 235 -185c0 -102 -65 -187 -245 -187h-132v-150h193v-10h-193v-170h-10v170h-121v10h121v150h-121zM306 692c-36 0 -110 -1 -143 -2v-350h131c164 0 236 70 236 178c0 104 -60 174 -224 174z" />
    <glyph glyph-name="uni20B6" unicode="&#x20c4;" horiz-adv-x="600" 
d="M32 330v10h121v360c39 0 118 2 152 2c187 0 235 -88 235 -185c0 -102 -65 -187 -245 -187h-132v-150h193v-10h-193v-170h-10v170h-121v10h121v150h-121zM306 692c-36 0 -110 -1 -143 -2v-350h131c164 0 236 70 236 178c0 104 -60 174 -224 174z" />
    <glyph glyph-name="uni20B6" unicode="&#x20c3;" horiz-adv-x="600" 
d="M32 330v10h121v360c39 0 118 2 152 2c187 0 235 -88 235 -185c0 -102 -65 -187 -245 -187h-132v-150h193v-10h-193v-170h-10v170h-121v10h121v150h-121zM306 692c-36 0 -110 -1 -143 -2v-350h131c164 0 236 70 236 178c0 104 -60 174 -224 174z" />
    <glyph glyph-name="uni20B6" unicode="&#x20c2;" horiz-adv-x="600" 
d="M32 330v10h121v360c39 0 118 2 152 2c187 0 235 -88 235 -185c0 -102 -65 -187 -245 -187h-132v-150h193v-10h-193v-170h-10v170h-121v10h121v150h-121zM306 692c-36 0 -110 -1 -143 -2v-350h131c164 0 236 70 236 178c0 104 -60 174 -224 174z" />
    <glyph glyph-name="uni20B6" unicode="&#x20c1;" horiz-adv-x="600" 
d="M32 330v10h121v360c39 0 118 2 152 2c187 0 235 -88 235 -185c0 -102 -65 -187 -245 -187h-132v-150h193v-10h-193v-170h-10v170h-121v10h121v150h-121zM306 692c-36 0 -110 -1 -143 -2v-350h131c164 0 236 70 236 178c0 104 -60 174 -224 174z" />
    <glyph glyph-name="uni20B6" unicode="&#x20c0;" horiz-adv-x="600" 
d="M32 330v10h121v360c39 0 118 2 152 2c187 0 235 -88 235 -185c0 -102 -65 -187 -245 -187h-132v-150h193v-10h-193v-170h-10v170h-121v10h121v150h-121zM306 692c-36 0 -110 -1 -143 -2v-350h131c164 0 236 70 236 178c0 104 -60 174 -224 174z" />
    <glyph glyph-name="uni20B6" unicode="&#x20bf;" horiz-adv-x="600" 
d="M32 330v10h121v360c39 0 118 2 152 2c187 0 235 -88 235 -185c0 -102 -65 -187 -245 -187h-132v-150h193v-10h-193v-170h-10v170h-121v10h121v150h-121zM306 692c-36 0 -110 -1 -143 -2v-350h131c164 0 236 70 236 178c0 104 -60 174 -224 174z" />
    <glyph glyph-name="uni20B6" unicode="&#x20be;" horiz-adv-x="600" 
d="M32 330v10h121v360c39 0 118 2 152 2c187 0 235 -88 235 -185c0 -102 -65 -187 -245 -187h-132v-150h193v-10h-193v-170h-10v170h-121v10h121v150h-121zM306 692c-36 0 -110 -1 -143 -2v-350h131c164 0 236 70 236 178c0 104 -60 174 -224 174z" />
    <glyph glyph-name="uni20B6" unicode="&#x20bd;" horiz-adv-x="600" 
d="M32 330v10h121v360c39 0 118 2 152 2c187 0 235 -88 235 -185c0 -102 -65 -187 -245 -187h-132v-150h193v-10h-193v-170h-10v170h-121v10h121v150h-121zM306 692c-36 0 -110 -1 -143 -2v-350h131c164 0 236 70 236 178c0 104 -60 174 -224 174z" />
    <glyph glyph-name="uni20B6" unicode="&#x20bc;" horiz-adv-x="600" 
d="M32 330v10h121v360c39 0 118 2 152 2c187 0 235 -88 235 -185c0 -102 -65 -187 -245 -187h-132v-150h193v-10h-193v-170h-10v170h-121v10h121v150h-121zM306 692c-36 0 -110 -1 -143 -2v-350h131c164 0 236 70 236 178c0 104 -60 174 -224 174z" />
    <glyph glyph-name="uni20B6" unicode="&#x20bb;" horiz-adv-x="600" 
d="M32 330v10h121v360c39 0 118 2 152 2c187 0 235 -88 235 -185c0 -102 -65 -187 -245 -187h-132v-150h193v-10h-193v-170h-10v170h-121v10h121v150h-121zM306 692c-36 0 -110 -1 -143 -2v-350h131c164 0 236 70 236 178c0 104 -60 174 -224 174z" />
    <glyph glyph-name="uni20B6" unicode="&#x20ba;" horiz-adv-x="600" 
d="M32 330v10h121v360c39 0 118 2 152 2c187 0 235 -88 235 -185c0 -102 -65 -187 -245 -187h-132v-150h193v-10h-193v-170h-10v170h-121v10h121v150h-121zM306 692c-36 0 -110 -1 -143 -2v-350h131c164 0 236 70 236 178c0 104 -60 174 -224 174z" />
    <glyph glyph-name="uni20B6" unicode="&#x20b9;" horiz-adv-x="600" 
d="M32 330v10h121v360c39 0 118 2 152 2c187 0 235 -88 235 -185c0 -102 -65 -187 -245 -187h-132v-150h193v-10h-193v-170h-10v170h-121v10h121v150h-121zM306 692c-36 0 -110 -1 -143 -2v-350h131c164 0 236 70 236 178c0 104 -60 174 -224 174z" />
    <glyph glyph-name="uni20B6" unicode="&#x20b7;" horiz-adv-x="600" 
d="M32 330v10h121v360c39 0 118 2 152 2c187 0 235 -88 235 -185c0 -102 -65 -187 -245 -187h-132v-150h193v-10h-193v-170h-10v170h-121v10h121v150h-121zM306 692c-36 0 -110 -1 -143 -2v-350h131c164 0 236 70 236 178c0 104 -60 174 -224 174z" />
    <glyph glyph-name="afii61352" unicode="&#x2116;" horiz-adv-x="1150" 
d="M660 0h-8l-522 680v-680h-10v700h8l522 -682v682h10v-700zM760 506c0 88 68 152 155 152s155 -64 155 -152s-68 -152 -155 -152s-155 64 -155 152zM770 506c0 -85 72 -142 145 -142c76 0 145 57 145 142s-70 142 -145 142s-145 -57 -145 -142zM790 265v10h250v-10h-250z
" />
    <glyph glyph-name="trademark" unicode="&#x2122;" horiz-adv-x="810" 
d="M384 385v315h11l160 -202l155 202h10v-315h-10v300l-155 -202h-2l-159 202v-300h-10zM10 690v10h308v-10h-149v-305h-10v305h-149z" />
    <glyph glyph-name="arrowleft" unicode="&#x2190;" horiz-adv-x="643" 
d="M323 555l7 -7l-270 -269h543v-10h-545l272 -272l-7 -7l-283 283z" />
    <glyph glyph-name="arrowup" unicode="&#x2191;" horiz-adv-x="645" 
d="M47 273l-7 7l282 283l283 -283l-7 -7l-272 272v-545h-10v543z" />
    <glyph glyph-name="arrowright" unicode="&#x2192;" horiz-adv-x="643" 
d="M313 548l7 7l283 -282l-283 -283l-7 7l272 272h-545v10h543z" />
    <glyph glyph-name="arrowdown" unicode="&#x2193;" horiz-adv-x="645" 
d="M40 263l7 7l269 -270v543h10v-545l272 272l7 -7l-283 -283z" />
    <glyph glyph-name="partialdiff" unicode="&#x2202;" horiz-adv-x="575" 
d="M55 205c0 135 106 253 240 253c128 0 197 -80 215 -142c0 170 -69 362 -306 382l2 10c201 -15 314 -167 314 -390c0 -153 -96 -326 -260 -326c-115 0 -205 88 -205 213zM65 205c0 -111 79 -203 196 -203c151 0 240 159 249 294c-26 72 -86 152 -215 152
s-230 -113 -230 -243z" />
    <glyph glyph-name="product" unicode="&#x220f;" horiz-adv-x="875" 
d="M745 -200v890h-615v-890h-10v900h635v-900h-10z" />
    <glyph glyph-name="summation" unicode="&#x2211;" horiz-adv-x="620" 
d="M373 250l-333 448v2h540v-10h-522l328 -440l-328 -440h522v-10h-540v2z" />
    <glyph glyph-name="minus" unicode="&#x2212;" horiz-adv-x="584" 
d="M75 355v10h434v-10h-434z" />
    <glyph glyph-name="uni2215" unicode="&#x2215;" horiz-adv-x="289" 
d="M-30 -204l340 912l9 -3l-339 -913z" />
    <glyph glyph-name="radical" unicode="&#x221a;" horiz-adv-x="563" 
d="M0 440v10h126l202 -433l147 683h248v-10h-239l-152 -698h-3l-210 448h-119z" />
    <glyph glyph-name="infinity" unicode="&#x221e;" horiz-adv-x="726" 
d="M537 213c-76 0 -127 60 -175 121c-44 -61 -87 -121 -165 -121c-61 0 -137 45 -137 128c0 69 58 130 140 130c68 0 115 -59 162 -119c43 60 88 119 174 119c82 0 130 -56 130 -134c0 -55 -40 -124 -129 -124zM535 461c-80 0 -124 -57 -167 -117c48 -61 98 -121 172 -121
c80 0 116 65 116 113c0 68 -42 125 -121 125zM196 223c76 0 117 59 159 120c-47 60 -92 118 -157 118c-76 0 -128 -57 -128 -120c0 -78 75 -118 126 -118z" />
    <glyph glyph-name="integral" unicode="&#x222b;" horiz-adv-x="341" 
d="M120 -33c0 -90 -29 -153 -96 -170c-13 -4 -28 -5 -45 -5c-33 0 -62 12 -80 25l6 9c16 -12 45 -24 74 -24c93 0 131 58 131 164v557c0 104 35 163 105 180c14 3 29 5 46 5c54 0 88 -18 110 -35l-6 -9c-26 19 -55 34 -104 34c-31 0 -57 -6 -78 -19
c-42 -26 -63 -79 -63 -165v-547z" />
    <glyph glyph-name="approxequal" unicode="&#x2248;" horiz-adv-x="584" 
d="M76 265l-8 7c42 39 80 53 115 53c82 0 151 -76 229 -76c31 0 62 13 97 46l7 -7c-38 -36 -72 -49 -105 -49c-80 0 -151 76 -230 76c-33 0 -68 -14 -105 -50zM76 425l-8 7c42 39 80 53 115 53c82 0 151 -76 229 -76c31 0 62 13 97 46l7 -7c-38 -36 -72 -49 -105 -49
c-80 0 -151 76 -230 76c-33 0 -68 -14 -105 -50z" />
    <glyph glyph-name="notequal" unicode="&#x2260;" horiz-adv-x="584" 
d="M75 435v10h237l98 263l9 -3l-97 -260h187v-10h-190l-56 -150h246v-10h-249l-105 -283l-10 4l104 279h-174v10h177l56 150h-233z" />
    <glyph glyph-name="lessequal" unicode="&#x2264;" horiz-adv-x="584" 
d="M75 280v13l389 -257v-12zM464 184l-389 256v4l389 254v-12l-374 -244l374 -246v-12z" />
    <glyph glyph-name="greaterequal" unicode="&#x2265;" horiz-adv-x="584" 
d="M509 293v-13l-389 -256v12zM509 440l-389 -256v12l374 246l-374 244v12l389 -254v-4z" />
    <glyph glyph-name="lozenge" unicode="&#x25ca;" horiz-adv-x="458" 
d="M227 -8l-167 257l168 269h3l167 -258l-168 -268h-3zM71 250l158 -243l158 253l-158 244z" />
    <glyph glyph-name="spade" unicode="&#x2660;" horiz-adv-x="632" 
d="M316 510c105 -66 256 -220 256 -311c0 -51 -35 -104 -117 -104c-63 0 -103 33 -131 72c17 -72 46 -130 107 -167h-230c51 36 85 93 105 164c-28 -38 -68 -69 -129 -69c-82 0 -117 53 -117 105c0 90 151 244 256 310z" />
    <glyph glyph-name="club" unicode="&#x2663;" horiz-adv-x="612" 
d="M177 381c0 71 58 129 129 129s129 -58 129 -129c0 -6 -1 -13 -2 -19c66 -5 119 -61 119 -128c0 -71 -58 -129 -129 -129c-43 0 -81 21 -104 53c17 -63 46 -124 102 -158h-230c46 32 80 95 100 156c-23 -29 -62 -51 -102 -51c-71 0 -129 58 -129 129c0 67 52 123 118 128
c-1 6 -1 13 -1 19z" />
    <glyph glyph-name="heart" unicode="&#x2665;" horiz-adv-x="649" 
d="M325 0c-109 82 -265 259 -265 370c0 64 36 130 121 130c71 0 115 -50 144 -104c28 54 72 104 143 104c85 0 121 -66 121 -129c0 -112 -156 -289 -264 -371z" />
    <glyph glyph-name="diamond" unicode="&#x2666;" horiz-adv-x="583" 
d="M523 249c-85 -85 -160 -175 -232 -268c-70 92 -147 181 -231 268c85 89 160 179 231 269c73 -93 149 -183 232 -269z" />
    <glyph glyph-name="uniF350" unicode="&#xf350;" horiz-adv-x="549" 
d="M24 0l249 531h4l248 -531h-11l-97 206h-286l-96 -206h-11zM274 513l-139 -298h278z" />
    <glyph glyph-name="uniF351" unicode="&#xf351;" horiz-adv-x="486" 
d="M393 525v-10h-287v-215c40 3 82 4 107 4c143 0 209 -56 209 -147c0 -107 -83 -159 -212 -159c-40 0 -81 2 -114 2v525h297zM215 295c-27 0 -69 -1 -109 -5v-280c29 0 65 -2 105 -2c130 0 201 52 201 150c0 85 -65 137 -197 137z" />
    <glyph glyph-name="uniF352" unicode="&#xf352;" horiz-adv-x="494" 
d="M96 0v525c31 0 95 2 138 2c134 0 172 -57 172 -129c0 -77 -61 -119 -127 -126v-1c98 -8 151 -53 151 -129c0 -103 -83 -144 -194 -144c-45 0 -107 2 -140 2zM236 265h-130v-255c28 0 88 -2 128 -2c115 0 186 43 186 135c0 77 -65 122 -184 122zM233 517
c-42 0 -101 -1 -127 -2v-240h136c84 0 154 48 154 123c0 77 -47 119 -163 119z" />
    <glyph glyph-name="uniF353" unicode="&#xf353;" horiz-adv-x="400" 
d="M96 0v525h304v-10h-294v-515h-10z" />
    <glyph glyph-name="uniF354" unicode="&#xf354;" horiz-adv-x="588" 
d="M16 -105v115h61c24 28 87 145 102 410l6 105h295v-515h76v-115h-10v105h-520v-105h-10zM189 416c-16 -266 -79 -382 -101 -406h382v505h-275z" />
    <glyph glyph-name="uniF355" unicode="&#xf355;" horiz-adv-x="469" 
d="M96 0v525h301v-10h-291v-242h267v-10h-267v-253h299v-10h-309z" />
    <glyph glyph-name="uniF356" unicode="&#xf356;" horiz-adv-x="715" 
d="M676 525l-258 -250l266 -275h-13l-265 274l256 251h14zM353 0v525h10v-525h-10zM297 274l-257 251h13l257 -251l-266 -274h-13z" />
    <glyph glyph-name="uniF357" unicode="&#xf357;" horiz-adv-x="453" 
d="M207 -6c-59 0 -137 29 -167 71l7 5c40 -44 111 -66 158 -66c109 0 174 57 174 143c0 72 -53 117 -132 117h-77v9h71c57 0 116 56 116 128c0 80 -61 120 -140 120c-73 0 -118 -25 -155 -62l-7 5c39 44 96 67 159 67c94 0 153 -49 153 -132c0 -50 -32 -106 -91 -127v-3
c70 -5 113 -62 113 -122c0 -97 -77 -153 -182 -153z" />
    <glyph glyph-name="uniF358" unicode="&#xf358;" 
d="M106 0h-10v525h10v-510l429 510h10v-525h-10v510z" />
    <glyph glyph-name="uniF359" unicode="&#xf359;" 
d="M106 0h-10v525h10v-510l429 510h10v-525h-10v510zM195 640h10c0 -57 43 -90 112 -90c66 0 108 33 108 90h10c0 -64 -51 -100 -118 -100c-74 0 -122 36 -122 100z" />
    <glyph glyph-name="uniF35A" unicode="&#xf35a;" horiz-adv-x="492" 
d="M454 525l-289 -251l297 -274h-15l-296 274l288 251h15zM96 0v525h10v-525h-10z" />
    <glyph glyph-name="uniF35B" unicode="&#xf35b;" horiz-adv-x="577" 
d="M471 0v515h-281l-8 -99c-31 -388 -111 -416 -158 -416v10c34 0 118 21 148 410l8 105h301v-525h-10z" />
    <glyph glyph-name="uniF35C" unicode="&#xf35c;" horiz-adv-x="699" 
d="M96 0v525h11l247 -314l238 314h11v-525h-10v511l-239 -315h-2l-246 312v-508h-10z" />
    <glyph glyph-name="uniF35D" unicode="&#xf35d;" horiz-adv-x="621" 
d="M515 0v263h-409v-263h-10v525h10v-252h409v252h10v-525h-10z" />
    <glyph glyph-name="uniF35E" unicode="&#xf35e;" horiz-adv-x="644" 
d="M48 263c0 152 119 268 274 268s274 -116 274 -268c0 -153 -119 -269 -274 -269s-274 116 -274 269zM58 263c0 -148 115 -259 264 -259c150 0 264 111 264 259c0 147 -115 258 -264 258s-264 -111 -264 -258z" />
    <glyph glyph-name="uniF35F" unicode="&#xf35f;" horiz-adv-x="620" 
d="M514 0v515h-408v-515h-10v525h428v-525h-10z" />
    <glyph glyph-name="uniF360" unicode="&#xf360;" horiz-adv-x="455" 
d="M106 0h-10v525c31 0 95 2 122 2c150 0 189 -79 189 -152c0 -77 -52 -155 -196 -155c-32 0 -68 2 -105 4v-224zM219 517c-28 0 -87 -1 -113 -2v-281c36 -2 68 -4 104 -4c130 0 187 65 187 145c0 78 -48 142 -178 142z" />
    <glyph glyph-name="uniF361" unicode="&#xf361;" horiz-adv-x="526" 
d="M489 58l5 -8c-41 -36 -108 -56 -170 -56c-164 0 -276 105 -276 269c0 150 108 268 267 268c69 0 123 -14 169 -47l-7 -7c-43 32 -97 44 -161 44c-156 0 -258 -114 -258 -258c0 -157 109 -259 266 -259c67 0 125 22 165 54z" />
    <glyph glyph-name="uniF362" unicode="&#xf362;" horiz-adv-x="472" 
d="M8 515v10h456v-10h-223v-515h-10v515h-223z" />
    <glyph glyph-name="uniF363" unicode="&#xf363;" horiz-adv-x="506" 
d="M490 525l-198 -409c-39 -80 -69 -116 -115 -116c-18 0 -38 3 -53 14l4 9c15 -9 32 -14 48 -14c43 0 71 40 94 84l12 23l-266 409h11l260 -399l192 399h11z" />
    <glyph glyph-name="uniF364" unicode="&#xf364;" horiz-adv-x="660" 
d="M324 -6v68h-8c-163 0 -276 75 -276 208s110 208 279 208h5v53h10v-53h6c174 0 280 -77 280 -208c0 -132 -114 -208 -276 -208h-10v-68h-10zM340 469h-6v-398h10c150 0 266 67 266 199s-112 199 -270 199zM50 270c0 -130 115 -199 266 -199h8v398h-5
c-157 0 -269 -69 -269 -199z" />
    <glyph glyph-name="uniF365" unicode="&#xf365;" horiz-adv-x="523" 
d="M484 525l-216 -258l224 -267h-13l-218 259l-217 -259h-13l224 267l-215 258h13l208 -249l211 249h12z" />
    <glyph glyph-name="uniF366" unicode="&#xf366;" horiz-adv-x="628" 
d="M96 0v525h10v-515h404v515h10v-515h76v-115h-9v105h-491z" />
    <glyph glyph-name="uniF367" unicode="&#xf367;" horiz-adv-x="493" 
d="M397 525v-525h-10v257c-34 -22 -103 -50 -175 -50c-96 0 -164 51 -164 168v150h10v-151c0 -104 61 -157 156 -157c75 0 139 30 173 50v258h10z" />
    <glyph glyph-name="uniF368" unicode="&#xf368;" horiz-adv-x="793" 
d="M96 0v525h10v-515h285v515h10v-515h286v515h10v-525h-601z" />
    <glyph glyph-name="uniF369" unicode="&#xf369;" horiz-adv-x="805" 
d="M96 0v525h10v-515h285v515h10v-515h286v515h10v-515h76v-115h-10v105h-667z" />
    <glyph glyph-name="uniF36A" unicode="&#xf36a;" horiz-adv-x="529" 
d="M0 515v10h164v-224c41 3 82 4 108 4c143 0 209 -56 209 -148c0 -107 -83 -159 -213 -159c-40 0 -81 2 -114 2v515h-154zM273 295c-27 0 -68 -1 -109 -4v-281c29 0 65 -2 105 -2c131 0 202 52 202 150c0 86 -66 137 -198 137z" />
    <glyph glyph-name="uniF36B" unicode="&#xf36b;" horiz-adv-x="646" 
d="M540 0v525h10v-525h-10zM207 295c-27 0 -61 -1 -101 -4v-281c29 0 57 -2 97 -2c130 0 202 52 202 150c0 85 -66 137 -198 137zM106 525v-224c40 3 74 4 99 4c143 0 210 -56 210 -148c0 -107 -84 -159 -213 -159c-40 0 -73 2 -106 2v525h10z" />
    <glyph glyph-name="uniF36C" unicode="&#xf36c;" horiz-adv-x="471" 
d="M214 295c-27 0 -68 -1 -108 -4v-281c29 0 65 -2 104 -2c131 0 203 52 203 150c0 86 -66 137 -199 137zM106 525v-224c40 3 82 4 107 4c143 0 210 -56 210 -148c0 -107 -84 -159 -214 -159c-39 0 -80 2 -113 2v525h10z" />
    <glyph glyph-name="uniF36D" unicode="&#xf36d;" horiz-adv-x="548" 
d="M165 263v10h325c-4 152 -108 248 -270 248c-59 0 -116 -13 -161 -46l-6 7c44 35 110 49 167 49c171 0 280 -102 280 -266c0 -151 -108 -271 -275 -271c-69 0 -129 17 -185 55l6 7c54 -35 113 -52 178 -52c163 0 265 116 266 259h-325z" />
    <glyph glyph-name="uniF36E" unicode="&#xf36e;" horiz-adv-x="858" 
d="M96 0v525h10v-252h173c4 147 114 258 265 258c155 0 266 -116 266 -268c0 -153 -111 -269 -266 -269c-154 0 -265 116 -265 269h-173v-263h-10zM289 263c0 -148 106 -259 255 -259c150 0 256 111 256 259c0 147 -106 258 -256 258c-149 0 -255 -111 -255 -258z" />
    <glyph glyph-name="uniF36F" unicode="&#xf36f;" horiz-adv-x="484" 
d="M378 0v220h-152l-181 -220h-13l183 221c-70 12 -138 71 -138 147c0 91 67 159 197 159c39 0 81 -2 114 -2v-525h-10zM222 230h156v285c-29 0 -65 2 -105 2c-130 0 -186 -70 -186 -150c0 -70 67 -127 135 -137z" />
    <glyph glyph-name="uniF371" unicode="&#xf371;" horiz-adv-x="469" 
d="M96 0v525h301v-10h-291v-242h267v-10h-267v-253h299v-10h-309zM141 671c0 6 6 12 13 12c6 0 12 -6 12 -12c0 -7 -6 -13 -12 -13c-7 0 -13 6 -13 13zM315 671c0 6 6 12 13 12c6 0 12 -6 12 -12c0 -7 -6 -13 -12 -13c-7 0 -13 6 -13 13z" />
    <glyph glyph-name="uniF372" unicode="&#xf372;" horiz-adv-x="606" 
d="M558 154c0 -119 -57 -160 -130 -160c-28 0 -56 14 -64 19l6 9c12 -9 36 -18 59 -18c70 0 119 43 119 150c0 108 -55 153 -156 153c-77 0 -118 -32 -151 -51v-256h-10v515h-223v10h456v-10h-223v-249c34 22 79 51 153 51c96 0 164 -43 164 -163z" />
    <glyph glyph-name="uniF373" unicode="&#xf373;" horiz-adv-x="400" 
d="M96 0v525h304v-10h-294v-515h-10zM327 740l-109 -141l-8 5l110 142z" />
    <glyph glyph-name="uniF374" unicode="&#xf374;" horiz-adv-x="548" 
d="M383 273v-10h-325c0 -154 110 -259 274 -259c64 0 115 17 169 52l7 -7c-56 -38 -108 -55 -177 -55c-167 0 -283 107 -283 269c0 153 108 268 279 268c58 0 124 -14 167 -49l-5 -7c-45 33 -102 46 -161 46c-161 0 -266 -105 -270 -248h325z" />
    <glyph glyph-name="uniF375" unicode="&#xf375;" horiz-adv-x="454" 
d="M395 126c0 175 -332 104 -332 281c0 71 60 124 167 124c59 0 126 -20 155 -52l-6 -7c-34 34 -96 49 -151 49c-94 0 -155 -46 -155 -113c0 -171 333 -96 333 -282c0 -82 -80 -132 -168 -132s-154 28 -190 68l8 7c40 -40 97 -65 181 -65c74 0 158 40 158 122z" />
    <glyph glyph-name="uniF376" unicode="&#xf376;" horiz-adv-x="248" 
d="M119 0v525h10v-525h-10z" />
    <glyph glyph-name="uniF377" unicode="&#xf377;" horiz-adv-x="248" 
d="M56 671c0 6 6 12 13 12c6 0 12 -6 12 -12c0 -7 -6 -13 -12 -13c-7 0 -13 6 -13 13zM170 671c0 6 6 12 13 12c6 0 12 -6 12 -12c0 -7 -6 -13 -12 -13c-7 0 -13 6 -13 13zM119 0v525h10v-525h-10z" />
    <glyph glyph-name="uniF378" unicode="&#xf378;" horiz-adv-x="274" 
d="M178 525v-414c0 -69 -19 -117 -97 -117c-27 0 -51 9 -65 19l5 9c13 -9 36 -18 59 -18c76 0 88 49 88 106v415h10z" />
    <glyph glyph-name="uniF379" unicode="&#xf379;" horiz-adv-x="837" 
d="M471 0v515h-281l-8 -99c-31 -388 -111 -416 -158 -416v10c34 0 118 21 148 410l8 105h301v-224c40 3 73 4 99 4c143 0 209 -56 209 -148c0 -107 -83 -159 -213 -159c-39 0 -73 2 -105 2zM581 295c-27 0 -60 -1 -100 -4v-281c28 0 57 -2 96 -2c131 0 202 52 202 150
c0 85 -66 137 -198 137z" />
    <glyph glyph-name="uniF37A" unicode="&#xf37a;" horiz-adv-x="873" 
d="M96 0v525h10v-232h401v232h10v-232c40 3 73 4 99 4c143 0 209 -52 209 -143c0 -108 -83 -156 -213 -156c-35 0 -66 2 -95 2h-10v283h-401v-283h-10zM517 283v-273c28 0 57 -2 96 -2c131 0 202 49 202 146c0 85 -66 134 -198 134c-27 0 -60 -1 -100 -5z" />
    <glyph glyph-name="uniF37B" unicode="&#xf37b;" horiz-adv-x="606" 
d="M8 515v10h456v-10h-223v-250c32 23 87 52 162 52c95 0 155 -50 155 -168v-149h-10v151c0 103 -53 156 -148 156c-77 0 -127 -32 -159 -52v-255h-10v515h-223z" />
    <glyph glyph-name="uniF37C" unicode="&#xf37c;" horiz-adv-x="492" 
d="M454 525l-289 -251l297 -274h-15l-296 274l288 251h15zM96 0v525h10v-525h-10zM347 740l-109 -141l-8 5l110 142z" />
    <glyph glyph-name="uniF37E" unicode="&#xf37e;" horiz-adv-x="506" 
d="M490 525l-198 -409c-39 -80 -69 -116 -115 -116c-18 0 -38 3 -53 14l4 9c15 -9 32 -14 48 -14c43 0 71 40 94 84l12 23l-266 409h11l260 -399l192 399h11zM142 640h10c0 -57 43 -90 112 -90c66 0 108 33 108 90h10c0 -64 -51 -100 -118 -100c-74 0 -122 36 -122 100z" />
    <glyph glyph-name="uniF37F" unicode="&#xf37f;" horiz-adv-x="612" 
d="M96 0v525h10v-515h400v515h10v-525h-205v-120h-10v120h-205z" />
    <glyph glyph-name="uniF381" unicode="&#xf381;" horiz-adv-x="491" 
d="M0 410v10h116v105h10v-105h146v-10h-146v-109c40 3 82 4 107 4c143 0 210 -56 210 -148c0 -107 -84 -159 -214 -159c-39 0 -80 2 -113 2v410h-116zM234 295c-27 0 -68 -1 -108 -4v-281c29 0 65 -2 104 -2c131 0 203 52 203 150c0 86 -66 137 -199 137z" />
    <glyph glyph-name="uniF389" unicode="&#xf389;" horiz-adv-x="644" 
d="M48 263c0 152 119 268 274 268s274 -116 274 -268c0 -153 -119 -269 -274 -269s-274 116 -274 269zM187 309c-43 0 -92 -24 -129 -59c6 -142 119 -246 264 -246c150 0 264 111 264 259v1c-37 -31 -82 -51 -122 -51c-100 0 -178 96 -277 96zM465 223c40 0 85 22 120 54
c-7 140 -119 244 -263 244c-149 0 -264 -111 -264 -257c40 34 89 55 131 55c102 0 178 -96 276 -96z" />
    <glyph glyph-name="uniF38A" unicode="&#xf38a;" horiz-adv-x="526" 
d="M428 398l-160 -404h-4l-248 531h11l239 -514l153 391c35 90 66 129 106 129c10 0 20 -3 31 -7v-9c-10 4 -19 6 -28 6c-41 0 -69 -46 -100 -123z" />
    <glyph glyph-name="uniF393" unicode="&#xf393;" horiz-adv-x="400" 
d="M96 0v525h294v105h10v-115h-294v-515h-10z" />
    <glyph glyph-name="uniF3CF" unicode="&#xf3cf;" horiz-adv-x="921" 
d="M529 0h-8l-415 506v-506h-10v525h8l415 -507v507h10v-525zM608 379c0 66 55 115 125 115s124 -49 124 -115s-54 -115 -124 -115s-125 49 -125 115zM618 379c0 -63 57 -105 115 -105c60 0 115 42 115 105s-56 105 -115 105c-60 0 -115 -42 -115 -105zM632 196v10h201v-10
h-201z" />
    <glyph glyph-name="uniF3D0" unicode="&#xf3d0;" horiz-adv-x="360" 
d="M60 640h10c0 -57 43 -90 112 -90c66 0 108 33 108 90h10c0 -64 -51 -100 -118 -100c-74 0 -122 36 -122 100z" />
    <glyph glyph-name="uniF400" unicode="&#xf400;" horiz-adv-x="0" 
d="M-164 700l-109 -141l-8 5l110 142z" />
    <glyph glyph-name="uniF401" unicode="&#xf401;" horiz-adv-x="0" 
d="M-261 832l-154 -90l-5 7l155 91z" />
    <glyph glyph-name="uniF406" unicode="&#xf406;" horiz-adv-x="417" 
d="M60 834l7 6c20 -25 67 -70 143 -70c66 0 113 36 140 70l7 -6c-27 -36 -76 -74 -147 -74c-83 0 -134 50 -150 74z" />
    <glyph glyph-name="uniF407" unicode="&#xf407;" horiz-adv-x="298" 
d="M60 -180l4 9c27 -13 53 -19 74 -19c52 0 90 23 90 60c0 36 -24 60 -90 60h-6v70h10v-60c69 -1 96 -29 96 -70s-39 -70 -100 -70c-27 0 -51 7 -78 20z" />
    <glyph glyph-name="uniF408" unicode="&#xf408;" horiz-adv-x="453" 
d="M60 750l165 90h4l164 -90l-8 -7l-158 87l-160 -87z" />
    <glyph glyph-name="uniF409" unicode="&#xf409;" horiz-adv-x="181" 
d="M76 -80l1 10c26 -2 44 -21 44 -51c0 -47 -21 -65 -58 -79l-3 8c33 12 51 32 51 67c0 30 -15 42 -35 45z" />
    <glyph glyph-name="uniF40A" unicode="&#xf40a;" horiz-adv-x="181" 
d="M92 721l8 8c10 -11 21 -30 21 -59c0 -53 -19 -85 -58 -105l-3 8c33 17 51 52 51 95c0 28 -11 45 -19 53z" />
    <glyph glyph-name="uniF40B" unicode="&#xf40b;" horiz-adv-x="145" 
d="M60 790c0 7 6 12 13 12c6 0 12 -5 12 -12c0 -8 -6 -13 -12 -13c-7 0 -13 5 -13 13z" />
    <glyph glyph-name="uniF40C" unicode="&#xf40c;" horiz-adv-x="305" 
d="M60 775c0 51 41 75 92 75s93 -24 93 -75s-42 -78 -93 -78s-92 27 -92 78zM70 775c0 -46 36 -68 82 -68s83 22 83 68s-37 65 -83 65s-82 -19 -82 -65z" />
    <glyph glyph-name="uniF40D" unicode="&#xf40d;" horiz-adv-x="439" 
d="M66 776l-6 7c27 22 52 30 75 30c60 0 111 -50 165 -50c23 0 47 8 72 35l7 -7c-28 -28 -54 -38 -79 -38c-57 0 -111 50 -168 50c-21 0 -43 -8 -66 -27z" />
    <glyph glyph-name="uniF40E" unicode="&#xf40e;" horiz-adv-x="272" 
d="M209 -181l3 -9c-17 -7 -37 -10 -52 -10c-38 0 -100 18 -100 90s77 120 149 120v-10c-66 0 -139 -44 -139 -110s62 -80 91 -80c11 0 31 1 48 9z" />
    <glyph glyph-name="uniF410" unicode="&#xf410;" horiz-adv-x="0" 
d="M-320 742l-154 90l4 8l155 -91z" />
    <glyph glyph-name="uniF416" unicode="&#xf416;" horiz-adv-x="181" 
d="M76 -80l1 10c26 -2 44 -21 44 -51c0 -47 -21 -65 -58 -79l-3 8c33 12 51 32 51 67c0 30 -15 42 -35 45z" />
    <glyph glyph-name="uniF418" unicode="&#xf418;" horiz-adv-x="181" 
d="M92 533l8 8c10 -11 21 -30 21 -59c0 -53 -19 -85 -58 -105l-3 8c33 17 51 52 51 95c0 28 -11 45 -19 53z" />
    <glyph glyph-name="uniF447" unicode="&#xf447;" horiz-adv-x="472" 
d="M159 -180l4 9c27 -13 53 -19 74 -19c52 0 90 23 90 60c0 36 -24 60 -90 60h-6v585h-223v10h456v-10h-223v-575c69 -1 96 -29 96 -70s-39 -70 -100 -70c-27 0 -51 7 -78 20z" />
    <glyph glyph-name="uniF44E" unicode="&#xf44e;" horiz-adv-x="621" 
d="M40 273h523c-4 151 -108 248 -270 248c-58 0 -116 -13 -160 -46l-6 7c43 35 110 49 167 49c171 0 279 -102 279 -266c0 -151 -100 -271 -267 -271c-165 0 -266 121 -266 279zM306 4c162 0 256 116 257 259h-513c3 -144 100 -259 256 -259z" />
    <glyph glyph-name="uniF639" unicode="&#xf639;" horiz-adv-x="584" 
d="M80 350c0 203 59 358 212 358s212 -155 212 -358s-57 -358 -210 -358s-214 155 -214 358zM90 350c0 -198 56 -348 204 -348s200 150 200 348s-54 348 -202 348s-202 -150 -202 -348z" />
    <glyph glyph-name="uniF63A" unicode="&#xf63a;" horiz-adv-x="584" 
d="M90 0v10c114 112 358 356 358 532c0 74 -52 156 -164 156c-69 0 -159 -40 -173 -149h-10c12 109 107 159 180 159c126 0 177 -90 177 -164c0 -195 -293 -475 -354 -534h388v-10h-402z" />
    <glyph glyph-name="uniF63B" unicode="&#xf63b;" horiz-adv-x="584" 
d="M283 -8c-77 0 -157 31 -193 124l9 4c36 -90 118 -118 188 -118c114 0 188 79 188 185c0 97 -76 166 -166 166h-67v10h60c71 0 146 76 146 173c0 108 -68 162 -164 162c-95 0 -144 -50 -166 -111l-9 2c22 74 90 119 174 119c111 0 175 -65 175 -175
c0 -68 -41 -143 -114 -171v-3c88 -11 141 -92 141 -172c0 -119 -86 -195 -202 -195z" />
    <glyph glyph-name="uniF63C" unicode="&#xf63c;" horiz-adv-x="584" 
d="M406 0v200h-328v2l330 498h12l-325 -490h311v240h10v-240h112v-10h-112v-200h-10z" />
    <glyph glyph-name="uniF63D" unicode="&#xf63d;" horiz-adv-x="584" 
d="M153 388l40 312h286v-10h-278l-37 -288c22 7 54 14 88 14c132 0 222 -83 222 -206c0 -134 -96 -218 -200 -218c-76 0 -153 33 -196 118l9 4c41 -79 119 -112 187 -112c106 0 190 88 190 208c0 111 -86 196 -211 196c-36 0 -72 -8 -100 -18z" />
    <glyph glyph-name="uniF63E" unicode="&#xf63e;" horiz-adv-x="584" 
d="M80 248c0 257 175 429 332 460l5 -8c-145 -30 -305 -171 -327 -421c26 77 99 147 207 147c130 0 207 -90 207 -217c0 -120 -93 -217 -196 -217c-156 0 -228 121 -228 256zM90 249c0 -124 69 -247 216 -247c100 0 188 92 188 206s-67 208 -198 208
c-121 0 -191 -94 -206 -167z" />
    <glyph glyph-name="uniF63F" unicode="&#xf63f;" horiz-adv-x="584" 
d="M106 690v10h380v-2l-279 -698h-12l276 690h-365z" />
    <glyph glyph-name="uniF640" unicode="&#xf640;" horiz-adv-x="584" 
d="M273 365h39c71 0 156 68 156 165c0 108 -91 168 -177 168s-174 -60 -174 -168c0 -97 85 -165 156 -165zM310 355h-32c-102 0 -188 -77 -188 -174c0 -106 98 -179 202 -179s203 67 203 179c0 109 -86 174 -185 174zM293 -8c-106 0 -213 70 -213 189c0 80 58 159 157 177v3
c-76 18 -130 98 -130 166c0 110 84 181 185 181s186 -71 186 -181c0 -68 -48 -140 -130 -165v-3c93 -9 157 -84 157 -178c0 -119 -106 -189 -212 -189z" />
    <glyph glyph-name="uniF641" unicode="&#xf641;" horiz-adv-x="584" 
d="M504 452c0 -257 -141 -431 -332 -460l-5 8c179 30 315 182 327 421c-26 -77 -99 -137 -207 -137c-130 0 -207 99 -207 212c0 120 103 212 206 212c156 0 218 -121 218 -256zM494 451c0 124 -59 247 -206 247c-100 0 -198 -87 -198 -201c0 -103 67 -203 198 -203
c121 0 191 84 206 157z" />
    <glyph glyph-name="uniF643" unicode="&#xf643;" horiz-adv-x="584" 
d="M42 250c0 135 96 258 250 258s250 -123 250 -258s-96 -258 -250 -258s-250 123 -250 258zM52 250c0 -130 91 -248 240 -248s240 118 240 248s-91 248 -240 248s-240 -118 -240 -248z" />
    <glyph glyph-name="uniF644" unicode="&#xf644;" horiz-adv-x="584" 
d="M168 387l146 121h5v-508h-10v491l-134 -111z" />
    <glyph glyph-name="uniF645" unicode="&#xf645;" horiz-adv-x="584" 
d="M90 0v10c130 52 358 168 358 330c0 91 -52 159 -164 159c-69 0 -159 -40 -173 -149h-10c12 109 107 159 180 159c126 0 177 -76 177 -170c0 -178 -271 -301 -347 -329h381v-10h-402z" />
    <glyph glyph-name="uniF646" unicode="&#xf646;" horiz-adv-x="584" 
d="M283 -208c-77 0 -157 31 -193 124l9 4c36 -90 118 -118 188 -118c114 0 188 79 188 185c0 97 -76 166 -166 166h-67v10h60c71 0 146 76 146 173c0 108 -68 162 -164 162c-95 0 -144 -50 -166 -111l-9 2c22 74 90 119 174 119c111 0 175 -65 175 -175
c0 -68 -41 -143 -114 -171v-3c88 -11 141 -92 141 -172c0 -119 -86 -195 -202 -195z" />
    <glyph glyph-name="uniF647" unicode="&#xf647;" horiz-adv-x="584" 
d="M406 -200v200h-328v2l330 498h12l-325 -490h311v240h10v-240h112v-10h-112v-200h-10z" />
    <glyph glyph-name="uniF648" unicode="&#xf648;" horiz-adv-x="584" 
d="M153 188l40 312h286v-10h-278l-37 -288c22 7 54 14 88 14c132 0 222 -83 222 -206c0 -134 -96 -218 -200 -218c-76 0 -153 33 -196 118l9 4c41 -79 119 -112 187 -112c106 0 190 88 190 208c0 111 -86 196 -211 196c-36 0 -72 -8 -100 -18z" />
    <glyph glyph-name="uniF649" unicode="&#xf649;" horiz-adv-x="584" 
d="M80 248c0 257 175 429 332 460l5 -8c-145 -30 -305 -171 -327 -421c26 77 99 147 207 147c130 0 207 -90 207 -217c0 -120 -93 -217 -196 -217c-156 0 -228 121 -228 256zM90 249c0 -124 69 -247 216 -247c100 0 188 92 188 206s-67 208 -198 208
c-121 0 -191 -94 -206 -167z" />
    <glyph glyph-name="uniF64A" unicode="&#xf64a;" horiz-adv-x="584" 
d="M106 490v10h380v-2l-279 -698h-12l276 690h-365z" />
    <glyph glyph-name="uniF64B" unicode="&#xf64b;" horiz-adv-x="584" 
d="M273 365h39c71 0 156 68 156 165c0 108 -91 168 -177 168s-174 -60 -174 -168c0 -97 85 -165 156 -165zM310 355h-32c-102 0 -188 -77 -188 -174c0 -106 98 -179 202 -179s203 67 203 179c0 109 -86 174 -185 174zM293 -8c-106 0 -213 70 -213 189c0 80 58 159 157 177v3
c-76 18 -130 98 -130 166c0 110 84 181 185 181s186 -71 186 -181c0 -68 -48 -140 -130 -165v-3c93 -9 157 -84 157 -178c0 -119 -106 -189 -212 -189z" />
    <glyph glyph-name="uniF64C" unicode="&#xf64c;" horiz-adv-x="584" 
d="M504 252c0 -257 -141 -431 -332 -460l-5 8c179 30 315 182 327 421c-26 -77 -99 -137 -207 -137c-130 0 -207 99 -207 212c0 120 103 212 206 212c156 0 218 -121 218 -256zM494 251c0 124 -59 247 -206 247c-100 0 -198 -87 -198 -201c0 -103 67 -203 198 -203
c121 0 191 84 206 157z" />
    <glyph glyph-name="uniF66D" unicode="&#xf66d;" horiz-adv-x="549" 
d="M24 0l249 531h4l248 -531h-11l-97 206h-286l-96 -206h-11zM274 513l-139 -298h278zM146 714l7 6c20 -25 57 -70 123 -70c56 0 93 36 120 70l7 -6c-27 -36 -66 -74 -127 -74c-73 0 -114 50 -130 74z" />
    <glyph glyph-name="uniF66E" unicode="&#xf66e;" horiz-adv-x="549" 
d="M24 0l249 531h4l248 -531h-11l-97 206h-286l-96 -206h-11zM274 513l-139 -298h278zM157 680v10h234v-10h-234z" />
    <glyph glyph-name="uniF66F" unicode="&#xf66f;" horiz-adv-x="549" 
d="M516 -181l3 -9c-17 -7 -37 -10 -52 -10c-38 0 -100 18 -100 90c0 70 72 117 142 120l-92 196h-286l-96 -206h-11l249 531h4l248 -531h-9c-66 0 -139 -44 -139 -110s62 -80 91 -80c11 0 31 1 48 9zM274 513l-139 -298h278z" />
    <glyph glyph-name="uniF671" unicode="&#xf671;" horiz-adv-x="526" 
d="M489 58l5 -8c-41 -36 -108 -56 -170 -56c-164 0 -276 105 -276 269c0 150 108 268 267 268c69 0 123 -14 169 -47l-7 -7c-43 32 -97 44 -161 44c-156 0 -258 -114 -258 -258c0 -157 109 -259 266 -259c67 0 125 22 165 54zM397 740l-109 -141l-8 5l110 142z" />
    <glyph glyph-name="uniF672" unicode="&#xf672;" horiz-adv-x="526" 
d="M489 58l5 -8c-41 -36 -108 -56 -170 -56c-164 0 -276 105 -276 269c0 150 108 268 267 268c69 0 123 -14 169 -47l-7 -7c-43 32 -97 44 -161 44c-156 0 -258 -114 -258 -258c0 -157 109 -259 266 -259c67 0 125 22 165 54zM305 611l-125 110l7 7l120 -106l118 106l8 -7
l-124 -110h-4z" />
    <glyph glyph-name="uniF673" unicode="&#xf673;" horiz-adv-x="526" 
d="M489 58l5 -8c-41 -36 -108 -56 -170 -56c-164 0 -276 105 -276 269c0 150 108 268 267 268c69 0 123 -14 169 -47l-7 -7c-43 32 -97 44 -161 44c-156 0 -258 -114 -258 -258c0 -157 109 -259 266 -259c67 0 125 22 165 54zM309 728l133 -110l-7 -7l-128 106l-130 -106
l-8 7l136 110h4z" />
    <glyph glyph-name="uniF674" unicode="&#xf674;" horiz-adv-x="526" 
d="M489 58l5 -8c-41 -36 -108 -56 -170 -56c-164 0 -276 105 -276 269c0 150 108 268 267 268c69 0 123 -14 169 -47l-7 -7c-43 32 -97 44 -161 44c-156 0 -258 -114 -258 -258c0 -157 109 -259 266 -259c67 0 125 22 165 54zM292 673c0 6 6 12 13 12c6 0 12 -6 12 -12
c0 -7 -6 -13 -12 -13c-7 0 -13 6 -13 13z" />
    <glyph glyph-name="uniF675" unicode="&#xf675;" horiz-adv-x="588" 
d="M96 0v525h8c45 0 67 2 122 2c224 0 314 -120 314 -256c0 -151 -107 -273 -321 -273c-45 0 -77 2 -119 2h-4zM224 517c-53 0 -78 -2 -118 -2v-505c57 0 114 -2 114 -2c208 0 310 120 310 263c0 132 -86 246 -306 246zM265 611l-125 110l7 7l120 -106l118 106l8 -7
l-124 -110h-4z" />
    <glyph glyph-name="uniF676" unicode="&#xf676;" horiz-adv-x="611" 
d="M8 265v10h111v250h8c45 0 68 2 122 2c224 0 314 -120 314 -256c0 -151 -107 -273 -321 -273c-45 0 -77 2 -119 2h-4v265h-111zM247 517c-53 0 -77 -2 -118 -2v-240h170v-10h-170v-255c57 0 114 -2 114 -2c208 0 310 120 310 263c0 132 -86 246 -306 246z" />
    <glyph glyph-name="uniF678" unicode="&#xf678;" horiz-adv-x="469" 
d="M96 0v525h301v-10h-291v-242h267v-10h-267v-253h299v-10h-309zM245 611l-125 110l7 7l120 -106l118 106l8 -7l-124 -110h-4z" />
    <glyph glyph-name="uniF679" unicode="&#xf679;" horiz-adv-x="469" 
d="M96 0v525h301v-10h-291v-242h267v-10h-267v-253h299v-10h-309zM232 673c0 6 6 12 13 12c6 0 12 -6 12 -12c0 -7 -6 -13 -12 -13c-7 0 -13 6 -13 13z" />
    <glyph glyph-name="uniF67A" unicode="&#xf67a;" horiz-adv-x="469" 
d="M96 0v525h301v-10h-291v-242h267v-10h-267v-253h299v-10h-309zM127 680v10h234v-10h-234z" />
    <glyph glyph-name="uniF67C" unicode="&#xf67c;" horiz-adv-x="469" 
d="M96 0v525h301v-10h-291v-242h267v-10h-267v-253h299v-10h-11c-65 -2 -134 -45 -134 -110c0 -66 62 -80 91 -80c11 0 31 1 48 9l3 -9c-17 -7 -37 -10 -52 -10c-38 0 -100 18 -100 90c0 53 41 93 91 110h-245z" />
    <glyph glyph-name="uniF67D" unicode="&#xf67d;" horiz-adv-x="582" 
d="M334 226v10h192v-171c-49 -46 -140 -71 -209 -71c-157 0 -269 105 -269 269c0 150 108 268 267 268c69 0 123 -14 169 -47l-7 -8c-43 33 -97 45 -161 45c-156 0 -258 -114 -258 -258c0 -157 107 -259 260 -259c71 0 153 24 198 66v156h-182zM170 714l7 6
c20 -25 57 -70 123 -70c56 0 93 36 120 70l7 -6c-27 -36 -66 -74 -127 -74c-73 0 -114 50 -130 74z" />
    <glyph glyph-name="uniF67E" unicode="&#xf67e;" horiz-adv-x="582" 
d="M334 226v10h192v-171c-49 -46 -140 -71 -209 -71c-157 0 -269 105 -269 269c0 150 108 268 267 268c69 0 123 -14 169 -47l-7 -8c-43 33 -97 45 -161 45c-156 0 -258 -114 -258 -258c0 -157 107 -259 260 -259c71 0 153 24 198 66v156h-182zM319 728l133 -110l-7 -7
l-128 106l-130 -106l-8 7l136 110h4z" />
    <glyph glyph-name="uniF67F" unicode="&#xf67f;" horiz-adv-x="582" 
d="M334 226v10h192v-171c-49 -46 -140 -71 -209 -71c-157 0 -269 105 -269 269c0 150 108 268 267 268c69 0 123 -14 169 -47l-7 -8c-43 33 -97 45 -161 45c-156 0 -258 -114 -258 -258c0 -157 107 -259 260 -259c71 0 153 24 198 66v156h-182zM297 -80l1 10
c26 -2 44 -21 44 -51c0 -47 -21 -65 -58 -79l-3 8c33 12 51 32 51 67c0 30 -15 42 -35 45z" />
    <glyph glyph-name="uniF680" unicode="&#xf680;" horiz-adv-x="582" 
d="M334 226v10h192v-171c-49 -46 -140 -71 -209 -71c-157 0 -269 105 -269 269c0 150 108 268 267 268c69 0 123 -14 169 -47l-7 -8c-43 33 -97 45 -161 45c-156 0 -258 -114 -258 -258c0 -157 107 -259 260 -259c71 0 153 24 198 66v156h-182zM292 673c0 6 6 12 13 12
c6 0 12 -6 12 -12c0 -7 -6 -13 -12 -13c-7 0 -13 6 -13 13z" />
    <glyph glyph-name="uniF681" unicode="&#xf681;" horiz-adv-x="621" 
d="M30 402v10h66v113h10v-113h409v113h10v-113h66v-10h-66v-402h-10v263h-409v-263h-10v402h-66zM106 273h409v129h-409v-129z" />
    <glyph glyph-name="uniF682" unicode="&#xf682;" horiz-adv-x="621" 
d="M515 0v263h-409v-263h-10v525h10v-252h409v252h10v-525h-10zM314 728l133 -110l-7 -7l-128 106l-130 -106l-8 7l136 110h4z" />
    <glyph glyph-name="uniF685" unicode="&#xf685;" horiz-adv-x="248" 
d="M119 0v525h10v-525h-10zM7 680v10h234v-10h-234z" />
    <glyph glyph-name="uniF686" unicode="&#xf686;" horiz-adv-x="248" 
d="M129 -181l3 -9c-17 -7 -37 -10 -52 -10c-38 0 -100 18 -100 90c0 69 70 115 139 119v516h10v-525h-5c-65 -2 -134 -45 -134 -110c0 -66 62 -80 91 -80c11 0 31 1 48 9z" />
    <glyph glyph-name="uniF688" unicode="&#xf688;" horiz-adv-x="274" 
d="M178 525v-414c0 -69 -19 -117 -97 -117c-27 0 -51 9 -65 19l5 9c13 -9 36 -18 59 -18c76 0 88 49 88 106v415h10zM169 728l133 -110l-7 -7l-128 106l-130 -106l-8 7l136 110h4z" />
    <glyph glyph-name="uniF689" unicode="&#xf689;" horiz-adv-x="492" 
d="M454 525l-289 -251l297 -274h-15l-296 274l288 251h15zM96 0v525h10v-525h-10zM227 -80l1 10c26 -2 44 -21 44 -51c0 -47 -21 -65 -58 -79l-3 8c33 12 51 32 51 67c0 30 -15 42 -35 45z" />
    <glyph glyph-name="uniF68A" unicode="&#xf68a;" horiz-adv-x="444" 
d="M96 0v525h10v-515h322v-10h-332zM277 740l-109 -141l-8 5l110 142z" />
    <glyph glyph-name="uniF68B" unicode="&#xf68b;" horiz-adv-x="444" 
d="M96 0v525h10v-515h322v-10h-332zM307 525h10c6 -10 10 -22 10 -43c0 -57 -26 -98 -58 -113l-3 8c30 17 51 57 51 104c0 19 -4 34 -10 44z" />
    <glyph glyph-name="uniF68C" unicode="&#xf68c;" horiz-adv-x="444" 
d="M96 0v525h10v-515h322v-10h-332zM237 -80l1 10c26 -2 44 -21 44 -51c0 -47 -21 -65 -58 -79l-3 8c33 12 51 32 51 67c0 30 -15 42 -35 45z" />
    <glyph glyph-name="uniF68D" unicode="&#xf68d;" horiz-adv-x="444" 
d="M96 0v525h10v-515h322v-10h-332zM314 283c0 6 6 12 13 12c6 0 12 -6 12 -12c0 -7 -6 -13 -12 -13c-7 0 -13 6 -13 13z" />
    <glyph glyph-name="uniF68E" unicode="&#xf68e;" 
d="M545 0h-8l-431 506v-506h-10v525h8l431 -507v507h10v-525zM417 740l-109 -141l-8 5l110 142z" />
    <glyph glyph-name="uniF68F" unicode="&#xf68f;" 
d="M545 0h-8l-431 506v-506h-10v525h8l431 -507v507h10v-525zM318 611l-125 110l7 7l120 -106l118 106l8 -7l-124 -110h-4z" />
    <glyph glyph-name="uniF690" unicode="&#xf690;" 
d="M545 0h-8l-431 506v-506h-10v525h8l431 -507v507h10v-525zM287 -80l1 10c26 -2 44 -21 44 -51c0 -47 -21 -65 -58 -79l-3 8c33 12 51 32 51 67c0 30 -15 42 -35 45z" />
    <glyph glyph-name="uniF692" unicode="&#xf692;" horiz-adv-x="644" 
d="M48 263c0 152 119 268 274 268s274 -116 274 -268c0 -153 -119 -269 -274 -269s-274 116 -274 269zM58 263c0 -148 115 -259 264 -259c150 0 264 111 264 259c0 147 -115 258 -264 258s-264 -111 -264 -258zM487 740l-109 -141l-8 5l110 142zM347 740l-109 -141l-8 5
l110 142z" />
    <glyph glyph-name="uniF693" unicode="&#xf693;" horiz-adv-x="644" 
d="M48 263c0 152 119 268 274 268s274 -116 274 -268c0 -153 -119 -269 -274 -269s-274 116 -274 269zM58 263c0 -148 115 -259 264 -259c150 0 264 111 264 259c0 147 -115 258 -264 258s-264 -111 -264 -258zM205 680v10h234v-10h-234z" />
    <glyph glyph-name="uniF695" unicode="&#xf695;" horiz-adv-x="491" 
d="M106 0h-10v525c31 0 96 2 112 2c153 0 191 -72 191 -145c0 -67 -55 -129 -148 -145l209 -237h-13l-207 235h-134v-235zM207 517c-16 0 -75 -1 -101 -2v-270h117c80 0 166 57 166 138c0 77 -47 134 -182 134zM307 740l-109 -141l-8 5l110 142z" />
    <glyph glyph-name="uniF696" unicode="&#xf696;" horiz-adv-x="491" 
d="M106 0h-10v525c31 0 96 2 112 2c153 0 191 -72 191 -145c0 -67 -55 -129 -148 -145l209 -237h-13l-207 235h-134v-235zM207 517c-16 0 -75 -1 -101 -2v-270h117c80 0 166 57 166 138c0 77 -47 134 -182 134zM205 611l-125 110l7 7l120 -106l118 106l8 -7l-124 -110h-4z
" />
    <glyph glyph-name="uniF697" unicode="&#xf697;" horiz-adv-x="491" 
d="M106 0h-10v525c31 0 96 2 112 2c153 0 191 -72 191 -145c0 -67 -55 -129 -148 -145l209 -237h-13l-207 235h-134v-235zM207 517c-16 0 -75 -1 -101 -2v-270h117c80 0 166 57 166 138c0 77 -47 134 -182 134zM237 -80l1 10c26 -2 44 -21 44 -51c0 -47 -21 -65 -58 -79
l-3 8c33 12 51 32 51 67c0 30 -15 42 -35 45z" />
    <glyph glyph-name="uniF698" unicode="&#xf698;" horiz-adv-x="454" 
d="M395 126c0 175 -332 104 -332 281c0 71 60 124 167 124c59 0 126 -20 155 -52l-6 -7c-34 34 -96 49 -151 49c-94 0 -155 -46 -155 -113c0 -171 333 -96 333 -282c0 -82 -80 -132 -168 -132s-154 28 -190 68l8 7c40 -40 97 -65 181 -65c74 0 158 40 158 122zM327 740
l-109 -141l-8 5l110 142z" />
    <glyph glyph-name="uniF699" unicode="&#xf699;" horiz-adv-x="454" 
d="M150 -180l4 9c27 -13 53 -19 74 -19c52 0 90 23 90 60c0 36 -24 60 -90 60h-6v64c-80 3 -140 30 -174 68l8 7c40 -40 97 -65 181 -65c74 0 158 40 158 122c0 175 -332 104 -332 281c0 71 60 124 167 124c59 0 126 -20 155 -52l-6 -7c-34 34 -96 49 -151 49
c-94 0 -155 -46 -155 -113c0 -171 333 -96 333 -282c0 -82 -80 -132 -168 -132h-6v-54c69 -1 96 -29 96 -70s-39 -70 -100 -70c-27 0 -51 7 -78 20z" />
    <glyph glyph-name="uniF69A" unicode="&#xf69a;" horiz-adv-x="454" 
d="M395 126c0 175 -332 104 -332 281c0 71 60 124 167 124c59 0 126 -20 155 -52l-6 -7c-34 34 -96 49 -151 49c-94 0 -155 -46 -155 -113c0 -171 333 -96 333 -282c0 -82 -80 -132 -168 -132s-154 28 -190 68l8 7c40 -40 97 -65 181 -65c74 0 158 40 158 122zM229 728
l133 -110l-7 -7l-128 106l-130 -106l-8 7l136 110h4z" />
    <glyph glyph-name="uniF69B" unicode="&#xf69b;" horiz-adv-x="454" 
d="M395 126c0 175 -332 104 -332 281c0 71 60 124 167 124c59 0 126 -20 155 -52l-6 -7c-34 34 -96 49 -151 49c-94 0 -155 -46 -155 -113c0 -171 333 -96 333 -282c0 -82 -80 -132 -168 -132s-154 28 -190 68l8 7c40 -40 97 -65 181 -65c74 0 158 40 158 122zM217 -80l1 10
c26 -2 44 -21 44 -51c0 -47 -21 -65 -58 -79l-3 8c33 12 51 32 51 67c0 30 -15 42 -35 45z" />
    <glyph glyph-name="uniF69D" unicode="&#xf69d;" horiz-adv-x="472" 
d="M8 515v10h456v-10h-223v-515h-10v515h-223zM235 611l-125 110l7 7l120 -106l118 106l8 -7l-124 -110h-4z" />
    <glyph glyph-name="uniF69E" unicode="&#xf69e;" horiz-adv-x="472" 
d="M8 515v10h456v-10h-223v-515h-10v515h-223zM227 -80l1 10c26 -2 44 -21 44 -51c0 -47 -21 -65 -58 -79l-3 8c33 12 51 32 51 67c0 30 -15 42 -35 45z" />
    <glyph glyph-name="uniF69F" unicode="&#xf69f;" horiz-adv-x="602" 
d="M514 525v-304c0 -160 -96 -226 -206 -226c-124 0 -220 78 -220 231v299h10v-299c0 -145 92 -221 210 -221c107 0 196 65 196 219v301h10zM173 714l7 6c20 -25 57 -70 123 -70c56 0 93 36 120 70l7 -6c-27 -36 -66 -74 -127 -74c-73 0 -114 50 -130 74z" />
    <glyph glyph-name="uniF6A0" unicode="&#xf6a0;" horiz-adv-x="602" 
d="M514 525v-304c0 -160 -96 -226 -206 -226c-124 0 -220 78 -220 231v299h10v-299c0 -145 92 -221 210 -221c107 0 196 65 196 219v301h10zM467 740l-109 -141l-8 5l110 142zM327 740l-109 -141l-8 5l110 142z" />
    <glyph glyph-name="uniF6A1" unicode="&#xf6a1;" horiz-adv-x="602" 
d="M514 525v-304c0 -160 -96 -226 -206 -226c-124 0 -220 78 -220 231v299h10v-299c0 -145 92 -221 210 -221c107 0 196 65 196 219v301h10zM184 680v10h234v-10h-234z" />
    <glyph glyph-name="uniF6A2" unicode="&#xf6a2;" horiz-adv-x="602" 
d="M514 525v-304c0 -122 -56 -190 -132 -215c-54 -29 -102 -62 -102 -116c0 -66 62 -80 91 -80c11 0 31 1 48 9l3 -9c-17 -7 -37 -10 -52 -10c-38 0 -100 18 -100 90c0 59 45 90 82 109c-14 -3 -29 -4 -44 -4c-124 0 -220 78 -220 231v299h10v-299c0 -145 92 -221 210 -221
c107 0 196 65 196 219v301h10z" />
    <glyph glyph-name="uniF6A3" unicode="&#xf6a3;" horiz-adv-x="602" 
d="M514 525v-304c0 -160 -96 -226 -206 -226c-124 0 -220 78 -220 231v299h10v-299c0 -145 92 -221 210 -221c107 0 196 65 196 219v301h10zM209 655c0 51 41 93 92 93s93 -42 93 -93s-42 -92 -93 -92s-92 41 -92 92zM219 655c0 -46 36 -82 82 -82s83 36 83 82
s-37 83 -83 83s-82 -37 -82 -83z" />
    <glyph glyph-name="uniF6AB" unicode="&#xf6ab;" horiz-adv-x="496" 
d="M48 515v10h408v-3l-407 -512h415v-10h-432v3l407 512h-391zM347 740l-109 -141l-8 5l110 142z" />
    <glyph glyph-name="uniF6AC" unicode="&#xf6ac;" horiz-adv-x="496" 
d="M48 515v10h408v-3l-407 -512h415v-10h-432v3l407 512h-391zM236 673c0 6 6 12 13 12c6 0 12 -6 12 -12c0 -7 -6 -13 -12 -13c-7 0 -13 6 -13 13z" />
    <glyph glyph-name="uniF6AD" unicode="&#xf6ad;" horiz-adv-x="248" 
d="M119 0v525h10v-525h-10zM112 673c0 6 6 12 13 12c6 0 12 -6 12 -12c0 -7 -6 -13 -12 -13c-7 0 -13 6 -13 13z" />
    <glyph glyph-name="uniF6BA" unicode="&#xf6ba;" horiz-adv-x="414" 
d="M100 349v10h214v-10h-214z" />
    <glyph glyph-name="uniF6BB" unicode="&#xf6bb;" horiz-adv-x="584" 
d="M100 349v10h384v-10h-384z" />
    <glyph glyph-name="uniF6BC" unicode="&#xf6bc;" horiz-adv-x="784" 
d="M100 349v10h584v-10h-584z" />
    <glyph glyph-name="uniF6C3" unicode="&#xf6c3;" horiz-adv-x="181" 
d="M76 -80l1 10c26 -2 44 -21 44 -51c0 -47 -21 -65 -58 -79l-3 8c33 12 51 32 51 67c0 30 -15 42 -35 45z" />
    <glyph glyph-name="uniF6C9" unicode="&#xf6c9;" horiz-adv-x="279" 
d="M219 832l-154 -90l-5 7l155 91z" />
    <glyph glyph-name="uniF6CA" unicode="&#xf6ca;" horiz-adv-x="453" 
d="M225 743l-165 90l7 7l160 -87l158 87l8 -7l-164 -90h-4z" />
    <glyph glyph-name="uniF6CB" unicode="&#xf6cb;" horiz-adv-x="379" 
d="M60 790c0 7 6 12 13 12c6 0 12 -5 12 -12c0 -8 -6 -13 -12 -13c-7 0 -13 5 -13 13zM294 790c0 7 6 12 13 12c6 0 12 -4 12 -12s-6 -13 -12 -13c-7 0 -13 5 -13 13z" />
    <glyph glyph-name="uniF6CE" unicode="&#xf6ce;" horiz-adv-x="279" 
d="M214 742l-154 90l4 8l155 -91z" />
    <glyph glyph-name="uniF6CF" unicode="&#xf6cf;" horiz-adv-x="449" 
d="M389 832l-154 -90l-5 7l155 91zM219 832l-154 -90l-5 7l155 91z" />
    <glyph glyph-name="uniF6D0" unicode="&#xf6d0;" horiz-adv-x="414" 
d="M60 790v10h294v-10h-294z" />
    <glyph glyph-name="uniF6D1" unicode="&#xf6d1;" horiz-adv-x="440" 
d="M60 840h10c30 -43 83 -80 152 -80c66 0 129 36 148 80h10c-19 -52 -91 -90 -158 -90c-74 0 -137 40 -162 90z" />
    <glyph glyph-name="uniF6D4" unicode="&#xf6d4;" horiz-adv-x="360" 
d="M60 690h10c0 -57 43 -100 112 -100c66 0 108 43 108 100h10c0 -64 -51 -110 -118 -110c-74 0 -122 46 -122 110z" />
    <glyph glyph-name="uniF6DC" unicode="&#xf6dc;" horiz-adv-x="584" 
d="M168 587l146 121h5v-708h-10v691l-134 -111z" />
    <glyph glyph-name="uniF6DE" unicode="&#xf6de;" horiz-adv-x="588" 
d="M75 265v10h438v-10h-438z" />
    <glyph glyph-name="uniF6F4" unicode="&#xf6f4;" horiz-adv-x="377" 
d="M60 714l7 6c20 -25 57 -70 123 -70c56 0 93 36 120 70l7 -6c-27 -36 -66 -74 -127 -74c-73 0 -114 50 -130 74z" />
    <glyph glyph-name="uniF6F5" unicode="&#xf6f5;" horiz-adv-x="373" 
d="M185 611l-125 110l7 7l120 -106l118 106l8 -7l-124 -110h-4z" />
    <glyph glyph-name="uniF6F6" unicode="&#xf6f6;" horiz-adv-x="393" 
d="M200 728l133 -110l-7 -7l-128 106l-130 -106l-8 7l136 110h4z" />
    <glyph glyph-name="uniF6F7" unicode="&#xf6f7;" horiz-adv-x="145" 
d="M60 673c0 6 6 12 13 12c6 0 12 -6 12 -12c0 -7 -6 -13 -12 -13c-7 0 -13 6 -13 13z" />
    <glyph glyph-name="uniF6F8" unicode="&#xf6f8;" horiz-adv-x="377" 
d="M317 740l-109 -141l-8 5l110 142zM177 740l-109 -141l-8 5l110 142z" />
    <glyph glyph-name="uniF6F9" unicode="&#xf6f9;" horiz-adv-x="444" 
d="M20 179v12l76 40v294h10v-288l132 70v-11l-132 -71v-215h322v-10h-332v220z" />
    <glyph glyph-name="uniF6FA" unicode="&#xf6fa;" horiz-adv-x="848" 
d="M476 0v35c-39 -26 -93 -41 -152 -41c-164 0 -276 105 -276 269c0 150 108 268 267 268c65 0 116 -13 161 -42v36h300v-10h-290v-242h266v-10h-266v-253h298v-10h-308zM324 4c64 0 113 16 152 45v429c-43 31 -97 43 -160 43c-156 0 -258 -114 -258 -258
c0 -157 109 -259 266 -259z" />
    <glyph glyph-name="uniF6FB" unicode="&#xf6fb;" horiz-adv-x="272" 
d="M209 -181l3 -9c-17 -7 -37 -10 -52 -10c-38 0 -100 18 -100 90s77 120 149 120v-10c-66 0 -139 -44 -139 -110s62 -80 91 -80c11 0 31 1 48 9z" />
    <glyph glyph-name="uniF6FC" unicode="&#xf6fc;" horiz-adv-x="305" 
d="M60 655c0 51 41 93 92 93s93 -42 93 -93s-42 -92 -93 -92s-92 41 -92 92zM70 655c0 -46 36 -82 82 -82s83 36 83 82s-37 83 -83 83s-82 -37 -82 -83z" />
    <glyph glyph-name="uniF6FD" unicode="&#xf6fd;" horiz-adv-x="454" 
d="M395 126c0 175 -332 104 -332 281c0 71 60 124 167 124c59 0 126 -20 155 -52l-6 -7c-34 34 -96 49 -151 49c-94 0 -155 -46 -155 -113c0 -171 333 -96 333 -282c0 -82 -80 -132 -168 -132s-154 28 -190 68l8 7c40 -40 97 -65 181 -65c74 0 158 40 158 122zM225 611
l-125 110l7 7l120 -106l118 106l8 -7l-124 -110h-4z" />
    <glyph glyph-name="uniF6FE" unicode="&#xf6fe;" horiz-adv-x="399" 
d="M66 636l-6 7c38 31 65 41 87 41c47 0 67 -49 108 -49c19 0 43 11 77 43l7 -7c-38 -35 -65 -46 -86 -46c-44 0 -64 49 -109 49c-20 0 -44 -10 -78 -38z" />
    <glyph glyph-name="uniF6FF" unicode="&#xf6ff;" horiz-adv-x="496" 
d="M48 515v10h408v-3l-407 -512h415v-10h-432v3l407 512h-391zM245 611l-125 110l7 7l120 -106l118 106l8 -7l-124 -110h-4z" />
    <glyph glyph-name="uniF730" unicode="&#xf730;" horiz-adv-x="620" 
d="M60 250c0 135 96 258 250 258s250 -123 250 -258s-96 -258 -250 -258s-250 123 -250 258zM70 250c0 -130 91 -248 240 -248s240 118 240 248s-91 248 -240 248s-240 -118 -240 -248z" />
    <glyph glyph-name="uniF731" unicode="&#xf731;" horiz-adv-x="361" 
d="M60 387l146 121h5v-508h-10v491l-134 -111z" />
    <glyph glyph-name="uniF732" unicode="&#xf732;" horiz-adv-x="532" 
d="M60 0v10c130 52 358 168 358 330c0 91 -52 159 -164 159c-69 0 -159 -40 -173 -149h-10c12 109 107 159 180 159c126 0 177 -76 177 -170c0 -178 -271 -301 -347 -329h381v-10h-402z" />
    <glyph glyph-name="uniF733" unicode="&#xf733;" horiz-adv-x="535" 
d="M253 -208c-77 0 -157 31 -193 124l9 4c36 -90 118 -118 188 -118c114 0 188 79 188 185c0 97 -76 166 -166 166h-67v10h60c71 0 146 76 146 173c0 108 -68 162 -164 162c-95 0 -144 -50 -166 -111l-9 2c22 74 90 119 174 119c111 0 175 -65 175 -175
c0 -68 -41 -143 -114 -171v-3c88 -11 141 -92 141 -172c0 -119 -86 -195 -202 -195z" />
    <glyph glyph-name="uniF734" unicode="&#xf734;" horiz-adv-x="520" 
d="M358 -200v200h-328v2l330 498h12l-325 -490h311v240h10v-240h112v-10h-112v-200h-10z" />
    <glyph glyph-name="uniF735" unicode="&#xf735;" horiz-adv-x="521" 
d="M135 188l40 312h286v-10h-278l-37 -288c22 7 54 14 88 14c132 0 222 -83 222 -206c0 -134 -96 -218 -200 -218c-76 0 -153 33 -196 118l9 4c41 -79 119 -112 187 -112c106 0 190 88 190 208c0 111 -86 196 -211 196c-36 0 -72 -8 -100 -18z" />
    <glyph glyph-name="uniF736" unicode="&#xf736;" horiz-adv-x="544" 
d="M60 248c0 257 175 429 332 460l5 -8c-145 -30 -305 -171 -327 -421c26 77 99 147 207 147c130 0 207 -90 207 -217c0 -120 -93 -217 -196 -217c-156 0 -228 121 -228 256zM70 249c0 -124 69 -247 216 -247c100 0 188 92 188 206s-67 208 -198 208
c-121 0 -191 -94 -206 -167z" />
    <glyph glyph-name="uniF737" unicode="&#xf737;" horiz-adv-x="460" 
d="M40 490v10h380v-2l-279 -698h-12l276 690h-365z" />
    <glyph glyph-name="uniF738" unicode="&#xf738;" horiz-adv-x="585" 
d="M273 365h39c71 0 156 68 156 165c0 108 -91 168 -177 168s-174 -60 -174 -168c0 -97 85 -165 156 -165zM310 355h-32c-102 0 -188 -77 -188 -174c0 -106 98 -179 202 -179s203 67 203 179c0 109 -86 174 -185 174zM293 -8c-106 0 -213 70 -213 189c0 80 58 159 157 177v3
c-76 18 -130 98 -130 166c0 110 84 181 185 181s186 -71 186 -181c0 -68 -48 -140 -130 -165v-3c93 -9 157 -84 157 -178c0 -119 -106 -189 -212 -189z" />
    <glyph glyph-name="uniF739" unicode="&#xf739;" horiz-adv-x="544" 
d="M484 252c0 -257 -141 -431 -332 -460l-5 8c179 30 315 182 327 421c-26 -77 -99 -137 -207 -137c-130 0 -207 99 -207 212c0 120 103 212 206 212c156 0 218 -121 218 -256zM474 251c0 124 -59 247 -206 247c-100 0 -198 -87 -198 -201c0 -103 67 -203 198 -203
c121 0 191 84 206 157z" />
    <glyph glyph-name="uniF760" unicode="&#xf760;" horiz-adv-x="237" 
d="M169 599l-109 141l7 6l110 -142z" />
    <glyph glyph-name="uniF761" unicode="&#xf761;" horiz-adv-x="549" 
d="M24 0l249 531h4l248 -531h-11l-97 206h-286l-96 -206h-11zM274 513l-139 -298h278z" />
    <glyph glyph-name="uniF762" unicode="&#xf762;" horiz-adv-x="494" 
d="M96 0v525c31 0 95 2 138 2c134 0 172 -57 172 -129c0 -77 -61 -119 -127 -126v-1c98 -8 151 -53 151 -129c0 -103 -83 -144 -194 -144c-45 0 -107 2 -140 2zM236 265h-130v-255c28 0 88 -2 128 -2c115 0 186 43 186 135c0 77 -65 122 -184 122zM233 517
c-42 0 -101 -1 -127 -2v-240h136c84 0 154 48 154 123c0 77 -47 119 -163 119z" />
    <glyph glyph-name="uniF763" unicode="&#xf763;" horiz-adv-x="526" 
d="M489 58l5 -8c-41 -36 -108 -56 -170 -56c-164 0 -276 105 -276 269c0 150 108 268 267 268c69 0 123 -14 169 -47l-7 -7c-43 32 -97 44 -161 44c-156 0 -258 -114 -258 -258c0 -157 109 -259 266 -259c67 0 125 22 165 54z" />
    <glyph glyph-name="uniF764" unicode="&#xf764;" horiz-adv-x="588" 
d="M96 0v525h8c45 0 67 2 122 2c224 0 314 -120 314 -256c0 -151 -107 -273 -321 -273c-45 0 -77 2 -119 2h-4zM224 517c-53 0 -78 -2 -118 -2v-505c57 0 114 -2 114 -2c208 0 310 120 310 263c0 132 -86 246 -306 246z" />
    <glyph glyph-name="uniF765" unicode="&#xf765;" horiz-adv-x="469" 
d="M96 0v525h301v-10h-291v-242h267v-10h-267v-253h299v-10h-309z" />
    <glyph glyph-name="uniF766" unicode="&#xf766;" horiz-adv-x="436" 
d="M96 0v525h308v-10h-298v-257h274v-10h-274v-248h-10z" />
    <glyph glyph-name="uniF767" unicode="&#xf767;" horiz-adv-x="582" 
d="M334 226v10h192v-171c-49 -46 -140 -71 -209 -71c-157 0 -269 105 -269 269c0 150 108 268 267 268c69 0 123 -14 169 -47l-7 -8c-43 33 -97 45 -161 45c-156 0 -258 -114 -258 -258c0 -157 107 -259 260 -259c71 0 153 24 198 66v156h-182z" />
    <glyph glyph-name="uniF768" unicode="&#xf768;" horiz-adv-x="621" 
d="M515 0v263h-409v-263h-10v525h10v-252h409v252h10v-525h-10z" />
    <glyph glyph-name="uniF769" unicode="&#xf769;" horiz-adv-x="248" 
d="M119 0v525h10v-525h-10z" />
    <glyph glyph-name="uniF76A" unicode="&#xf76a;" horiz-adv-x="274" 
d="M178 525v-414c0 -69 -19 -117 -97 -117c-27 0 -51 9 -65 19l5 9c13 -9 36 -18 59 -18c76 0 88 49 88 106v415h10z" />
    <glyph glyph-name="uniF76B" unicode="&#xf76b;" horiz-adv-x="492" 
d="M454 525l-289 -251l297 -274h-15l-296 274l288 251h15zM96 0v525h10v-525h-10z" />
    <glyph glyph-name="uniF76C" unicode="&#xf76c;" horiz-adv-x="444" 
d="M96 0v525h10v-515h322v-10h-332z" />
    <glyph glyph-name="uniF76D" unicode="&#xf76d;" horiz-adv-x="699" 
d="M96 0v525h11l247 -314l238 314h11v-525h-10v511l-239 -315h-2l-246 312v-508h-10z" />
    <glyph glyph-name="uniF76E" unicode="&#xf76e;" 
d="M545 0h-8l-431 506v-506h-10v525h8l431 -507v507h10v-525z" />
    <glyph glyph-name="uniF76F" unicode="&#xf76f;" horiz-adv-x="644" 
d="M48 263c0 152 119 268 274 268s274 -116 274 -268c0 -153 -119 -269 -274 -269s-274 116 -274 269zM58 263c0 -148 115 -259 264 -259c150 0 264 111 264 259c0 147 -115 258 -264 258s-264 -111 -264 -258z" />
    <glyph glyph-name="uniF770" unicode="&#xf770;" horiz-adv-x="455" 
d="M106 0h-10v525c31 0 95 2 122 2c150 0 189 -79 189 -152c0 -77 -52 -155 -196 -155c-32 0 -68 2 -105 4v-224zM219 517c-28 0 -87 -1 -113 -2v-281c36 -2 68 -4 104 -4c130 0 187 65 187 145c0 78 -48 142 -178 142z" />
    <glyph glyph-name="uniF771" unicode="&#xf771;" horiz-adv-x="644" 
d="M48 263c0 152 119 268 274 268s274 -116 274 -268c0 -86 -38 -160 -98 -209l48 -54h-14l-42 48c-46 -34 -104 -54 -168 -54c-155 0 -274 116 -274 269zM58 263c0 -148 115 -259 264 -259c62 0 117 19 161 51l-49 57l7 7l50 -58c59 47 95 118 95 202
c0 147 -115 258 -264 258s-264 -111 -264 -258z" />
    <glyph glyph-name="uniF772" unicode="&#xf772;" horiz-adv-x="491" 
d="M106 0h-10v525c31 0 96 2 112 2c153 0 191 -72 191 -145c0 -67 -55 -129 -148 -145l209 -237h-13l-207 235h-134v-235zM207 517c-16 0 -75 -1 -101 -2v-270h117c80 0 166 57 166 138c0 77 -47 134 -182 134z" />
    <glyph glyph-name="uniF773" unicode="&#xf773;" horiz-adv-x="454" 
d="M395 126c0 175 -332 104 -332 281c0 71 60 124 167 124c59 0 126 -20 155 -52l-6 -7c-34 34 -96 49 -151 49c-94 0 -155 -46 -155 -113c0 -171 333 -96 333 -282c0 -82 -80 -132 -168 -132s-154 28 -190 68l8 7c40 -40 97 -65 181 -65c74 0 158 40 158 122z" />
    <glyph glyph-name="uniF774" unicode="&#xf774;" horiz-adv-x="472" 
d="M8 515v10h456v-10h-223v-515h-10v515h-223z" />
    <glyph glyph-name="uniF775" unicode="&#xf775;" horiz-adv-x="602" 
d="M514 525v-304c0 -160 -96 -226 -206 -226c-124 0 -220 78 -220 231v299h10v-299c0 -145 92 -221 210 -221c107 0 196 65 196 219v301h10z" />
    <glyph glyph-name="uniF776" unicode="&#xf776;" horiz-adv-x="526" 
d="M510 525l-242 -531h-4l-248 531h11l239 -514l233 514h11z" />
    <glyph glyph-name="uniF777" unicode="&#xf777;" horiz-adv-x="753" 
d="M737 525l-165 -525h-5l-189 503l-184 -503h-5l-173 525h11l165 -499l184 499h5l188 -500l158 500h10z" />
    <glyph glyph-name="uniF778" unicode="&#xf778;" horiz-adv-x="523" 
d="M484 525l-216 -258l224 -267h-13l-218 259l-217 -259h-13l224 267l-215 258h13l208 -249l211 249h12z" />
    <glyph glyph-name="uniF779" unicode="&#xf779;" horiz-adv-x="445" 
d="M429 525l-202 -289v-236h-10v236l-201 289h13l193 -279l195 279h12z" />
    <glyph glyph-name="uniF77A" unicode="&#xf77a;" horiz-adv-x="496" 
d="M48 515v10h408v-3l-407 -512h415v-10h-432v3l407 512h-391z" />
    <glyph glyph-name="uniF7A8" unicode="&#xf7a8;" horiz-adv-x="319" 
d="M60 671c0 6 6 12 13 12c6 0 12 -6 12 -12c0 -7 -6 -13 -12 -13c-7 0 -13 6 -13 13zM234 671c0 6 6 12 13 12c6 0 12 -6 12 -12c0 -7 -6 -13 -12 -13c-7 0 -13 6 -13 13z" />
    <glyph glyph-name="uniF7AF" unicode="&#xf7af;" horiz-adv-x="354" 
d="M60 680v10h234v-10h-234z" />
    <glyph glyph-name="uniF7B4" unicode="&#xf7b4;" horiz-adv-x="237" 
d="M177 740l-109 -141l-8 5l110 142z" />
    <glyph glyph-name="uniF7B8" unicode="&#xf7b8;" horiz-adv-x="298" 
d="M60 -180l4 9c27 -13 53 -19 74 -19c52 0 90 23 90 60c0 36 -24 60 -90 60h-6v70h10v-60c69 -1 96 -29 96 -70s-39 -70 -100 -70c-27 0 -51 7 -78 20z" />
    <glyph glyph-name="uniF7E0" unicode="&#xf7e0;" horiz-adv-x="549" 
d="M24 0l249 531h4l248 -531h-11l-97 206h-286l-96 -206h-11zM274 513l-139 -298h278zM299 599l-109 141l7 6l110 -142z" />
    <glyph glyph-name="uniF7E1" unicode="&#xf7e1;" horiz-adv-x="549" 
d="M24 0l249 531h4l248 -531h-11l-97 206h-286l-96 -206h-11zM274 513l-139 -298h278zM367 740l-109 -141l-8 5l110 142z" />
    <glyph glyph-name="uniF7E2" unicode="&#xf7e2;" horiz-adv-x="549" 
d="M24 0l249 531h4l248 -531h-11l-97 206h-286l-96 -206h-11zM274 513l-139 -298h278zM278 728l133 -110l-7 -7l-128 106l-130 -106l-8 7l136 110h4z" />
    <glyph glyph-name="uniF7E3" unicode="&#xf7e3;" horiz-adv-x="549" 
d="M24 0l249 531h4l248 -531h-11l-97 206h-286l-96 -206h-11zM274 513l-139 -298h278zM141 636l-6 7c38 31 65 41 87 41c47 0 67 -49 108 -49c19 0 43 11 77 43l7 -7c-38 -35 -65 -46 -86 -46c-44 0 -64 49 -109 49c-20 0 -44 -10 -78 -38z" />
    <glyph glyph-name="uniF7E4" unicode="&#xf7e4;" horiz-adv-x="549" 
d="M24 0l249 531h4l248 -531h-11l-97 206h-286l-96 -206h-11zM274 513l-139 -298h278zM175 671c0 6 6 12 13 12c6 0 12 -6 12 -12c0 -7 -6 -13 -12 -13c-7 0 -13 6 -13 13zM349 671c0 6 6 12 13 12c6 0 12 -6 12 -12c0 -7 -6 -13 -12 -13c-7 0 -13 6 -13 13z" />
    <glyph glyph-name="uniF7E5" unicode="&#xf7e5;" horiz-adv-x="549" 
d="M24 0l249 531h4l248 -531h-11l-97 206h-286l-96 -206h-11zM274 513l-139 -298h278zM182 655c0 51 41 93 92 93s93 -42 93 -93s-42 -92 -93 -92s-92 41 -92 92zM192 655c0 -46 36 -82 82 -82s83 36 83 82s-37 83 -83 83s-82 -37 -82 -83z" />
    <glyph glyph-name="uniF7E6" unicode="&#xf7e6;" horiz-adv-x="780" 
d="M408 0v211h-228l-161 -211h-12l169 221l233 304h299v-10h-290v-242h266v-10h-266v-253h298v-10h-308zM408 508l-220 -287h220v287z" />
    <glyph glyph-name="uniF7E7" unicode="&#xf7e7;" horiz-adv-x="526" 
d="M220 -180l4 9c27 -13 53 -19 74 -19c52 0 90 23 90 60c0 36 -24 60 -90 60h-6v66c-147 12 -244 114 -244 267c0 150 108 268 267 268c69 0 123 -14 169 -47l-7 -7c-43 32 -97 44 -161 44c-156 0 -258 -114 -258 -258c0 -157 109 -259 266 -259c67 0 125 22 165 54l5 -8
c-41 -36 -108 -56 -170 -56c-8 0 -15 0 -22 1v-55c69 -1 96 -29 96 -70s-39 -70 -100 -70c-27 0 -51 7 -78 20z" />
    <glyph glyph-name="uniF7E8" unicode="&#xf7e8;" horiz-adv-x="469" 
d="M96 0v525h301v-10h-291v-242h267v-10h-267v-253h299v-10h-309zM269 599l-109 141l7 6l110 -142z" />
    <glyph glyph-name="uniF7E9" unicode="&#xf7e9;" horiz-adv-x="469" 
d="M96 0v525h301v-10h-291v-242h267v-10h-267v-253h299v-10h-309zM347 740l-109 -141l-8 5l110 142z" />
    <glyph glyph-name="uniF7EA" unicode="&#xf7ea;" horiz-adv-x="469" 
d="M96 0v525h301v-10h-291v-242h267v-10h-267v-253h299v-10h-309zM254 728l133 -110l-7 -7l-128 106l-130 -106l-8 7l136 110h4z" />
    <glyph glyph-name="uniF7EB" unicode="&#xf7eb;" horiz-adv-x="469" 
d="M96 0v525h301v-10h-291v-242h267v-10h-267v-253h299v-10h-309zM141 671c0 6 6 12 13 12c6 0 12 -6 12 -12c0 -7 -6 -13 -12 -13c-7 0 -13 6 -13 13zM315 671c0 6 6 12 13 12c6 0 12 -6 12 -12c0 -7 -6 -13 -12 -13c-7 0 -13 6 -13 13z" />
    <glyph glyph-name="uniF7EC" unicode="&#xf7ec;" horiz-adv-x="248" 
d="M119 0v525h10v-525h-10zM139 599l-109 141l7 6l110 -142z" />
    <glyph glyph-name="uniF7ED" unicode="&#xf7ed;" horiz-adv-x="248" 
d="M119 0v525h10v-525h-10zM227 740l-109 -141l-8 5l110 142z" />
    <glyph glyph-name="uniF7EE" unicode="&#xf7ee;" horiz-adv-x="248" 
d="M119 0v525h10v-525h-10zM128 728l133 -110l-7 -7l-128 106l-130 -106l-8 7l136 110h4z" />
    <glyph glyph-name="uniF7EF" unicode="&#xf7ef;" horiz-adv-x="248" 
d="M119 0v525h10v-525h-10zM25 671c0 6 6 12 13 12c6 0 12 -6 12 -12c0 -7 -6 -13 -12 -13c-7 0 -13 6 -13 13zM199 671c0 6 6 12 13 12c6 0 12 -6 12 -12c0 -7 -6 -13 -12 -13c-7 0 -13 6 -13 13z" />
    <glyph glyph-name="uniF7F0" unicode="&#xf7f0;" horiz-adv-x="611" 
d="M8 265v10h111v250h8c45 0 68 2 122 2c224 0 314 -120 314 -256c0 -151 -107 -273 -321 -273c-45 0 -77 2 -119 2h-4v265h-111zM247 517c-53 0 -77 -2 -118 -2v-240h170v-10h-170v-255c57 0 114 -2 114 -2c208 0 310 120 310 263c0 132 -86 246 -306 246z" />
    <glyph glyph-name="uniF7F1" unicode="&#xf7f1;" 
d="M545 0h-8l-431 506v-506h-10v525h8l431 -507v507h10v-525zM186 636l-6 7c38 31 65 41 87 41c47 0 67 -49 108 -49c19 0 43 11 77 43l7 -7c-38 -35 -65 -46 -86 -46c-44 0 -64 49 -109 49c-20 0 -44 -10 -78 -38z" />
    <glyph glyph-name="uniF7F2" unicode="&#xf7f2;" horiz-adv-x="644" 
d="M48 263c0 152 119 268 274 268s274 -116 274 -268c0 -153 -119 -269 -274 -269s-274 116 -274 269zM58 263c0 -148 115 -259 264 -259c150 0 264 111 264 259c0 147 -115 258 -264 258s-264 -111 -264 -258zM339 599l-109 141l7 6l110 -142z" />
    <glyph glyph-name="uniF7F3" unicode="&#xf7f3;" horiz-adv-x="644" 
d="M48 263c0 152 119 268 274 268s274 -116 274 -268c0 -153 -119 -269 -274 -269s-274 116 -274 269zM58 263c0 -148 115 -259 264 -259c150 0 264 111 264 259c0 147 -115 258 -264 258s-264 -111 -264 -258zM417 740l-109 -141l-8 5l110 142z" />
    <glyph glyph-name="uniF7F4" unicode="&#xf7f4;" horiz-adv-x="644" 
d="M48 263c0 152 119 268 274 268s274 -116 274 -268c0 -153 -119 -269 -274 -269s-274 116 -274 269zM58 263c0 -148 115 -259 264 -259c150 0 264 111 264 259c0 147 -115 258 -264 258s-264 -111 -264 -258zM326 728l133 -110l-7 -7l-128 106l-130 -106l-8 7l136 110h4z
" />
    <glyph glyph-name="uniF7F5" unicode="&#xf7f5;" horiz-adv-x="644" 
d="M48 263c0 152 119 268 274 268s274 -116 274 -268c0 -153 -119 -269 -274 -269s-274 116 -274 269zM58 263c0 -148 115 -259 264 -259c150 0 264 111 264 259c0 147 -115 258 -264 258s-264 -111 -264 -258zM189 636l-6 7c38 31 65 41 87 41c47 0 67 -49 108 -49
c19 0 43 11 77 43l7 -7c-38 -35 -65 -46 -86 -46c-44 0 -64 49 -109 49c-20 0 -44 -10 -78 -38z" />
    <glyph glyph-name="uniF7F6" unicode="&#xf7f6;" horiz-adv-x="644" 
d="M48 263c0 152 119 268 274 268s274 -116 274 -268c0 -153 -119 -269 -274 -269s-274 116 -274 269zM58 263c0 -148 115 -259 264 -259c150 0 264 111 264 259c0 147 -115 258 -264 258s-264 -111 -264 -258zM223 671c0 6 6 12 13 12c6 0 12 -6 12 -12
c0 -7 -6 -13 -12 -13c-7 0 -13 6 -13 13zM397 671c0 6 6 12 13 12c6 0 12 -6 12 -12c0 -7 -6 -13 -12 -13c-7 0 -13 6 -13 13z" />
    <glyph glyph-name="uniF7F8" unicode="&#xf7f8;" horiz-adv-x="644" 
d="M48 263c0 152 119 268 274 268c80 0 151 -32 201 -83l67 65l6 -6l-67 -66c42 -47 67 -109 67 -178c0 -153 -119 -269 -274 -269c-72 0 -135 25 -183 66l-63 -61l-7 7l62 61c-51 48 -83 117 -83 196zM58 263c0 -76 30 -143 80 -189l378 367c-48 49 -117 80 -194 80
c-149 0 -264 -111 -264 -258zM586 263c0 67 -24 126 -64 171l-376 -367c46 -40 107 -63 176 -63c150 0 264 111 264 259z" />
    <glyph glyph-name="uniF7F9" unicode="&#xf7f9;" horiz-adv-x="602" 
d="M514 525v-304c0 -160 -96 -226 -206 -226c-124 0 -220 78 -220 231v299h10v-299c0 -145 92 -221 210 -221c107 0 196 65 196 219v301h10zM319 599l-109 141l7 6l110 -142z" />
    <glyph glyph-name="uniF7FA" unicode="&#xf7fa;" horiz-adv-x="602" 
d="M514 525v-304c0 -160 -96 -226 -206 -226c-124 0 -220 78 -220 231v299h10v-299c0 -145 92 -221 210 -221c107 0 196 65 196 219v301h10zM387 740l-109 -141l-8 5l110 142z" />
    <glyph glyph-name="uniF7FB" unicode="&#xf7fb;" horiz-adv-x="602" 
d="M514 525v-304c0 -160 -96 -226 -206 -226c-124 0 -220 78 -220 231v299h10v-299c0 -145 92 -221 210 -221c107 0 196 65 196 219v301h10zM305 728l133 -110l-7 -7l-128 106l-130 -106l-8 7l136 110h4z" />
    <glyph glyph-name="uniF7FC" unicode="&#xf7fc;" horiz-adv-x="602" 
d="M514 525v-304c0 -160 -96 -226 -206 -226c-124 0 -220 78 -220 231v299h10v-299c0 -145 92 -221 210 -221c107 0 196 65 196 219v301h10zM202 671c0 6 6 12 13 12c6 0 12 -6 12 -12c0 -7 -6 -13 -12 -13c-7 0 -13 6 -13 13zM376 671c0 6 6 12 13 12c6 0 12 -6 12 -12
c0 -7 -6 -13 -12 -13c-7 0 -13 6 -13 13z" />
    <glyph glyph-name="uniF7FD" unicode="&#xf7fd;" horiz-adv-x="445" 
d="M429 525l-202 -289v-236h-10v236l-201 289h13l193 -279l195 279h12zM327 740l-109 -141l-8 5l110 142z" />
    <glyph glyph-name="uniF7FE" unicode="&#xf7fe;" horiz-adv-x="455" 
d="M106 0h-10v525h10v-82c33 0 89 1 112 1c150 0 189 -79 189 -152c0 -77 -52 -154 -196 -154c-32 0 -68 1 -105 4v-142zM219 434c-28 0 -87 0 -113 -1v-281c36 -3 68 -4 104 -4c130 0 187 65 187 145c0 77 -48 141 -178 141z" />
    <glyph glyph-name="uniF7FF" unicode="&#xf7ff;" horiz-adv-x="445" 
d="M429 525l-202 -289v-236h-10v236l-201 289h13l193 -279l195 279h12zM123 671c0 6 6 12 13 12c6 0 12 -6 12 -12c0 -7 -6 -13 -12 -13c-7 0 -13 6 -13 13zM297 671c0 6 6 12 13 12c6 0 12 -6 12 -12c0 -7 -6 -13 -12 -13c-7 0 -13 6 -13 13z" />
    <glyph glyph-name="P.alt02.swsh01" horiz-adv-x="597" 
d="M300 0h-10v690h-55c-187 0 -255 -61 -255 -165c0 -67 54 -115 115 -115c53 0 88 32 88 85c0 30 -24 58 -57 58c-15 0 -26 -6 -37 -17l-7 7c12 12 26 20 46 20c36 0 65 -33 65 -68c0 -62 -42 -95 -99 -95c-78 0 -124 64 -124 129c0 114 88 171 264 171h68
c171 0 235 -113 235 -210c0 -102 -73 -212 -237 -222v-268zM300 690v-412c149 10 227 105 227 213c0 104 -74 199 -227 199z" />
    </font>
</defs>
</svg>
